osu file format v14

[General]
AudioFilename: audio.mp3
AudioLeadIn: 0
PreviewTime: 56769
Countdown: 0
SampleSet: Soft
StackLeniency: 0.2
Mode: 0
LetterboxInBreaks: 0
WidescreenStoryboard: 1

[Editor]
Bookmarks: 52540
DistanceSpacing: 0.94
BeatDivisor: 4
GridSize: 32
TimelineZoom: 1.6

[Metadata]
Title:Frostbite (Cut Ver.)
TitleUnicode:Frostbite (Cut Ver.)
Artist:Masahiro "Godspeed" Aoki
ArtistUnicode:征洋 “Godspeed” 青木
Creator:Niva
Version:Ambush Predator Extra
Source:
Tags:osu! featured artist fa mappers' guild mpg monthly beatmapping contest mbc vivix veiled kuyusu rock metal instrumental
BeatmapID:3076617
BeatmapSetID:1501511

[Difficulty]
HPDrainRate:5.5
CircleSize:5
OverallDifficulty:8
ApproachRate:9.4
SliderMultiplier:1.4
SliderTickRate:1

[Events]
//Background and Video events
0,0,"bgDarkerPurple.jpg",0,0
//Break Periods
//Storyboard Layer 0 (Background)
Sprite,Background,Centre,"bgDarkerPurple.jpg",320,240 F,0,0,107070,1 S,0,0,107070,0.445
Sprite,Background,Centre,"bgDarkerPurpleDesaturated.jpg",320,240 F,0,0,6584,1 S,0,0,6903,0.445 F,0,6584,6903,1,0
Sprite,Background,Centre,"bgDarkerPurpleDesaturated.jpg",320,240 F,0,15838,16157,0,1 S,0,15838,21423,0.445 F,0,16157,21104,1 F,0,21104,21423,1,0
Sprite,Background,Centre,"bgDarkerPurpleDesaturated.jpg",320,240 F,0,56849,57168,0,1 S,0,56849,58125,0.445 F,0,57168,58125,1
Sprite,Background,Centre,"bgChorus.jpg",320,240 F,0,58125,58444,0,1 S,0,58125,89083,0.445 F,0,58444,88723,1 F,0,88723,89093,1,0
Sprite,Background,Centre,"bgDarkerPurpleDesaturated.jpg",320,240 F,0,96742,97061,0,1 S,0,96742,107070,0.445 F,0,97061,107070,1
Sprite,Background,Centre,"black.jpg",320,240 F,1,103285,103763,0,0.33 S,0,103285,107070,22.22 F,1,103763,104242,0.33,0.66 F,1,104242,104561,0.66,1 F,0,104561,107070,1
//Storyboard Layer 1 (Fail)
//Storyboard Layer 2 (Pass)
//Storyboard Layer 3 (Foreground)
Sprite,Foreground,Centre,"black.jpg",320,240 F,0,0,681,1,0 S,0,0,681,22.22
//Storyboard Layer 4 (Overlay)
//Storyboard Sound Samples

[TimingPoints]
43,319.148936170213,5,2,7,60,1,0
43,-200,5,2,7,60,0,0
202,-200,5,2,77,60,0,0
840,319.148936170213,5,2,7,60,1,0
840,-151.515151515152,5,2,7,60,0,0
859,-151.515151515152,5,2,77,60,0,0
1159,-151.515151515152,5,2,77,60,0,0
1638,319.148936170213,4,2,7,60,1,0
1638,-111.111111111111,4,2,7,60,0,0
1797,-111.111111111111,4,2,77,60,0,0
2755,319.148936170213,4,2,7,60,1,0
2755,-111.111111111111,4,2,7,60,0,0
2774,-111.111111111111,4,2,77,60,0,0
3074,-166.666666666667,4,2,77,60,0,0
3393,-133.333333333333,4,2,77,60,0,0
3872,319.148936170213,5,2,7,60,1,0
3872,-200,5,2,7,60,0,0
3891,-200,5,2,77,60,0,0
4669,319.148936170213,5,2,7,60,1,0
4669,-151.515151515152,5,2,7,60,0,0
4688,-151.515151515152,5,2,77,60,0,0
5467,319.148936170213,4,2,7,60,1,0
5626,-100,4,2,77,60,0,0
6584,319.148936170213,5,2,77,90,1,0
6584,-100,5,2,77,90,0,0
8021,319.148936170213,5,2,77,80,1,0
8021,-111.111111111111,5,2,77,80,0,0
8818,319.148936170213,5,2,77,80,1,0
8818,-111.111111111111,5,2,77,80,0,0
9616,319.148936170213,4,2,77,80,1,0
9616,-111.111111111111,4,2,77,80,0,0
10733,319.148936170213,4,2,77,80,1,0
10733,-100,4,2,77,80,0,0
11850,319.148936170213,5,2,77,80,1,0
11850,-111.111111111111,5,2,77,80,0,0
12647,319.148936170213,5,2,77,80,1,0
12647,-111.111111111111,5,2,77,80,0,0
13445,319.148936170213,4,2,77,80,1,0
13445,-111.111111111111,4,2,77,80,0,0
14562,319.148936170213,4,2,77,80,1,0
15519,-100,4,2,77,80,0,0
15838,-238.095238095238,4,2,77,80,0,0
15858,-238.095238095238,4,2,77,60,0,0
18072,-238.095238095238,4,2,77,70,0,0
18092,-238.095238095238,4,2,77,60,0,0
18391,-238.095238095238,4,2,77,70,0,0
18411,-238.095238095238,4,2,77,60,0,0
19030,-238.095238095238,4,2,77,70,0,0
19050,-238.095238095238,4,2,77,60,0,0
20645,-238.095238095238,4,2,77,80,0,0
21104,319.148936170213,4,2,77,80,1,0
21104,-125,4,2,77,80,0,0
21123,-125,4,2,77,70,0,0
26210,-125,4,2,77,70,0,0
29242,-111.111111111111,4,2,77,70,0,0
29721,-100,4,2,77,70,0,0
30199,-142.857142857143,4,2,77,70,0,0
31316,-111.111111111111,4,2,77,80,0,0
41530,319.148936170213,3,2,77,80,1,0
41530,-125,3,2,77,80,0,0
41549,-125,3,2,77,80,0,0
47274,-100,3,2,77,80,0,0
47593,-142.857142857143,3,2,77,80,0,0
47912,-250,3,2,77,80,0,0
48710,-100,3,2,77,80,0,0
49189,-133.333333333333,3,2,77,80,0,0
49668,-117.647058823529,3,2,77,80,0,0
50944,-200,3,2,77,80,0,0
52061,-100,3,2,77,80,0,0
52540,-133.333333333333,3,2,77,80,0,0
53498,-117.647058823529,3,2,77,80,0,0
54774,-200,3,2,77,80,0,0
55891,-100,3,2,77,80,0,0
56370,-117.647058823529,3,2,77,80,0,0
56849,319.148936170213,4,2,77,60,1,0
56849,-200,4,2,77,60,0,0
58125,-100,4,2,78,90,0,1
58205,-100,4,2,77,90,0,1
59162,-100,4,2,77,90,0,1
59242,-100,4,2,77,90,0,1
66822,-100,4,2,77,90,0,1
66902,-100,4,2,77,90,0,1
68019,-100,4,2,77,90,0,0
68338,-100,4,2,77,90,0,1
68418,-100,4,2,77,90,0,1
69375,-100,4,2,77,90,0,1
69455,-100,4,2,77,90,0,1
71609,-100,4,2,77,5,0,1
71689,-100,4,2,77,90,0,1
73923,-119.047619047619,4,2,77,90,0,1
73943,-119.047619047619,4,2,78,70,0,1
75040,-119.047619047619,4,2,77,90,0,1
75200,-119.047619047619,4,2,77,90,0,1
75359,-100,4,2,77,90,0,1
78231,-100,4,2,77,90,0,0
78551,-100,4,2,77,90,0,1
79269,-100,4,2,77,90,0,0
79349,-100,4,2,77,90,0,1
80067,-100,4,2,77,90,0,0
80146,-100,4,2,77,90,0,1
81024,-100,4,2,77,5,0,1
81104,-100,4,2,77,90,0,1
82221,-151.515151515152,4,2,77,90,0,1
82540,-100,4,2,77,90,0,1
86130,-100,4,2,77,5,0,1
86210,-100,4,2,77,90,0,1
88285,-100,4,2,77,90,0,1
88444,-133.333333333333,4,2,77,90,0,1
88604,-133.333333333333,4,2,77,90,0,1
88763,-133.333333333333,4,2,77,90,0,0
88843,-133.333333333333,4,2,77,80,0,0
89561,319.148936170213,4,2,77,80,1,0
90039,-100,4,2,77,50,0,0
90359,319.148936170213,4,2,77,80,1,0
90359,-129.87012987013,4,2,77,80,0,0
91476,319.148936170213,4,2,77,80,1,0
92593,319.148936170213,4,2,77,80,1,0
92593,-111.111111111111,4,2,77,80,0,0
93391,319.148936170213,4,2,77,80,1,0
93391,-111.111111111111,4,2,77,80,0,0
94189,319.148936170213,4,2,77,80,1,0
94189,-111.111111111111,4,2,77,80,0,0
95306,319.148936170213,5,2,77,80,1,0
95306,-100,5,2,77,80,0,0
96742,319.148936170213,4,2,77,80,1,0
96742,-200,4,2,77,80,0,0
96821,-200,4,2,77,60,0,0
97540,319.148936170213,4,2,7,60,1,0
97540,-151.515151515152,4,2,7,60,0,0
97559,-151.515151515152,4,2,77,60,0,0
98338,319.148936170213,4,2,7,60,1,0
98357,-100,4,2,77,60,0,0
99455,319.148936170213,4,2,7,60,1,0
99455,-111.111111111111,4,2,7,60,0,0
99474,-111.111111111111,4,2,77,60,0,0
99774,-166.666666666667,4,2,77,60,0,0
100093,-133.333333333333,4,2,77,60,0,0
100572,319.148936170213,4,2,7,60,1,0
100572,-200,4,2,7,60,0,0
100591,-200,4,2,77,60,0,0
101370,319.148936170213,4,2,7,60,1,0
101370,-151.515151515152,4,2,7,60,0,0
101389,-151.515151515152,4,2,77,60,0,0
102168,319.148936170213,4,2,7,60,1,0
102168,-200,4,2,7,60,0,0
102187,-200,4,2,77,60,0,0
103285,319.148936170213,5,2,77,60,1,0
103285,-166.666666666667,5,2,77,60,0,0
103763,-212.765957446809,5,2,77,65,0,0
104242,-285.714285714286,5,2,77,70,0,0

[Colours]
Combo1 : 112,0,179
Combo2 : 17,254,176
Combo3 : 255,94,55
Combo4 : 173,255,95
Combo5 : 255,88,100
Combo6 : 223,254,255
Combo7 : 166,249,255
Combo8 : 206,126,254

[HitObjects]
189,105,43,69,0,0:2:0:0:
187,94,202,1,0,0:0:0:0:
184,83,362,2,0,L|177:44,2,35,2|0|2,0:0|0:0|0:0,0:0:0:0:
311,201,840,6,0,P|273:176|227:178,1,92.3999997180176,0|2,0:0|0:0,0:0:0:0:
289,133,1318,1,0,0:0:0:0:
377,125,1478,1,2,0:0:0:0:
465,154,1638,101,0,0:0:0:0:
467,143,1797,1,0,0:0:0:0:
469,132,1957,1,2,0:0:0:0:
472,121,2116,1,0,0:0:0:0:
474,110,2276,1,0,0:0:0:0:
465,91,2435,5,2,0:0:0:0:
478,189,2595,1,2,0:0:0:0:
489,299,2755,102,0,P|493:275|471:290,1,62.9999980773926
308,312,3074,6,0,P|291:306|295:324,1,41.9999987182618,2|0,0:0|0:0,0:0:0:0:
396,286,3393,101,2,0:0:0:0:
396,286,3552,2,0,P|381:269|381:289,1,52.5000020027161,2|0,0:0|0:0,0:0:0:0:
256,384,3872,5,0,0:0:0:0:
245,379,4031,1,0,0:0:0:0:
233,373,4191,2,0,L|199:357,2,35,2|0|2,0:0|0:0|0:0,0:0:0:0:
322,286,4669,102,0,P|365:273|385:233,1,92.3999997180176,0|2,0:0|0:0,0:0:0:0:
293,200,5147,1,0,0:0:0:0:
208,171,5307,1,2,0:0:0:0:
283,69,5467,5,0,0:0:0:0:
284,82,5626,1,0,0:0:0:0:
285,95,5786,1,2,0:0:0:0:
286,108,5945,1,0,0:0:0:0:
287,121,6105,1,0,0:0:0:0:
275,142,6264,101,2,0:0:0:0:
294,26,6424,1,2,0:0:0:0:
435,112,6584,21,6,1:2:0:0:
426,110,6664,1,0,1:2:0:0:
417,108,6743,1,0,1:2:0:0:
408,106,6824,1,0,1:2:0:0:
399,104,6903,1,0,1:2:0:0:
390,102,6982,1,0,1:2:0:0:
381,99,7062,2,0,B|365:89|362:60|362:60|373:156,1,140,6|0,1:2|1:2,0:0:0:0:
417,273,7541,5,6,1:2:0:0:
390,296,7621,1,0,1:2:0:0:
355,293,7701,1,8,0:0:0:0:
333,266,7780,1,0,1:2:0:0:
303,247,7860,1,0,1:2:0:0:
268,249,7940,1,0,1:2:0:0:
245,272,8021,102,0,B|230:259|233:244|233:244|230:259|210:265,1,62.9999980773926,4|0,1:2|1:2,0:0:0:0:
107,384,8339,5,10,0:0:0:0:
105,366,8499,1,0,0:0:0:0:
103,348,8659,1,2,0:0:0:0:
12,217,8818,102,0,B|43:208|71:240|64:243|57:246|86:274|119:266,1,125.999996154785,4|2,1:2|0:0,0:0:0:0:
138,163,9296,1,0,0:0:0:0:
138,163,9456,1,2,0:0:0:0:
0,251,9616,6,0,L|124:232,1,125.999996154785,4|2,1:2|0:0,0:0:0:0:
138,163,10094,1,0,0:0:0:0:
189,263,10254,1,8,0:0:0:0:
208,151,10413,1,2,0:0:0:0:
239,213,10573,1,2,0:0:0:0:
401,117,10733,102,0,B|372:112|372:112|364:104|364:104|334:99,1,70,4|8,1:2|0:0,0:0:0:0:
302,28,11052,1,2,0:0:0:0:
302,28,11211,1,0,0:0:0:0:
180,113,11371,5,2,1:2:0:0:
248,211,11530,2,0,P|260:179|244:145,1,70,10|8,0:0|0:0,0:0:0:0:
183,104,11770,1,8,0:0:0:0:
180,113,11850,102,0,L|118:113,1,62.9999980773926,4|0,1:2|1:2,0:0:0:0:
10,34,12169,5,10,0:0:0:0:
5,17,12328,1,0,0:0:0:0:
0,0,12488,1,2,0:0:0:0:
117,113,12647,102,0,B|122:136|122:136|85:201|85:201|94:227,1,125.999996154785,4|2,1:2|0:0,0:0:0:0:
129,296,13125,1,0,0:0:0:0:
129,296,13285,1,2,0:0:0:0:
39,142,13444,6,0,B|46:163|46:163|116:192|116:192|123:219,1,125.999996154785,4|2,1:2|0:0,0:0:0:0:
229,202,13923,1,0,0:0:0:0:
132,154,14083,1,8,0:0:0:0:
184,254,14242,1,2,0:0:0:0:
199,142,14402,1,2,1:2:0:0:
134,320,14562,102,0,P|186:281|257:290,1,140,14|0,0:0|1:2,0:0:0:0:
351,173,15040,2,0,B|373:163|401:168|401:168|315:154,1,140,14|8,0:0|0:0,0:0:0:0:
308,142,15439,1,8,0:0:0:0:
302,129,15519,1,2,1:2:0:0:
296,116,15599,1,0,1:2:0:0:
290,103,15679,1,0,1:2:0:0:
185,176,15838,86,0,L|209:234,1,58.7999982055665,6|2,1:2|0:0,0:0:0:0:
272,198,16636,6,0,L|285:232,1,29.3999991027832,2|2,0:0|0:0,0:0:0:0:
332,280,17115,101,2,0:0:0:0:
322,349,17434,5,2,0:0:0:0:
322,349,17593,1,2,0:0:0:0:
256,384,17913,101,2,0:0:0:0:
326,251,18072,6,0,L|332:283,1,29.3999991027832,2|0,1:2|0:0,0:0:0:0:
188,187,18391,2,0,L|184:219,1,29.3999991027832,2|0,1:2|0:0,0:0:0:0:
256,118,18710,101,2,0:0:0:0:
177,287,19030,2,0,L|174:317,2,29.3999991027832,2|2|2,1:2|0:0|0:0,0:0:0:0:
159,205,19508,6,0,L|152:269,1,58.7999982055665,2|2,0:0|0:0,0:0:0:0:
148,311,19987,1,2,0:0:0:0:
104,332,20147,1,2,0:0:0:0:
57,319,20306,1,2,0:0:0:0:
455,319,20625,101,10,0:0:0:0:
446,319,20705,1,8,0:0:0:0:
436,319,20785,1,0,1:2:0:0:
426,319,20864,1,0,1:2:0:0:
416,319,20944,1,0,1:2:0:0:
406,319,21024,1,0,1:2:0:0:
396,306,21104,22,0,B|375:319|367:348|367:348|399:235,1,168,6|0,1:2|0:0,0:0:0:0:
511,167,21742,2,0,B|517:179|535:179|535:179|517:179|509:192,1,56,8|0,0:0|0:0,0:0:0:0:
410,96,22061,1,2,0:0:0:0:
408,107,22141,1,0,0:0:0:0:
406,118,22221,1,2,1:2:0:0:
296,296,22380,6,0,P|321:246|306:193,2,112,2|0|8,0:0|0:0|0:0,0:0:0:0:
196,289,23178,1,2,0:0:0:0:
200,294,23258,1,0,0:0:0:0:
204,299,23338,1,2,0:0:0:0:
136,362,23497,1,2,1:2:0:0:
20,242,23657,102,0,B|5:232|-18:235|-18:235|52:226,1,112,2|2,0:0|1:2,0:0:0:0:
178,176,24135,2,0,B|159:150|165:124|165:124|159:150|127:164,1,112,2|0,0:0|0:0,0:0:0:0:
157,302,24614,1,0,0:0:0:0:
153,284,24774,1,0,1:2:0:0:
368,96,25093,5,0,0:0:0:0:
349,186,25252,1,0,0:0:0:0:
273,76,25412,1,0,1:2:0:0:
257,168,25572,2,0,P|237:166|257:162,1,56,8|0,0:0|0:0,0:0:0:0:
369,96,25891,1,2,1:2:0:0:
447,214,26050,1,2,0:0:0:0:
456,223,26130,1,0,0:0:0:0:
465,233,26210,102,0,B|426:267|379:243|379:243|308:270,1,168,6|0,1:2|0:0,0:0:0:0:
158,205,26848,2,0,B|187:208|187:208|208:190,1,56,8|0,0:0|0:0,0:0:0:0:
165,127,27167,1,2,0:0:0:0:
164,127,27327,1,2,1:2:0:0:
319,205,27486,6,0,L|365:309,1,112,2|0,0:0|0:0,0:0:0:0:
409,371,27965,2,0,P|361:346|304:357,1,112,2|2,1:2|1:2,0:0:0:0:
218,383,28444,1,2,0:0:0:0:
136,327,28604,1,0,0:0:0:0:
177,223,28763,102,0,B|166:210|170:197|170:197|166:210|150:215,1,56,2|2,1:2|0:0,0:0:0:0:
150,215,29082,1,2,0:0:0:0:
286,277,29242,6,0,B|274:290|278:305|278:305|274:290|256:285,1,62.9999980773926,2|10,1:2|0:0,0:0:0:0:
256,284,29561,1,10,0:0:0:0:
398,226,29721,102,0,B|384:210|389:193|389:193|384:210|365:217,1,70,2|10,0:0|0:0,0:0:0:0:
366,216,30040,1,10,0:0:0:0:
512,259,30199,6,0,L|519:161,2,97.9999970092774,0|0|0,1:2|1:2|1:2,0:0:0:0:
346,384,30997,1,10,0:0:0:0:
364,355,31077,1,0,1:2:0:0:
396,345,31157,1,2,1:2:0:0:
429,348,31236,1,0,1:2:0:0:
444,335,31316,102,0,B|315:328,1,125.999996154785,6|8,1:2|0:0,0:0:0:0:
135,164,31955,5,0,0:0:0:0:
152,247,32114,1,0,1:2:0:0:
139,143,32274,101,10,0:0:0:0:
41,222,32433,1,2,0:0:0:0:
118,321,32593,6,0,P|166:283|230:287,2,125.999996154785,2|8|0,0:0|0:0|0:0,0:0:0:0:
152,247,33391,1,2,1:2:0:0:
250,216,33550,1,10,0:0:0:0:
359,231,33710,1,2,0:0:0:0:
480,137,33869,102,0,B|499:128|523:133|523:133|438:111,1,125.999996154785,2|10,1:2|0:0,0:0:0:0:
264,176,34348,2,0,P|298:227|359:230,1,125.999996154785,2|2,0:0|1:2,0:0:0:0:
417,152,34827,1,10,0:0:0:0:
340,56,34986,6,0,L|217:28,1,125.999996154785,2|2,0:0|1:2,0:0:0:0:
95,87,35465,1,10,0:0:0:0:
197,173,35625,1,0,0:0:0:0:
174,93,35784,101,2,1:2:0:0:
171,100,35864,1,0,0:0:0:0:
168,107,35944,1,2,1:2:0:0:
302,267,36104,2,0,B|315:239|315:239|301:210,1,62.9999980773926,10|0,0:0|0:0,0:0:0:0:
256,329,36343,1,8,0:0:0:0:
256,340,36423,6,0,P|309:307|372:316,2,125.999996154785,6|8|2,1:2|0:0|1:2,0:0:0:0:
106,206,37221,1,2,1:2:0:0:
194,177,37380,1,10,0:0:0:0:
159,278,37540,102,0,L|142:154,1,125.999996154785,2|0,0:0|1:2,0:0:0:0:
256,65,38018,2,0,B|273:53|279:28|279:28|259:109,1,125.999996154785,8|2,0:0|0:0,0:0:0:0:
128,30,38497,1,2,1:2:0:0:
126,12,38657,1,10,0:0:0:0:
31,218,38816,6,0,B|90:206|90:206|114:229|152:219,1,125.999996154785,2|2,0:0|0:0,0:0:0:0:
296,162,39295,101,10,0:0:0:0:
268,83,39455,1,0,0:0:0:0:
214,146,39614,1,2,1:2:0:0:
375,220,39774,5,2,0:0:0:0:
412,319,39933,1,8,0:0:0:0:
473,233,40093,1,2,0:0:0:0:
269,315,40252,102,0,B|288:319|293:333|293:333|288:319|299:304,1,62.9999980773926,10|10,0:0|0:0,0:0:0:0:
259,229,40492,1,8,0:0:0:0:
260,238,40572,5,2,1:2:0:0:
236,253,40651,1,0,1:2:0:0:
208,259,40731,1,8,0:0:0:0:
180,251,40811,1,0,1:2:0:0:
159,230,40891,1,10,0:0:0:0:
153,202,40971,1,8,0:0:0:0:
158,174,41050,1,0,1:2:0:0:
176,151,41130,1,0,1:2:0:0:
204,142,41210,102,0,L|200:174,1,31.4999990386963,2|0,1:2|1:2,0:0:0:0:
302,162,41369,6,0,L|288:125,1,31.4999990386963,2|0,1:2|1:2,0:0:0:0:
236,62,41530,102,0,L|258:228,1,168,6|2,1:2|1:2,0:0:0:0:
270,316,42168,1,2,0:0:0:0:
270,316,42327,1,0,1:2:0:0:
450,295,42487,6,0,P|421:296|398:280,1,56,14|0,0:0|0:0,0:0:0:0:
398,196,42806,2,0,B|387:184|393:170|393:170|404:181|398:196,1,56,2|0,0:0|0:0,0:0:0:0:
432,275,43125,2,0,P|414:297|387:305,1,56,2|2,0:0|0:0,0:0:0:0:
263,384,43444,101,2,1:2:0:0:
195,326,43604,1,10,0:0:0:0:
275,273,43764,2,0,B|292:207|292:207|286:231|268:243,1,112,2|0,1:2|0:0,0:0:0:0:
109,36,44402,5,14,0:0:0:0:
107,20,44561,1,2,0:0:0:0:
46,76,44721,101,2,0:0:0:0:
192,137,44881,1,8,0:0:0:0:
172,70,45040,5,10,0:0:0:0:
34,146,45200,1,0,1:2:0:0:
121,224,45359,101,2,1:2:0:0:
120,218,45439,1,0,0:0:0:0:
119,212,45519,1,0,0:0:0:0:
118,206,45598,1,0,0:0:0:0:
117,200,45678,1,2,0:0:0:0:
116,194,45759,1,0,0:0:0:0:
115,188,45839,1,0,1:2:0:0:
114,182,45918,1,0,0:0:0:0:
113,176,45997,1,2,0:2:0:0:
112,170,46078,1,0,0:0:0:0:
111,164,46158,1,0,1:2:0:0:
110,158,46237,1,0,0:0:0:0:
88,145,46317,5,14,0:0:0:0:
104,122,46397,1,0,0:0:0:0:
131,115,46476,1,0,0:0:0:0:
158,118,46556,1,0,0:0:0:0:
182,131,46636,1,10,0:0:0:0:
200,151,46716,1,0,0:0:0:0:
226,159,46795,1,8,0:0:0:0:
253,153,46875,1,0,0:0:0:0:
276,137,46955,1,10,0:0:0:0:
291,113,47035,1,0,0:0:0:0:
291,84,47115,1,8,0:0:0:0:
279,58,47194,1,0,0:0:0:0:
256,41,47274,102,0,L|256:-2,3,35,2|0|2|0,1:2|0:0|1:2|0:0,0:0:0:0:
256,137,47593,6,0,L|256:107,3,24.4999992523194,2|0|2|0,0:0|0:0|1:2|0:0,0:0:0:0:
256,221,47912,102,0,L|256:199,3,14,2|0|2|0,0:0|0:0|1:2|0:0,0:0:0:0:
256,306,48232,5,14,0:0:0:0:
251,292,48311,1,8,0:0:0:0:
263,302,48391,1,8,0:0:0:0:
248,302,48471,1,0,1:2:0:0:
260,292,48551,1,0,1:2:0:0:
309,382,48710,102,0,P|255:345|183:357,1,140,10|2,0:0|1:2,0:0:0:0:
68,283,49189,6,0,L|124:291,1,52.5000020027161,6|0,1:2|0:0,0:0:0:0:
66,264,49508,1,10,0:0:0:0:
184,356,49668,2,0,P|244:365|295:328,1,119.000002269745,2|0,1:2|1:2,0:0:0:0:
286,327,50067,1,0,1:2:0:0:
282,319,50147,101,10,0:2:0:0:
353,290,50306,1,0,1:2:0:0:
429,304,50466,1,10,0:0:0:0:
482,360,50625,1,2,1:2:0:0:
509,199,50944,2,0,L|514:223,1,17.5,0|0,1:2|1:2,0:0:0:0:
458,137,51104,5,10,0:2:0:0:
459,121,51264,1,8,0:0:0:0:
460,105,51423,1,10,0:0:0:0:
512,216,51583,101,2,1:2:0:0:
426,190,51742,1,0,1:2:0:0:
332,199,51902,1,2,1:2:0:0:
254,264,52061,6,0,B|244:266|239:257|239:257|249:255|254:264,1,35,8|0,0:0|1:2,0:0:0:0:
331,199,52221,102,0,B|322:193|325:184|325:184|333:189|331:199,1,35,2|0,1:2|1:2,0:0:0:0:
426,190,52381,6,0,B|421:181|428:174|428:174|433:183|426:190,1,35,0|0,1:2|1:2,0:0:0:0:
512,216,52540,102,0,P|532:170|509:122,1,105.000004005432,0|2,1:2|1:2,0:0:0:0:
356,43,53019,6,0,L|409:35,1,52.5000020027161,6|0,1:2|0:0,0:0:0:0:
342,27,53338,1,10,0:0:0:0:
298,133,53498,2,0,B|247:124|247:124|235:113|235:113|181:103,1,119.000002269745,2|0,1:2|1:2,0:0:0:0:
183,95,53897,1,0,1:2:0:0:
179,87,53976,101,10,0:0:0:0:
152,163,54136,1,0,0:0:0:0:
77,185,54295,1,10,0:0:0:0:
0,168,54455,1,2,1:2:0:0:
210,279,54774,6,0,L|186:273,1,17.5,0|0,1:2|1:2,0:0:0:0:
256,359,54934,101,10,0:0:0:0:
277,355,55093,1,8,0:0:0:0:
298,351,55253,1,10,0:2:0:0:
193,274,55412,5,0,1:2:0:0:
108,284,55572,1,2,1:2:0:0:
25,245,55732,1,0,1:2:0:0:
4,154,55891,102,0,B|-4:159|-12:152|-12:152|-3:147|4:154,1,35,10|0,0:0|1:2,0:0:0:0:
25,245,56051,6,0,B|21:254|11:254|11:254|14:244|25:245,1,35,0|0,1:2|1:2,0:0:0:0:
108,284,56210,102,0,B|110:293|102:299|102:299|99:289|108:284,1,35,2|0,1:2|1:2,0:0:0:0:
193,274,56370,6,0,B|191:263|191:263|189:251|201:248|204:261|204:261|211:305|211:305|213:320|225:318|223:303|223:303|222:293,1,119.000002269745,2|14,1:2|1:2,0:0:0:0:
331,357,56849,70,0,P|366:360|397:330,1,70,2|2,0:0|0:0,0:0:0:0:
411,384,57487,6,0,P|379:365|371:322,1,70,2|2,0:0|0:0,0:0:0:0:
305,179,58125,37,6,1:2:0:0:
303,190,58205,1,0,1:2:0:0:
301,201,58285,1,0,1:2:0:0:
299,212,58364,1,0,1:2:0:0:
297,223,58444,2,0,P|365:222|398:162,1,140,8|0,0:0|0:0,0:0:0:0:
325,27,58923,2,0,B|317:10|318:-9|318:-9|313:59,1,105,0|0,1:2|1:2,0:0:0:0:
313,58,59242,1,8,0:0:0:0:
117,180,59402,6,0,P|103:150|113:114,1,70,2|0,0:2|1:2,0:0:0:0:
124,108,59641,1,0,1:2:0:0:
136,101,59721,6,0,L|121:246,1,140,10|2,0:0|1:2,0:0:0:0:
109,265,60120,1,0,1:2:0:0:
143,256,60200,1,0,1:2:0:0:
175,268,60279,1,0,1:2:0:0:
193,298,60359,1,10,0:0:0:0:
256,382,60519,1,0,1:2:0:0:
442,263,60678,5,2,1:2:0:0:
430,261,60758,1,0,1:2:0:0:
419,259,60838,1,0,1:2:0:0:
408,257,60917,1,0,1:2:0:0:
398,254,60997,2,0,B|467:244|467:244|494:265|534:255,1,140,8|0,0:0|0:0,0:0:0:0:
305,198,61476,2,0,B|317:188|315:167|315:167|317:188|337:194,1,70,0|0,1:2|0:0,0:0:0:0:
256,379,61795,70,0,P|206:340|134:349,1,140,8|0,0:0|1:2,0:0:0:0:
75,163,62274,5,10,0:0:0:0:
28,313,62434,1,0,0:0:0:0:
44,228,62593,5,2,1:2:0:0:
48,233,62673,1,0,1:2:0:0:
52,239,62753,1,0,1:2:0:0:
56,245,62832,1,0,1:2:0:0:
60,251,62912,2,0,P|71:221|54:185,1,70,10|0,0:0|0:0,0:0:0:0:
327,96,63231,5,2,1:2:0:0:
262,181,63391,1,0,1:2:0:0:
262,181,63471,1,0,1:2:0:0:
262,181,63551,1,8,0:0:0:0:
180,96,63710,2,0,B|172:115|176:130|176:130|166:116|147:108|147:108|162:102|162:102|143:51,1,140,2|0,0:0|1:2,0:0:0:0:
329,193,64189,2,0,B|345:181|362:180|362:180|345:181|329:172,1,70,2|8,0:0|0:0,0:0:0:0:
176,330,64508,70,0,B|188:344|211:348|229:335|235:324|235:319|237:314|242:300|262:290|283:295|294:310,1,140,2|8,0:0|0:2,0:0:0:0:
275,384,64987,2,0,B|256:391|235:383|224:364|225:351|229:342|227:341|230:326|216:308|196:303|179:311,1,140,2|0,0:0|1:2,0:0:0:0:
180,310,65386,1,0,1:2:0:0:
180,310,65466,1,10,0:0:0:0:
256,207,65625,1,0,0:0:0:0:
140,58,65785,5,2,1:2:0:0:
138,68,65864,1,0,1:2:0:0:
137,78,65944,1,0,1:2:0:0:
136,88,66024,1,0,1:2:0:0:
135,98,66104,2,0,B|191:80|191:80|210:84|210:84|268:65,1,140,8|0,0:0|0:0,0:0:0:0:
407,113,66583,2,0,B|417:99|437:92|437:92|373:115,1,105,0|0,1:2|1:2,0:0:0:0:
374,115,66902,1,8,0:0:0:0:
291,284,67061,6,0,P|279:254|290:217,1,70,2|0,1:2|1:2,0:0:0:0:
288,218,67301,1,0,1:2:0:0:
288,218,67380,1,10,0:2:0:0:
403,325,67540,1,0,1:2:0:0:
402,337,67620,1,0,1:2:0:0:
413,354,67700,5,10,0:0:0:0:
390,380,67779,1,8,0:0:0:0:
355,383,67859,1,8,0:0:0:0:
323,367,67939,1,8,0:0:0:0:
309,334,68019,1,2,1:2:0:0:
286,307,68099,1,0,1:2:0:0:
252,300,68178,1,0,1:2:0:0:
217,304,68258,1,0,1:2:0:0:
189,326,68338,69,6,1:2:0:0:
187,317,68417,1,0,1:2:0:0:
186,308,68497,1,0,1:2:0:0:
185,299,68577,1,0,1:2:0:0:
184,289,68657,2,0,B|174:198|174:198|177:225|195:240,1,140,8|0,0:0|0:0,0:0:0:0:
361,349,69136,2,0,P|306:350|274:384,1,105,0|0,1:2|1:2,0:0:0:0:
273,384,69455,1,8,0:0:0:0:
476,276,69614,6,0,B|489:266|509:269|509:269|489:266|478:252,1,70,2|0,0:0|1:2,0:0:0:0:
483,242,69854,1,0,1:2:0:0:
486,231,69934,2,0,B|418:222|418:222|390:245|351:232,1,140,10|2,0:0|1:2,0:0:0:0:
332,253,70333,1,0,1:2:0:0:
329,225,70412,1,0,1:2:0:0:
326,197,70492,1,0,1:2:0:0:
323,168,70572,1,10,0:0:0:0:
407,108,70731,1,0,1:2:0:0:
256,0,70891,5,2,1:2:0:0:
255,7,70971,1,0,1:2:0:0:
254,14,71051,1,0,1:2:0:0:
253,21,71130,1,0,1:2:0:0:
252,28,71210,1,8,0:0:0:0:
107,143,71370,2,0,P|146:109|197:111,1,105,2|0,0:0|0:2,0:0:0:0:
197,111,71689,1,0,1:2:0:0:
369,187,71849,2,0,P|340:170|305:172,1,70,2|8,0:0|0:0,0:0:0:0:
163,289,72168,5,2,0:0:0:0:
185,275,72327,1,0,1:2:0:0:
69,277,72487,69,10,0:0:0:0:
264,305,72646,1,0,0:0:0:0:
173,384,72806,5,2,1:2:0:0:
171,359,72886,1,0,1:2:0:0:
168,336,72966,1,0,1:2:0:0:
165,313,73045,1,0,1:2:0:0:
163,289,73125,1,2,1:2:0:0:
161,265,73205,1,0,1:2:0:0:
158,242,73285,1,0,1:2:0:0:
156,219,73364,1,0,1:2:0:0:
154,196,73444,6,0,B|206:194|172:210|223:209,2,70,6|0|8,1:2|1:2|0:0,0:0:0:0:
55,232,73923,6,2,B|58:234|58:234|75:230|75:230|76:233|76:233|95:229|95:229|97:232|97:232|115:228|115:228|117:230|117:230|133:227|133:227|135:230|135:230|154:226|154:226|155:229|155:229|174:224|174:224|175:227|175:227|194:224|194:224|195:226|195:226|215:223|215:223|217:225|217:225|237:222|237:222|239:224|239:224|258:221|258:221|260:224|260:224|278:219|278:219|280:222|280:222|300:218|300:218|302:221|302:221|324:217|324:217|326:220|326:220|347:216|347:216|349:218|349:218|368:215|368:215|370:217|370:217|389:214|389:214|391:217|391:217|410:213|410:213|413:216|413:216|435:212|435:212,1,411.599987438965,2|8,0:0|0:2,0:1:0:0:
369,255,75200,69,0,0:0:0:0:
338,129,75359,1,0,1:2:0:0:
368,138,75438,1,0,1:2:0:0:
399,131,75518,1,0,1:2:0:0:
425,112,75598,1,0,1:2:0:0:
431,79,75678,2,0,B|415:64|421:48|421:48|415:64|392:68,1,70,8|0,0:0|0:0,0:0:0:0:
173,157,75997,6,0,L|187:302,1,140,2|10,1:2|0:0,0:0:0:0:
165,315,76396,1,2,0:0:0:0:
172,345,76476,1,2,0:0:0:0:
197,364,76556,1,2,0:0:0:0:
228,368,76636,1,2,1:2:0:0:
257,356,76716,1,0,1:2:0:0:
274,330,76795,1,0,1:2:0:0:
297,309,76875,1,0,1:2:0:0:
328,302,76955,1,10,0:2:0:0:
359,308,77035,1,10,0:0:0:0:
385,324,77114,1,10,0:0:0:0:
398,352,77194,1,10,0:0:0:0:
399,383,77274,5,2,1:2:0:0:
388,382,77354,1,0,1:2:0:0:
377,381,77434,1,2,1:2:0:0:
366,380,77513,1,0,1:2:0:0:
355,379,77593,1,10,0:0:0:0:
344,378,77673,1,2,1:2:0:0:
333,377,77753,1,2,1:2:0:0:
322,376,77832,1,2,1:2:0:0:
311,375,77912,6,0,L|385:362,1,70,10|8,0:0|0:0,0:0:0:0:
187,247,78231,1,0,1:2:0:0:
187,247,78311,1,0,1:2:0:0:
187,247,78391,1,0,1:2:0:0:
187,247,78471,1,0,1:2:0:0:
187,247,78551,6,0,B|182:221|182:221|178:215|178:215|183:214|183:214|179:209|179:209|174:181,2,70,6|0|2,1:2|0:0|1:2,0:0:0:0:
205,346,79029,5,2,1:2:0:0:
143,306,79189,1,8,0:0:0:0:
329,190,79349,102,0,B|334:164|334:164|338:158|338:158|333:157|333:157|337:152|337:152|342:124,1,70,6|0,1:2|0:0,0:0:0:0:
309,292,79667,53,2,1:2:0:0:
378,259,79827,1,2,0:0:0:0:
327,202,79987,1,0,1:2:0:0:
159,103,80146,54,0,B|154:77|154:77|150:71|150:71|155:70|155:70|151:65|151:65|146:37,1,70,6|0,1:2|0:0,0:0:0:0:
177,185,80466,5,10,0:2:0:0:
129,266,80625,37,2,1:2:0:0:
30,304,80785,22,0,B|8:290|-20:290|-20:290|8:290|30:275,1,105,2|0,0:2|0:0,0:0:0:0:
30,317,81104,5,2,1:2:0:0:
3,145,81263,1,2,1:2:0:0:
7,170,81423,1,0,0:0:0:0:
129,266,81583,85,2,1:2:0:0:
142,130,81742,1,2,1:2:0:0:
140,150,81902,1,0,0:0:0:0:
245,263,82061,5,2,1:2:0:0:
270,162,82221,2,0,B|277:152|277:152|275:142|275:142|267:149|267:149|270:162,1,46.1999998590088,2|0,0:0|0:0,0:0:0:0:
359,284,82540,86,0,B|370:270|390:270|390:270|370:270|357:255,2,70,2|2|0,1:2|0:0|1:2,0:0:0:0:
309,191,83019,1,10,0:0:0:0:
256,319,83178,2,0,P|206:276|137:288,1,140,2|0,0:0|0:0,0:0:0:0:
42,160,83657,6,0,P|77:160|106:134,2,70,2|0|0,1:2|0:0|0:0,0:0:0:0:
61,88,84136,2,0,L|76:228,1,140,2|2,1:2|1:2,0:0:0:0:
153,267,84614,1,2,0:0:0:0:
28,322,84774,1,2,0:2:0:0:
223,384,84934,6,0,P|192:388|162:362,1,70,2|2,1:2|0:0,0:0:0:0:
187,361,85173,1,2,0:0:0:0:
210,357,85253,1,2,1:2:0:0:
234,354,85333,1,0,0:0:0:0:
258,350,85412,1,2,0:0:0:0:
282,346,85492,1,2,0:0:0:0:
306,341,85572,2,0,B|292:248|292:248|296:273|312:288,1,140,10|0,0:0|0:0,0:0:0:0:
396,142,86051,2,0,P|408:132|392:122,1,35,2|0,1:2|0:0,0:0:0:0:
428,236,86210,5,2,0:0:0:0:
417,229,86290,1,0,0:0:0:0:
404,231,86370,69,10,0:0:0:0:
392,224,86450,1,0,0:0:0:0:
379,226,86529,5,2,1:2:0:0:
368,219,86609,1,0,0:0:0:0:
355,221,86689,5,2,1:2:0:0:
343,215,86769,1,0,0:0:0:0:
330,218,86849,5,10,0:0:0:0:
318,211,86928,1,0,0:0:0:0:
305,214,87008,69,2,1:2:0:0:
294,207,87088,1,0,0:0:0:0:
282,210,87167,5,2,0:0:0:0:
271,203,87247,1,0,0:0:0:0:
259,207,87327,5,2,1:2:0:0:
248,199,87407,1,0,0:0:0:0:
234,180,87487,5,10,0:0:0:0:
214,213,87567,1,2,0:0:0:0:
178,229,87646,1,2,0:0:0:0:
138,229,87726,1,2,0:0:0:0:
103,209,87806,1,10,0:0:0:0:
84,173,87886,1,0,0:0:0:0:
82,133,87966,1,2,0:0:0:0:
94,95,88045,1,2,0:0:0:0:
126,71,88125,54,0,L|121:111,1,35,10|10,0:0|0:0,0:0:0:0:
194,77,88285,102,0,L|189:117,1,35,10|8,0:0|0:0,0:0:0:0:
233,217,88444,102,0,L|228:179,1,26.2500010013581,2|0,1:2|1:2,0:0:0:0:
301,209,88604,102,0,L|296:171,1,26.2500010013581,2|0,1:2|1:2,0:0:0:0:
356,118,88763,53,6,1:2:0:0:
256,192,88843,12,0,90039,3:0:0:0:
356,64,90359,70,0,B|405:55|426:84|426:84|440:119|473:146|528:134|571:106|571:63|558:14|526:-32|465:-26|417:6|414:51|426:84|426:84|428:121|380:141,1,538.999989308167,6|8,1:2|0:0,0:0:0:0:
285,128,92114,101,2,0:0:0:0:
180,142,92273,5,2,0:0:0:0:
115,241,92433,101,0,1:2:0:0:
109,234,92513,1,0,1:2:0:0:
104,227,92593,22,0,B|158:240|158:240|176:271|217:269,1,125.999996154785,6|2,1:2|0:2,0:0:0:0:
295,220,93071,1,0,0:2:0:0:
217,171,93231,1,10,0:0:0:0:
338,76,93390,6,0,B|321:-4|321:-4|327:22|314:39,1,125.999996154785,4|2,1:2|0:0,0:0:0:0:
408,21,93869,1,0,0:0:0:0:
408,21,94029,1,2,0:0:0:0:
256,147,94189,102,0,B|225:161|192:138|198:134|204:131|172:103|143:118,1,125.999996154785,4|10,1:2|0:0,0:0:0:0:
41,48,94667,1,0,0:0:0:0:
115,48,94827,1,0,0:0:0:0:
78,166,94986,1,2,0:0:0:0:
16,118,95146,1,2,0:0:0:0:
236,82,95306,6,0,B|249:64|278:57|278:57|191:79,1,140,6|8,1:2|0:0,0:0:0:0:
328,184,95784,102,0,P|396:184|435:129,1,140,6|8,1:2|0:0,0:0:0:0:
360,113,96263,6,0,L|352:261,1,140,6|0,1:2|1:2,0:0:0:0:
256,346,96742,69,4,1:2:0:0:
255,333,96901,1,0,0:0:0:0:
254,320,97061,2,0,L|251:271,2,35,2|0|2,0:0|0:0|0:0,0:0:0:0:
362,384,97540,6,0,P|397:355|443:353,1,92.3999997180176,0|2,0:0|0:0,0:0:0:0:
506,301,98018,1,0,0:0:0:0:
430,270,98178,1,2,0:0:0:0:
483,181,98338,101,0,0:0:0:0:
485,168,98497,1,0,0:0:0:0:
487,155,98657,1,2,0:0:0:0:
489,142,98816,1,0,0:0:0:0:
491,129,98976,1,0,0:0:0:0:
482,109,99135,5,2,0:0:0:0:
494,214,99295,1,2,0:0:0:0:
506,316,99455,102,0,B|491:325|491:341|491:341|491:325|473:316,1,62.9999980773926
332,249,99774,6,0,B|319:242|310:248|310:248|319:242|318:230,1,41.9999987182618,2|0,0:0|0:0,0:0:0:0:
407,310,100093,101,2,0:0:0:0:
407,310,100252,2,0,B|391:310|385:322|385:322|391:310|381:297,1,52.5000020027161,2|0,0:0|0:0,0:0:0:0:
327,163,100572,5,0,0:0:0:0:
328,150,100731,1,0,0:0:0:0:
329,137,100891,2,0,L|332:101,2,35,2|0|2,0:0|0:0|0:0,0:0:0:0:
256,212,101370,102,0,P|216:189|171:201,1,92.3999997180176,0|2,0:0|0:0,0:0:0:0:
96,220,101848,1,0,0:0:0:0:
27,179,102008,1,2,0:0:0:0:
17,97,102167,5,0,0:0:0:0:
15,107,102327,1,0,0:0:0:0:
13,117,102487,1,2,0:0:0:0:
11,127,102646,1,0,0:0:0:0:
9,137,102806,1,0,0:0:0:0:
20,157,102965,101,2,0:0:0:0:
8,48,103125,1,2,0:0:0:0:
140,29,103285,6,0,P|134:50|118:66,1,41.9999987182618,2|0,0:3|0:0,0:0:0:0:
120,64,103604,1,2,0:0:0:0:
237,93,103763,6,0,P|230:108|215:112,1,32.8999994979859,8|0,0:3|0:0,0:0:0:0:
217,113,104082,1,2,0:0:0:0:
277,189,104242,6,0,P|266:195|255:191,1,24.4999992523194,4|0,0:3|0:0,0:0:0:0:
256,192,104561,1,2,0:0:0:0:
