osu file format v14

[General]
AudioFilename: audio.mp3
AudioLeadIn: 0
PreviewTime: 69709
Countdown: 0
SampleSet: Soft
StackLeniency: 0.4
Mode: 0
LetterboxInBreaks: 0
WidescreenStoryboard: 1

[Editor]
DistanceSpacing: 0.8
BeatDivisor: 8
GridSize: 32
TimelineZoom: 2.1

[Metadata]
Title:Blaze
TitleUnicode:Blaze
Artist:Masahiro "Godspeed" Aoki
ArtistUnicode:征洋 “Godspeed” 青木
Creator:Niva
Version:Pyromancy
Source:GITADORA Tri-Boost
Tags:guitarist on demand concept album instrumental rock vivix the game changer
BeatmapID:2742170
BeatmapSetID:1323877

[Difficulty]
HPDrainRate:6
CircleSize:4
OverallDifficulty:7.5
ApproachRate:9
SliderMultiplier:1.4
SliderTickRate:1

[Events]
//Background and Video events
0,0,"012660820561-test.jpg",0,0
//Break Periods
//Storyboard Layer 0 (Background)
//Storyboard Layer 1 (Fail)
//Storyboard Layer 2 (Pass)
//Storyboard Layer 3 (Foreground)
//Storyboard Layer 4 (Overlay)
//Storyboard Sound Samples

[TimingPoints]
282,428.571428571429,4,2,77,60,1,0
282,-142.857142857143,4,2,77,60,0,0
2639,-142.857142857143,4,2,77,5,0,0
2853,-55.5555555555556,4,2,77,60,0,0
3710,-142.857142857143,4,2,77,60,0,0
5210,-142.857142857143,4,2,77,60,0,0
5424,-142.857142857143,4,2,78,70,0,0
5853,-142.857142857143,4,2,77,70,0,0
6282,-55.5555555555556,4,2,78,70,0,0
6710,-55.5555555555556,4,2,77,70,0,0
6924,-55.5555555555556,4,2,78,70,0,0
6996,-55.5555555555556,4,2,77,70,0,0
7139,428.571428571429,3,2,77,70,1,0
7139,-62.5,3,2,77,70,0,0
7192,-62.5,3,2,77,60,0,0
7353,-62.5,3,2,77,5,0,0
7460,-62.5,3,2,77,60,0,0
8317,-62.5,3,2,77,5,0,0
8424,-62.5,3,2,77,60,0,0
9174,-62.5,3,2,77,5,0,0
9281,-62.5,3,2,77,60,0,0
10996,-62.5,3,2,77,70,0,0
12067,-62.5,3,2,78,70,0,0
12139,-62.5,3,2,77,70,0,0
12335,-62.5,3,2,77,60,0,0
12496,-62.5,3,2,77,5,0,0
12603,-62.5,3,2,77,60,0,0
13460,-62.5,3,2,77,5,0,0
13567,-62.5,3,2,77,60,0,0
14317,-62.5,3,2,77,5,0,0
14424,-62.5,3,2,77,60,0,0
16139,428.571428571429,4,2,77,70,1,0
16139,-62.5,4,2,77,70,0,0
17210,-83.3333333333333,4,2,77,60,0,0
17531,-200,4,2,77,60,0,0
17746,-200,4,2,77,5,0,0
17853,-45.4545454545455,4,2,77,80,0,1
18817,-45.4545454545455,4,2,77,80,0,1
20531,-45.4545454545455,4,2,77,80,0,1
21924,-83.3333333333333,4,2,77,80,0,1
23210,-45.4545454545455,4,2,77,80,0,1
24496,-66.6666666666667,4,2,77,80,0,1
24710,-45.4545454545455,4,2,77,80,0,1
25674,-45.4545454545455,4,2,77,80,0,1
27389,-45.4545454545455,4,2,77,80,0,1
28781,-71.4285714285714,4,2,77,80,0,1
30281,-45.4545454545455,4,2,77,80,0,1
31246,-40,4,2,77,80,0,1
31460,-40,4,2,77,5,0,1
31567,428.571428571429,3,2,77,80,1,0
31567,-62.5,3,2,77,80,0,0
31620,-62.5,3,2,77,70,0,0
31781,-62.5,3,2,77,5,0,0
31888,-62.5,3,2,77,70,0,0
32102,-62.5,3,2,77,5,0,0
32209,-250,3,2,77,70,0,0
32852,-62.5,3,2,77,70,0,0
33067,-62.5,3,2,77,5,0,0
33174,-62.5,3,2,77,70,0,0
33388,-62.5,3,2,77,5,0,0
33495,-187.5,3,2,77,70,0,0
33817,-187.5,3,2,77,5,0,0
33924,-187.5,3,2,77,70,0,0
34031,-62.5,3,2,77,70,0,0
34352,-62.5,3,2,77,5,0,0
34459,-62.5,3,2,77,70,0,0
34674,-62.5,3,2,77,5,0,0
34781,-76.9230769230769,3,2,77,70,0,0
35638,-62.5,3,2,77,70,0,0
36924,-62.5,3,2,77,5,0,0
37031,-62.5,3,2,77,70,0,0
37245,-62.5,3,2,77,5,0,0
37352,-250,3,2,77,70,0,0
37995,-62.5,3,2,77,70,0,0
38209,-62.5,3,2,77,5,0,0
38317,-62.5,3,2,77,70,0,0
38531,-62.5,3,2,77,5,0,0
38638,-187.500000000001,3,2,77,70,0,0
38959,-187.500000000001,3,2,77,5,0,0
39067,-187.500000000001,3,2,77,70,0,0
39174,-62.5,3,2,77,70,0,0
39495,-62.5,3,2,77,5,0,0
39602,-62.5,3,2,77,70,0,0
39817,-62.5,3,2,77,5,0,0
39924,-76.9230769230769,3,2,77,70,0,0
40567,-62.5,3,2,77,70,0,0
45067,-76.9230769230769,3,2,77,70,0,0
45924,-62.5,3,2,77,70,0,0
49567,428.571428571429,4,2,77,70,1,0
49567,-100,4,2,77,70,0,0
49620,-100,4,2,77,60,0,0
52031,-100,4,2,77,5,0,0
52138,-100,4,2,77,60,0,0
55352,-100,4,2,77,5,0,0
55567,-55.5555555555556,4,2,77,80,0,0
56424,-45.4545454545455,4,2,77,80,0,0
56477,-45.4545454545455,4,2,77,70,0,0
56745,-100,4,2,77,70,0,0
57067,-45.4545454545455,4,2,77,70,0,0
57388,-100,4,2,77,70,0,0
58245,-100,4,2,77,5,0,0
58352,-100,4,2,77,70,0,0
59424,-55.5555555555556,4,2,77,70,0,0
59852,-45.4545454545455,4,2,77,70,0,0
60174,-100,4,2,77,70,0,0
60495,-45.4545454545455,4,2,77,70,0,0
60817,-100,4,2,77,70,0,0
62424,-55.5555555555556,4,2,77,70,0,0
62852,-55.5555555555556,4,2,78,70,0,0
63281,-45.4545454545455,4,2,77,70,0,0
63602,-100,4,2,77,70,0,0
63924,-45.4545454545455,4,2,77,70,0,0
64138,-100,4,2,77,70,0,0
64567,-90.9090909090909,4,2,77,70,0,0
65102,-100,4,2,77,70,0,0
65852,-55.5555555555556,4,2,77,70,0,0
66281,-55.5555555555556,4,2,78,70,0,0
66709,-100,4,2,77,70,0,0
67031,-100,4,2,77,5,0,0
67138,-100,4,2,77,80,0,0
67567,-66.6666666666667,4,2,77,80,0,0
67995,-66.6666666666667,4,2,78,80,0,0
68424,-66.6666666666667,4,2,77,80,0,0
68477,-66.6666666666667,4,2,77,70,0,0
70138,-45.4545454545455,4,2,77,80,0,1
70674,-45.4545454545455,4,2,77,80,0,1
71317,-45.4545454545455,4,2,77,5,0,1
71424,-45.4545454545455,4,2,77,80,0,1
72388,-45.4545454545455,4,2,77,80,0,1
73031,-45.4545454545455,4,2,77,5,0,1
73138,-45.4545454545455,4,2,77,80,0,1
75388,-45.4545454545455,4,2,77,5,0,1
75495,-45.4545454545455,4,2,77,80,0,1
77531,-45.4545454545455,4,2,77,80,0,1
78174,-45.4545454545455,4,2,77,5,0,1
78281,-45.4545454545455,4,2,77,80,0,1
79245,-45.4545454545455,4,2,77,80,0,1
79888,-45.4545454545455,4,2,77,5,0,1
79995,-45.4545454545455,4,2,77,80,0,1
82138,-45.4545454545455,4,2,77,80,0,1
82888,-45.4545454545455,4,2,77,5,0,1
82995,-45.4545454545455,4,2,77,80,0,1
83209,-45.4545454545455,4,2,77,80,0,1
83852,428.571428571429,3,2,77,80,1,0
83852,-45.4545454545455,3,2,77,80,0,0
83905,-45.4545454545455,3,2,77,70,0,0
84066,-45.4545454545455,3,2,77,5,0,0
84173,-100,3,2,77,70,0,0
84494,-45.4545454545455,3,2,77,70,0,0
84816,-100,3,2,77,70,0,0
85994,-62.5,3,2,77,70,0,0
86102,-62.5,3,2,77,5,0,0
86209,-62.5,3,2,77,70,0,0
88994,-45.4545454545455,3,2,77,70,0,0
89209,-45.4545454545455,3,2,77,5,0,0
89316,-100,3,2,77,70,0,0
89637,-45.4545454545455,3,2,77,70,0,0
89959,-100,3,2,77,70,0,0
91137,-62.5,3,2,77,70,0,0
91244,-62.5,3,2,77,5,0,0
91352,-62.5,3,2,77,70,0,0
92852,-45.4545454545455,3,2,77,80,0,0
93280,-45.4545454545455,3,2,77,5,0,0
93387,-45.4545454545455,3,2,77,80,0,0
94137,-62.5,3,2,77,80,0,0
94191,-62.5,3,2,77,70,0,0
95316,-62.5,3,2,77,5,0,0
95423,-62.5,3,2,77,70,0,0
97994,-62.5,3,2,77,80,0,0
99066,-62.5,3,2,78,80,0,0
99173,-62.5,3,2,77,80,0,0
99334,-62.5,3,2,77,70,0,0
100459,-62.5,3,2,77,5,0,0
100566,-62.5,3,2,77,70,0,0
101852,-62.5,3,2,77,80,0,0
102280,-62.5,3,2,77,80,0,0
102491,-55.5555555555556,3,2,77,83,0,0
102709,-50,3,2,77,86,0,0
102923,-43.4782608695652,3,2,77,90,0,0
103994,428.571428571429,3,2,77,70,1,0
103994,-133.333333333333,3,2,77,70,0,0
104048,-133.333333333333,3,2,77,30,0,0
104423,-133.333333333333,3,2,77,40,0,0
104852,-133.333333333333,3,2,77,50,0,0
105280,-133.333333333333,3,2,77,60,0,0
105709,-133.333333333333,3,2,77,70,0,0
106137,-133.333333333333,3,2,77,80,0,0
106566,-133.333333333333,3,2,77,90,0,0
106994,-133.333333333333,3,2,77,100,0,0
107423,-133.333333333333,3,2,77,30,0,0

[Colours]
Combo1 : 255,88,100
Combo2 : 17,254,176
Combo3 : 255,94,55
Combo4 : 173,255,95

[HitObjects]
28,94,282,6,0,B|21:83|18:65|25:40|49:22|85:24|105:45|117:74|105:98|88:114|88:114|71:131|54:148|46:179|52:218|78:245|120:256|162:256|199:223|210:178|196:128|159:104|119:108,1,538.999983551026,6|0,1:2|0:0,0:0:0:0:
263,38,2853,5,8,0:0:0:0:
263,38,2960,1,8,0:0:0:0:
263,38,3067,2,0,P|326:46|371:6,1,125.999996154785,6|8,1:2|0:0,0:0:0:0:
334,6,3389,2,0,P|380:45|441:36,1,125.999996154785,6|8,1:2|0:2,0:0:0:0:
512,136,3710,6,0,P|455:253|310:232,1,293.999991027832,6|0,1:2|0:0,0:0:0:0:
292,68,5210,5,10,0:0:0:0:
309,74,5317,1,8,0:0:0:0:
326,80,5424,5,10,0:3:0:0:
295,90,5532,1,10,0:3:0:0:
264,100,5639,1,10,0:3:0:0:
234,110,5746,1,8,0:3:0:0:
204,121,5853,5,2,1:2:0:0:
252,137,5960,1,2,1:2:0:0:
301,150,6067,1,2,1:2:0:0:
350,164,6174,1,0,1:2:0:0:
400,175,6282,6,0,B|394:131,5,41.9999987182618,6|4|4|6|4|4,0:3|0:3|0:3|0:3|0:3|0:3,0:0:0:0:
368,257,6710,5,10,0:0:0:0:
369,265,6782,1,4,0:3:0:0:
370,273,6853,1,4,0:3:0:0:
371,281,6924,1,6,0:3:0:0:
372,290,6996,1,4,0:3:0:0:
373,298,7067,1,4,0:3:0:0:
375,308,7139,6,0,P|427:323|463:283,1,112,6|0,1:2|0:0,0:0:0:0:
284,372,7460,2,0,P|231:316|150:335,1,168,2|2,1:2|1:2,0:0:0:0:
29,123,7996,2,0,B|99:108|99:108|121:116|121:116|192:100,1,168,10|0,0:0|0:0,0:0:0:0:
196,76,8424,5,2,1:2:0:0:
239,187,8746,1,2,1:2:0:0:
282,305,9067,2,0,B|289:293|306:293|306:293|289:293|281:280,1,56,2|0,1:2|0:0,0:0:0:0:
247,381,9281,2,0,P|294:354|349:359,1,112,10|0,0:0|1:2,0:0:0:0:
456,362,9603,1,8,0:0:0:0:
452,380,9710,6,0,P|522:349|513:251,2,168,6|2|2,1:2|1:2|1:2,0:0:0:0:
391,149,10567,2,0,B|361:129|361:129|393:201,1,112,10|2,0:0|0:0,0:0:0:0:
399,211,10889,1,2,0:0:0:0:
407,225,10996,5,2,1:2:0:0:
386,264,11103,1,2,0:0:0:0:
343,276,11210,1,2,0:0:0:0:
301,258,11317,1,0,1:2:0:0:
268,226,11424,1,2,0:0:0:0:
232,198,11531,1,10,0:0:0:0:
186,194,11639,1,2,1:2:0:0:
143,207,11746,1,0,0:0:0:0:
118,244,11853,6,0,L|74:234,2,37.3333333333333,10|8|8,0:0|0:3|0:3,0:0:0:0:
194,314,12067,2,0,L|242:306,2,37.3333333333333,6|4|4,0:3|0:3|0:3,0:0:0:0:
105,378,12281,6,0,P|57:347|-3:355,1,112,6|0,1:2|0:0,0:0:0:0:
197,324,12603,2,0,B|276:312|276:312|314:340|361:324,1,168,2|2,1:2|1:2,0:0:0:0:
453,164,13139,2,0,B|431:42|431:42|459:76,1,168,10|0,0:0|0:0,0:0:0:0:
472,187,13567,5,2,1:2:0:0:
344,169,13889,1,2,1:2:0:0:
216,151,14210,2,0,P|202:171|191:151,1,56,2|0,1:2|0:0,0:0:0:0:
166,246,14424,2,0,P|213:218|271:230,1,112,10|0,0:0|1:2,0:0:0:0:
338,153,14746,1,8,0:0:0:0:
344,169,14853,6,0,L|511:148,2,168,6|2|2,1:2|1:2|1:2,0:0:0:0:
219,4,15710,2,0,P|170:59|79:48,1,168,10|0,0:0|1:2,0:0:0:0:
32,132,16139,5,10,0:0:0:0:
35,154,16246,1,2,1:2:0:0:
39,175,16353,1,2,1:2:0:0:
41,197,16460,1,0,1:2:0:0:
33,217,16567,5,10,0:0:0:0:
58,253,16674,1,2,1:2:0:0:
102,260,16781,1,2,1:2:0:0:
140,236,16889,1,8,0:0:0:0:
147,191,16996,6,0,L|178:249,1,56,2|0,1:2|1:2,0:0:0:0:
286,217,17210,6,0,L|309:259,1,41.9999987182618,10|8,0:0|0:0,0:0:0:0:
419,232,17424,5,10,0:0:0:0:
419,232,17531,2,0,L|440:272,1,35,6|0,1:2|0:0,0:0:0:0:
419,368,17853,6,0,P|496:368|528:306,1,154.000004699707,6|8,1:2|0:0,0:0:0:0:
300,333,18174,2,0,B|197:346|197:346|180:363|180:363|78:377,1,231.000007049561,2|10,1:2|0:0,0:0:0:0:
0,212,18603,2,0,B|-17:247|-17:247|1:280,1,77.0000023498536,2|0,1:2|0:0,0:0:0:0:
119,135,18817,5,2,0:0:0:0:
116,120,18924,1,10,0:0:0:0:
113,106,19031,1,0,0:0:0:0:
110,90,19139,1,2,1:2:0:0:
57,121,19246,1,0,1:2:0:0:
44,181,19353,1,10,0:0:0:0:
78,231,19460,1,2,0:0:0:0:
138,244,19567,6,0,B|246:216|246:216|223:257,1,154.000004699707,2|8,1:2|0:0,0:0:0:0:
141,383,19889,2,0,P|83:334|10:340,1,154.000004699707,2|2,1:2|0:0,0:0:0:0:
9,349,20210,1,10,0:0:0:0:
7,357,20317,2,0,L|-16:284,1,77.0000023498536,2|0,1:2|0:0,0:0:0:0:
125,82,20531,2,0,L|104:235,1,154.000004699707,2|0,1:2|0:0,0:0:0:0:
89,250,20853,5,2,1:2:0:0:
112,298,20960,1,2,1:2:0:0:
164,310,21067,1,8,0:0:0:0:
211,285,21174,1,2,0:0:0:0:
220,232,21281,2,0,B|290:197|293:267|378:224,1,154.000004699707,6|8,1:2|0:0,0:0:0:0:
363,201,21603,2,0,B|284:200|312:265|217:263,1,154.000004699707,2|0,1:2|0:0,0:0:0:0:
334,382,21924,6,0,B|327:346|327:346|323:343|323:343|318:312|318:312|314:308|314:308|308:276|308:276|304:273|304:273|298:238|298:238|294:235|294:235|289:205|289:205|286:202|286:202|280:170|280:170|276:166|276:166|271:135|271:135|267:133|267:133|261:103|261:103|258:101|258:101|254:73|254:73|250:71|250:71|247:43|247:43|242:41|242:41|238:13|238:13|234:10|234:10|231:-15,1,419.999987182618,10|0,0:0|1:2,0:0:0:0:
444,89,23210,5,10,0:0:0:0:
444,89,23317,1,2,1:2:0:0:
444,89,23424,2,0,B|458:103|479:103|479:103|458:103|443:120,1,77.0000023498536,2|0,0:0|0:0,0:0:0:0:
266,148,23639,2,0,B|252:134|231:134|231:134|252:134|267:117,1,77.0000023498536,10|0,0:0|1:2,0:0:0:0:
359,54,23853,5,2,0:0:0:0:
356,99,23960,1,2,1:2:0:0:
353,145,24067,1,10,0:0:0:0:
349,192,24174,1,0,1:2:0:0:
345,239,24281,5,2,1:2:0:0:
336,226,24389,1,2,1:2:0:0:
328,212,24496,2,0,L|386:204,1,52.5000020027161,10|0,0:0|1:2,0:0:0:0:
167,175,24710,6,0,P|100:210|23:172,1,154.000004699707,6|8,1:2|0:0,0:0:0:0:
78,99,25031,2,0,L|143:327,1,231.000007049561,2|10,1:2|0:0,0:0:0:0:
270,297,25460,2,0,B|281:281|281:281|275:263|275:263|264:277|264:277|270:297,1,77.0000023498536,2|0,1:2|0:0,0:0:0:0:
416,319,25674,5,2,0:0:0:0:
406,330,25781,1,10,0:0:0:0:
396,342,25889,1,0,0:0:0:0:
386,354,25996,1,2,1:2:0:0:
444,374,26103,1,0,1:2:0:0:
499,347,26210,1,10,0:0:0:0:
512,287,26317,1,2,0:0:0:0:
482,232,26424,6,0,B|411:232|411:232|381:262|335:247,1,154.000004699707,2|8,1:2|0:0,0:0:0:0:
147,346,26746,2,0,P|220:333|274:384,1,154.000004699707,2|2,1:2|0:0,0:0:0:0:
278,372,27067,1,10,0:0:0:0:
283,360,27174,2,0,B|359:369,1,77.0000023498536,2|0,1:2|0:0,0:0:0:0:
193,225,27389,2,0,L|202:67,1,154.000004699707,2|0,1:2|0:0,0:0:0:0:
214,48,27710,5,2,1:2:0:0:
163,66,27817,1,2,1:2:0:0:
113,85,27924,1,8,0:0:0:0:
160,109,28031,1,2,0:0:0:0:
209,130,28139,6,0,B|246:130|246:130|281:130|286:152|323:152|323:152|358:152,1,154.000004699707,6|8,1:2|0:0,0:0:0:0:
359,130,28460,2,0,B|322:130|322:130|287:130|282:152|245:152|245:152|210:152,1,154.000004699707,2|0,1:2|0:0,0:0:0:0:
158,274,28781,6,0,B|136:304|90:293|90:293|61:269|15:266|-27:307|-28:361|-2:402|49:429|102:399|128:362|119:321|90:293|90:293|70:251|95:221,1,489.999985046387,10|0,0:0|1:2,0:0:0:0:
69,41,30067,5,10,0:0:0:0:
70,53,30139,1,0,0:0:0:0:
71,65,30210,1,0,0:0:0:0:
72,78,30281,2,0,P|112:71|149:59,1,77.0000023498536,2|2,1:2|0:0,0:0:0:0:
159,189,30496,2,0,P|121:183|77:182,1,77.0000023498536,10|0,0:0|1:2,0:0:0:0:
11,142,30710,5,10,0:0:0:0:
62,134,30817,1,2,1:2:0:0:
114,128,30924,1,2,1:2:0:0:
165,122,31031,2,0,L|243:112,1,77.0000023498536,8|2,0:0|1:2,0:0:0:0:
333,103,31246,6,0,B|351:88|358:61|358:61|358:191,1,175,4|0,1:2|0:0,0:0:0:0:
493,284,31567,6,0,B|508:260|540:260|540:260|508:260|492:235,1,112,6|0,1:2|0:0,0:0:0:0:
337,325,31888,2,0,B|350:350|334:378|334:378|350:350|380:349,1,112,2|0,1:2|0:0,0:0:0:0:
412,260,32209,6,0,B|410:245|395:245|391:256|391:267|399:273|409:273|412:260,1,56,2|0,1:2|0:0,0:0:0:0:
337,325,32852,6,0,B|350:350|334:378|334:378|350:350|380:349,1,112,2|0,1:2|0:0,0:0:0:0:
374,170,33174,2,0,B|348:170|331:142|331:142|348:170|334:197,1,112,2|0,1:2|0:0,0:0:0:0:
398,261,33495,6,0,B|400:246|415:246|419:257|419:268|411:274|401:274|398:261,1,56,2|0,1:2|0:0,0:0:0:0:
385,261,33924,1,2,1:2:0:0:
374,170,34138,6,0,B|348:170|331:142|331:142|348:170|334:197,1,112,2|0,1:2|0:0,0:0:0:0:
493,284,34459,2,0,B|508:260|540:260|540:260|508:260|492:235,1,112,2|0,1:2|0:0,0:0:0:0:
366,368,34781,2,0,P|292:314|207:334,1,181.999991668702,2|0,1:2|1:2,0:0:0:0:
209,332,35317,1,8,0:0:0:0:
209,332,35424,1,0,1:2:0:0:
177,178,35638,5,10,0:0:0:0:
177,178,35745,2,0,P|161:198|149:178,1,56,6|0,1:2|0:0,0:0:0:0:
309,144,35959,1,8,0:0:0:0:
309,144,36067,2,0,P|293:124|281:144,1,56,6|0,1:2|0:0,0:0:0:0:
383,261,36281,5,10,0:0:0:0:
394,302,36388,1,10,0:0:0:0:
433,318,36495,1,0,1:2:0:0:
475,311,36602,1,0,1:2:0:0:
499,277,36709,6,0,B|528:256|528:256|528:248|536:247|543:249|545:255|544:264|537:267|530:264|528:256|528:256|497:237,1,112,6|0,1:2|0:0,0:0:0:0:
343,329,37031,2,0,B|346:364|346:364|353:368|350:376|345:381|339:379|331:374|332:366|338:362|346:364|346:364|378:347,1,112,2|0,1:2|0:0,0:0:0:0:
400,260,37352,6,0,B|402:245|417:245|421:256|421:267|413:273|403:273|400:260,1,56,2|0,1:2|0:0,0:0:0:0:
343,329,37995,6,0,B|346:364|346:364|353:368|350:376|345:381|339:379|331:374|332:366|338:362|346:364|346:364|378:347,1,112,2|0,1:2|0:0,0:0:0:0:
372,170,38317,2,0,B|340:155|340:155|333:159|327:152|325:145|330:141|339:137|345:141|345:149|340:155|340:155|338:191,1,112,2|0,1:2|0:0,0:0:0:0:
415,259,38638,6,0,B|413:244|398:244|394:255|394:266|402:272|412:272|415:259,1,56,2|0,1:2|0:0,0:0:0:0:
428,259,39067,1,2,1:2:0:0:
372,170,39281,6,0,B|340:155|340:155|333:159|327:152|325:145|330:141|339:137|345:141|345:149|340:155|340:155|338:191,1,112,2|0,1:2|0:0,0:0:0:0:
499,277,39602,2,0,B|528:256|528:256|528:248|536:247|543:249|545:255|544:264|537:267|530:264|528:256|528:256|497:237,1,112,2|0,1:2|0:0,0:0:0:0:
367,349,39924,2,0,B|282:349|282:349|248:380|190:365,1,181.999991668702,2|2,1:2|0:0,0:0:0:0:
138,206,40567,5,2,1:2:0:0:
143,194,40674,1,2,0:0:0:0:
150,183,40781,1,2,0:0:0:0:
157,171,40888,1,0,1:2:0:0:
164,160,40995,5,2,1:2:0:0:
124,154,41102,1,14,0:0:0:0:
88,170,41209,1,2,1:2:0:0:
66,202,41316,1,0,1:2:0:0:
62,242,41423,1,10,0:2:0:0:
80,277,41530,1,0,1:2:0:0:
114,298,41637,1,2,1:2:0:0:
153,298,41744,1,0,1:2:0:0:
191,288,41852,6,0,L|248:268,2,56,6|0|0,1:2|1:2|1:2,0:0:0:0:
115,384,42174,2,0,P|72:348|11:353,1,112,2|8,1:2|0:0,0:0:0:0:
18,349,42495,2,0,L|81:329,1,56,2|0,0:0|1:2,0:0:0:0:
73,225,42709,1,0,1:2:0:0:
88,219,42817,1,0,1:2:0:0:
104,214,42924,1,8,0:2:0:0:
120,208,43031,1,0,1:2:0:0:
135,203,43138,6,0,L|117:148,2,56,6|0|0,1:2|1:2|1:2,0:0:0:0:
178,328,43459,2,0,P|204:280|258:265,1,112,2|8,1:2|0:0,0:0:0:0:
256,265,43781,2,0,L|264:208,1,56,2|0,0:0|1:2,0:0:0:0:
366,325,43995,1,0,1:2:0:0:
374,310,44102,1,0,1:2:0:0:
382,295,44209,1,10,0:2:0:0:
391,280,44317,1,0,1:2:0:0:
399,264,44424,6,0,L|460:264,2,56,6|0|0,1:2|1:2|1:2,0:0:0:0:
278,225,44745,2,0,P|240:264|185:263,1,112,2|8,1:2|0:0,0:0:0:0:
232,359,45067,2,0,L|215:173,1,181.999991668702,2|8,0:0|0:0,0:0:0:0:
214,164,45602,1,0,1:2:0:0:
213,150,45709,1,0,1:2:0:0:
351,24,45924,5,2,1:2:0:0:
353,40,46031,1,2,1:2:0:0:
354,58,46138,5,2,0:0:0:0:
395,56,46245,1,12,0:0:0:0:
427,81,46352,1,2,1:2:0:0:
435,122,46459,1,0,1:2:0:0:
414,157,46567,2,0,P|391:173|372:156,1,56,10|10,0:0|0:2,0:0:0:0:
286,188,46781,2,0,P|263:204|244:187,1,56,2|8,1:2|0:2,0:0:0:0:
155,219,46995,6,0,L|95:219,2,56,6|0|0,1:2|1:2|1:2,0:0:0:0:
139,376,47317,2,0,P|180:341|236:345,1,112,2|8,1:2|0:0,0:0:0:0:
235,344,47638,2,0,B|246:317|246:317|232:289,1,56,2|0,0:0|1:2,0:0:0:0:
167,204,47852,1,0,1:2:0:0:
150,207,47959,1,0,1:2:0:0:
133,211,48067,1,10,0:0:0:0:
116,215,48174,1,0,1:2:0:0:
99,219,48281,6,0,B|88:192|88:192|99:164,2,56,6|0|0,1:2|1:2|1:2,0:0:0:0:
26,60,48602,2,0,P|81:73|125:36,1,112,2|8,1:2|0:0,0:0:0:0:
122,41,48924,2,0,L|114:-16,1,56,2|0,0:0|1:2,0:0:0:0:
211,112,49138,1,0,1:2:0:0:
245,108,49245,1,0,1:2:0:0:
280,106,49352,1,8,0:0:0:0:
315,104,49459,1,8,0:2:0:0:
351,101,49567,6,0,B|473:93|473:93|563:158|526:258|459:297|379:255,1,420,6|0,1:2|0:0,0:0:0:0:
256,307,51281,2,0,P|357:287|457:387,1,245,6|0,1:2|0:0,0:0:0:0:
512,265,52138,1,0,1:2:0:0:
512,265,52459,5,10,0:0:0:0:
508,229,52567,1,10,0:0:0:0:
504,194,52674,1,0,1:2:0:0:
500,159,52781,1,0,1:2:0:0:
497,124,52888,1,10,0:0:0:0:
494,89,52995,6,0,B|525:97|539:63|512:36|474:37|473:83|473:83|470:190|470:190|469:238|423:255|382:232|383:190|383:190|385:138,1,420,6|0,1:2|0:0,0:0:0:0:
271,51,54709,2,0,B|247:35|214:27|214:27|362:15,1,210,6|0,1:2|0:0,0:0:0:0:
458,83,55567,5,10,0:0:0:0:
465,82,55638,1,8,0:0:0:0:
472,82,55709,1,0,1:2:0:0:
480,81,55781,2,0,L|533:76,2,41.9999987182618,2|0|0,1:2|1:2|1:2,0:0:0:0:
419,161,55995,5,10,0:0:0:0:
411,160,56066,1,8,0:0:0:0:
403,159,56137,1,0,1:2:0:0:
395,158,56209,2,0,L|342:152,2,41.9999987182618,2|0|0,1:2|1:2|1:2,0:0:0:0:
460,275,56424,6,0,P|402:301|336:250,1,154.000004699707,6|0,1:2|1:2,0:0:0:0:
353,153,56745,6,0,B|362:136|352:120|352:120|342:135|353:153,1,70,8|0,0:0|1:2,0:0:0:0:
374,250,57067,6,0,P|319:299|250:273,1,154.000004699707,2|0,1:2|1:2,0:0:0:0:
204,153,57388,6,0,B|214:136|203:120|203:120|193:135|204:153,1,70,8|0,1:2|1:2,0:0:0:0:
250,273,57709,6,0,B|170:273|170:273|157:282|157:282|77:282,1,175,6|0,1:2|0:0,0:0:0:0:
64,290,58352,6,0,P|39:269|62:251,2,70,2|2|2,0:0|1:2|0:0,0:0:0:0:
113,380,58888,2,0,B|145:366|145:366|182:378,1,70,2|2,0:0|0:0,0:0:0:0:
203,370,59209,1,2,0:2:0:0:
224,377,59317,1,0,0:2:0:0:
247,370,59424,6,0,L|300:370,2,41.9999987182618,10|8|8,0:0|0:0|0:0,0:0:0:0:
328,280,59638,2,0,L|297:246,2,41.9999987182618,2|0|0,1:2|1:2|1:2,0:0:0:0:
424,257,59852,6,0,L|449:93,1,154.000004699707,6|0,1:2|1:2,0:0:0:0:
435,1,60174,6,0,B|418:0|419:-11|422:-23|434:-26|446:-23|451:-13|449:1|435:1,1,70,8|0,0:0|1:2,0:0:0:0:
422,105,60495,6,0,L|445:257,1,154.000004699707,2|0,1:2|1:2,0:0:0:0:
435,356,60817,6,0,B|419:358|419:368|422:380|434:384|446:380|451:370|449:356|435:356,1,70,8|0,0:0|1:2,0:0:0:0:
319,310,61138,6,0,B|287:322|255:299|255:299|223:277|186:288,1,140,6|0,1:2|1:2,0:0:0:0:
155,304,61674,5,2,0:0:0:0:
157,286,61781,1,2,0:0:0:0:
159,268,61888,1,0,0:0:0:0:
161,248,61995,2,0,L|155:214,1,35,2|0,1:2|0:0,0:0:0:0:
257,202,62209,2,0,L|251:168,1,35,2|0,0:0|0:0,0:0:0:0:
355,164,62424,6,0,L|346:122,5,41.9999987182618,10|8|0|2|0|0,0:0|0:0|1:2|1:2|1:2|1:2,0:0:0:0:
419,225,62852,5,6,0:3:0:0:
415,238,62923,1,4,0:3:0:0:
408,250,62994,1,4,0:3:0:0:
398,260,63066,1,4,0:3:0:0:
386,266,63137,1,4,0:3:0:0:
372,268,63209,1,4,0:3:0:0:
357,268,63281,6,0,P|311:322|228:325,1,154.000004699707,6|0,1:2|1:2,0:0:0:0:
232,162,63602,6,0,B|244:182|244:182|220:182|220:182|233:163,1,70,8|0,0:0|1:2,0:0:0:0:
104,242,63924,6,0,P|70:308|95:379,1,154.000004699707,2|0,1:2|1:2,0:0:0:0:
232,325,64245,6,0,B|219:306|219:306|243:306|243:306|232:326,1,70,8|0,0:0|1:2,0:0:0:0:
232,162,64567,6,0,P|193:98|120:84,1,154.000004699707,6|0,1:2|1:2,0:0:0:0:
87,47,65102,5,2,0:0:0:0:
84,74,65209,1,2,0:0:0:0:
81,102,65317,1,2,0:0:0:0:
78,129,65424,1,0,1:2:0:0:
75,156,65531,1,2,0:0:0:0:
71,183,65638,1,2,0:0:0:0:
68,210,65745,1,2,0:0:0:0:
64,237,65852,6,0,L|17:237,5,41.9999987182618,10|8|0|2|0|0,0:0|0:0|1:2|1:2|1:2|1:2,0:0:0:0:
112,319,66281,5,6,0:3:0:0:
120,307,66352,1,4,0:3:0:0:
132,299,66423,1,4,0:3:0:0:
145,293,66495,1,6,0:3:0:0:
159,292,66566,1,4,0:3:0:0:
173,293,66638,1,4,0:3:0:0:
188,296,66709,6,0,B|213:296|213:296|236:296|240:311|265:311|265:311|290:311,1,105,10|0,0:2|0:0,0:0:0:0:
372,368,67138,6,0,P|387:377|391:354,1,46.6666666666667,6|10,1:2|0:0,0:0:0:0:
372,384,67424,1,8,0:0:0:0:
290,311,67567,6,0,P|313:301|291:276,1,70.0000026702882,14|2,0:0|1:2,0:0:0:0:
290,325,67853,1,0,1:2:0:0:
184,344,67995,5,10,0:3:0:0:
80,309,68138,1,6,0:3:0:0:
51,201,68281,1,4,0:3:0:0:
87,84,68424,6,0,B|245:84|245:84|306:149|388:116,1,315.000012016297,6|2,1:2|0:0,0:0:0:0:
387,116,69174,1,0,0:0:0:0:
387,116,69281,1,6,1:2:0:0:
480,258,69495,5,0,1:2:0:0:
481,242,69602,1,0,1:2:0:0:
482,226,69709,1,8,0:0:0:0:
431,235,69817,1,10,0:0:0:0:
407,280,69924,1,10,0:0:0:0:
421,328,70031,1,8,0:0:0:0:
461,357,70138,6,0,B|540:347,2,77.0000023498536,6|2|8,1:2|0:0|0:0,0:0:0:0:
330,279,70459,2,0,B|320:294|296:294|296:294|320:294|332:310,1,77.0000023498536,2|0,1:2|0:0,0:0:0:0:
420,183,70674,2,0,P|433:147|417:113,1,77.0000023498536,2|8,1:2|0:0,0:0:0:0:
290,65,70888,1,2,0:0:0:0:
290,65,70995,2,0,P|211:73|173:17,1,154.000004699707,2|8,1:2|0:2,0:0:0:0:
29,77,71424,5,2,1:2:0:0:
4,123,71531,1,2,1:2:0:0:
14,175,71638,1,8,0:0:0:0:
57,205,71745,1,2,0:0:0:0:
110,199,71852,6,0,B|146:187|146:187|183:199,2,77.0000023498536,6|2|8,1:2|0:0|0:0,0:0:0:0:
268,139,72174,2,0,P|253:104|267:67,1,77.0000023498536,2|0,1:2|0:0,0:0:0:0:
475,155,72388,2,0,P|452:185|413:191,1,77.0000023498536,2|8,1:2|0:0,0:0:0:0:
386,64,72602,1,2,0:0:0:0:
386,64,72709,2,0,L|325:206,1,154.000004699707,2|8,1:2|0:0,0:0:0:0:
264,339,73138,1,2,0:0:0:0:
255,325,73245,1,2,1:2:0:0:
246,312,73352,1,8,0:0:0:0:
237,299,73459,1,2,0:0:0:0:
228,285,73567,5,6,1:2:0:0:
278,302,73674,1,2,0:0:0:0:
327,281,73781,1,8,0:0:0:0:
338,228,73888,2,0,B|322:116|322:116|334:135|347:149,1,154.000004699707,2|2,1:2|1:2,0:0:0:0:
469,148,74209,2,0,B|486:160|505:148|505:148|486:137|469:148,1,77.0000023498536,10|0,0:0|0:0,0:0:0:0:
347,148,74424,5,6,1:2:0:0:
293,152,74531,1,2,0:0:0:0:
239,156,74638,1,8,0:0:0:0:
185,160,74745,2,0,B|144:175|109:148|109:148|35:147,1,154.000004699707,2|0,1:2|1:2,0:0:0:0:
97,36,75067,6,0,L|119:278,1,231.000007049561,14|0,0:0|0:0,0:0:0:0:
218,264,75495,6,0,L|228:212,2,51.3333348999024,10|0|0,0:0|0:0|0:0,0:0:0:0:
314,297,75709,2,0,L|343:253,2,51.3333348999024,2|0|0,0:0|0:0|0:0,0:0:0:0:
383,368,75924,2,0,L|432:343,2,51.3333348999024,10|0|0,0:0|0:0|0:0,0:0:0:0:
272,384,76138,5,2,1:2:0:0:
241,360,76245,1,2,0:0:0:0:
203,351,76352,1,12,0:0:0:0:
164,354,76459,1,2,1:2:0:0:
129,371,76567,5,10,0:0:0:0:
115,353,76674,1,2,1:2:0:0:
129,335,76781,1,0,1:2:0:0:
115,317,76888,1,2,1:2:0:0:
129,298,76995,6,0,B|48:299,2,77.0000023498536,6|2|8,1:2|0:0|0:0,0:0:0:0:
227,243,77317,2,0,B|243:231|243:209|243:209|243:231|259:242,1,77.0000023498536,2|0,1:2|0:0,0:0:0:0:
295,355,77531,2,0,B|279:366|279:388|279:388|279:366|262:354,1,77.0000023498536,2|8,1:2|0:0,0:0:0:0:
403,302,77745,1,2,0:0:0:0:
403,302,77852,2,0,B|417:312|426:333|426:333|440:218,1,154.000004699707,2|8,1:2|0:0,0:0:0:0:
477,55,78281,5,2,1:2:0:0:
442,96,78388,1,2,1:2:0:0:
387,102,78495,1,8,0:0:0:0:
341,74,78602,1,2,0:0:0:0:
330,21,78709,6,0,L|403:-1,2,77.0000023498536,6|2|8,1:2|0:0|0:0,0:0:0:0:
459,178,79031,2,0,L|532:155,1,77.0000023498536,2|0,1:2|0:0,0:0:0:0:
310,139,79245,2,0,L|237:162,1,77.0000023498536,2|8,1:2|0:0,0:0:0:0:
346,297,79459,1,2,0:0:0:0:
346,297,79567,2,0,B|311:311|311:311|277:325|263:307|233:320|233:320|199:335,1,154.000004699707,2|8,1:2|0:0,0:0:0:0:
60,237,79995,5,2,1:2:0:0:
58,252,80102,1,2,1:2:0:0:
55,267,80209,1,8,0:0:0:0:
53,282,80317,1,2,0:0:0:0:
51,297,80424,5,6,1:2:0:0:
73,345,80531,1,2,0:0:0:0:
125,354,80638,1,8,0:0:0:0:
169,323,80745,2,0,B|237:323|237:323|253:333|253:333|327:332,1,154.000004699707,2|2,1:2|1:2,0:0:0:0:
442,359,81067,2,0,B|457:369|457:369|459:388|459:388|442:378|442:378|442:359,1,77.0000023498536,10|0,0:0|0:0,0:0:0:0:
405,245,81281,5,6,1:2:0:0:
409,222,81388,1,2,0:0:0:0:
414,199,81495,1,10,0:0:0:0:
419,176,81602,1,0,0:0:0:0:
424,153,81709,6,0,B|436:135|456:135|456:135|436:135|421:116,1,77.0000023498536,2|2,1:2|1:2,0:0:0:0:
239,78,81924,2,0,B|218:85|202:73|202:73|218:85|219:108,1,77.0000023498536,10|0,0:0|0:0,0:0:0:0:
343,259,82138,6,0,B|382:270|393:308|393:308|382:270|407:232,1,154.000004699707,6|8,1:2|0:0,0:0:0:0:
377,51,82459,6,0,B|350:17|363:-19|363:-19|350:17|308:32,1,154.000004699707,6|0,1:2|1:2,0:0:0:0:
206,216,82781,6,0,B|206:237|190:249|190:249|206:237|230:244,1,77.0000023498536,14|0,0:0|0:0,0:0:0:0:
314,152,82995,5,4,1:2:0:0:
314,152,83209,5,8,0:0:0:0:
269,139,83317,1,8,0:0:0:0:
224,125,83424,1,8,0:3:0:0:
179,112,83531,1,8,0:3:0:0:
134,99,83638,1,4,0:3:0:0:
89,86,83745,1,4,0:3:0:0:
44,74,83852,6,0,P|53:161|107:175,1,154.000004699707,6|0,1:2|0:0,0:0:0:0:
214,100,84173,6,0,L|174:86,1,35,8|0,0:0|0:0,0:0:0:0:
342,75,84494,6,0,P|333:162|279:176,1,154.000004699707,2|0,1:2|1:2,0:0:0:0:
181,101,84816,6,0,L|221:87,1,35,0|8,1:2|0:0,0:0:0:0:
196,4,85137,6,0,L|196:221,1,210,2|0,1:2|1:2,0:0:0:0:
100,323,85994,2,0,P|79:314|100:303,1,56,8|0,0:0|0:0,0:0:0:0:
196,359,86209,1,10,0:0:0:0:
196,371,86316,1,2,0:0:0:0:
195,384,86423,5,6,1:2:0:0:
239,376,86530,1,0,0:0:0:0:
268,342,86637,1,2,0:0:0:0:
261,297,86744,1,8,0:0:0:0:
229,264,86852,1,2,0:0:0:0:
186,249,86959,1,0,0:0:0:0:
161,211,87066,1,2,1:2:0:0:
169,167,87173,1,2,0:0:0:0:
202,136,87280,6,0,B|223:152|223:152|252:146,1,56,2|0,1:2|1:2,0:0:0:0:
333,227,87494,2,0,B|363:220|363:220|372:192,1,56,10|0,0:0|0:0,0:0:0:0:
479,191,87709,6,0,P|504:148|474:97,1,112,2|0,1:2|0:0,0:0:0:0:
483,82,88030,1,10,0:0:0:0:
452,97,88137,1,0,0:0:0:0:
418,94,88244,1,10,0:0:0:0:
391,72,88352,1,0,1:2:0:0:
379,40,88459,1,0,1:2:0:0:
382,6,88566,2,0,B|389:-6|389:-6|382:-19|382:-19|375:-6|375:-6|382:5,1,56,10|8,0:0|0:0,0:0:0:0:
483,82,88780,5,8,0:3:0:0:
483,93,88852,1,4,0:3:0:0:
483,104,88923,1,4,0:3:0:0:
483,116,88994,6,0,P|437:166|355:154,1,154.000004699707,6|0,1:2|1:2,0:0:0:0:
247,62,89316,6,0,L|271:102,1,35,8|0,0:0|0:0,0:0:0:0:
29,116,89637,6,0,P|75:166|157:154,1,154.000004699707,2|0,1:2|1:2,0:0:0:0:
265,62,89959,6,0,L|241:102,1,35,0|8,1:2|0:0,0:0:0:0:
246,254,90280,6,0,B|237:242|249:230|267:232|271:249|262:268|246:290|246:290|229:315|224:340|235:362|257:366|276:361|283:349|283:336|272:324,1,210,2|0,1:2|1:2,0:0:0:0:
49,285,91137,2,0,B|60:272|58:259|58:259|60:272|79:279,1,56,8|0,0:0|0:0,0:0:0:0:
86,363,91352,1,10,0:0:0:0:
90,373,91459,1,2,0:0:0:0:
95,384,91566,5,6,1:2:0:0:
131,364,91673,1,0,0:0:0:0:
153,329,91780,1,2,1:2:0:0:
153,287,91887,1,8,0:0:0:0:
131,252,91994,1,2,0:0:0:0:
95,232,92101,1,0,0:0:0:0:
53,235,92208,1,2,1:2:0:0:
19,258,92315,1,2,0:0:0:0:
2,296,92423,6,0,L|72:289,1,56,2|0,1:2|1:2,0:0:0:0:
123,153,92637,2,0,L|68:146,1,56,10|8,0:0|0:0,0:0:0:0:
221,244,92852,6,0,B|292:235|292:235|283:225|283:225|292:235|292:235|345:229|345:229|384:274|461:260|478:204,1,308.000009399414,6|0,1:2|0:0,0:0:0:0:
398,126,93387,5,8,0:0:0:0:
405,175,93494,1,0,1:2:0:0:
414,226,93602,1,0,1:2:0:0:
422,276,93709,5,8,0:0:0:0:
417,318,93816,1,0,1:2:0:0:
385,346,93923,1,0,1:2:0:0:
342,348,94030,1,0,1:2:0:0:
302,330,94137,6,0,B|233:314|233:314|214:323|214:323|139:307,1,168,6|2,1:2|1:2,0:0:0:0:
75,383,94566,2,0,P|28:358|-28:371,1,112,8|2,0:0|1:2,0:0:0:0:
130,138,94994,2,0,B|141:119|149:95|149:95|173:220,1,168,10|0,0:0|0:0,0:0:0:0:
189,300,95423,5,6,1:2:0:0:
398,255,95744,1,2,1:2:0:0:
398,255,95852,1,8,0:0:0:0:
351,153,96066,1,2,1:2:0:0:
234,121,96280,1,10,0:0:0:0:
110,145,96494,1,0,1:2:0:0:
106,156,96602,1,0,1:2:0:0:
102,167,96709,6,0,P|36:162|13:74,1,168,6|2,1:2|1:2,0:0:0:0:
86,0,97137,2,0,B|135:0|135:0|147:9|147:9|202:9,1,112,8|2,0:0|1:2,0:0:0:0:
300,207,97566,2,0,P|247:195|202:226,1,112,10|2,0:0|1:2,0:0:0:0:
197,209,97887,1,2,1:2:0:0:
192,192,97994,5,10,0:0:0:0:
145,212,98102,1,2,0:0:0:0:
125,258,98209,1,2,0:0:0:0:
136,309,98316,1,0,1:2:0:0:
179,333,98423,1,10,0:0:0:0:
229,327,98530,1,10,0:0:0:0:
264,296,98637,1,2,1:2:0:0:
313,304,98744,1,8,0:0:0:0:
339,347,98852,6,0,L|292:377,1,56,10|0,0:0|1:2,0:0:0:0:
442,337,99066,2,0,L|496:349,1,56,10|4,0:3|0:3,0:0:0:0:
375,217,99280,6,0,L|395:386,1,168,6|2,1:2|1:2,0:0:0:0:
474,239,99709,2,0,P|527:228|536:169,1,112,8|2,0:0|1:2,0:0:0:0:
261,68,100137,2,0,B|329:47|329:47|351:55|351:55|424:30,1,168,10|0,0:0|0:0,0:0:0:0:
512,0,100566,5,6,1:2:0:0:
482,250,100887,1,2,1:2:0:0:
482,250,100994,1,8,0:0:0:0:
415,143,101209,1,2,1:2:0:0:
359,246,101423,1,10,0:0:0:0:
303,143,101637,1,2,1:2:0:0:
297,133,101744,1,2,1:2:0:0:
291,122,101852,5,10,0:0:0:0:
261,156,101959,1,10,0:0:0:0:
216,161,102066,1,2,1:2:0:0:
180,134,102173,1,0,1:2:0:0:
172,89,102280,6,0,B|158:97|146:89|146:89|158:80|172:89,1,56,10|0,0:0|1:2,0:0:0:0:
241,22,102494,6,0,B|224:15|223:-2|223:-2|238:1|241:22,1,62.9999980773926,2|8,1:2|0:0,0:0:0:0:
352,13,102709,6,0,B|344:-5|359:-18|359:-18|367:-2|352:13,1,70,10|2,0:0|1:2,0:0:0:0:
464,55,102923,6,0,B|468:32|491:29|491:29|486:50|464:55,1,80.5000015354157,2|6,1:2|1:2,0:0:0:0:
445,126,103994,6,0,B|487:141|565:115|581:29|545:-35|468:-65|401:-35|365:28|400:93|400:93|431:145|403:189|357:215|307:178|307:178|277:155|231:169|217:210|234:242|234:242|248:266|239:304|200:310|179:293|179:293,1,840.000032043458,6|2,1:2|0:0,0:0:0:0:
