osu file format v14

[General]
AudioFilename: audio.mp3
AudioLeadIn: 0
PreviewTime: 69709
Countdown: 0
SampleSet: Soft
StackLeniency: 0.7
Mode: 0
LetterboxInBreaks: 0
WidescreenStoryboard: 1

[Editor]
DistanceSpacing: 1.2
BeatDivisor: 4
GridSize: 32
TimelineZoom: 2.1

[Metadata]
Title:Blaze
TitleUnicode:Blaze
Artist:Masahiro "Godspeed" Aoki
ArtistUnicode:征洋 “Godspeed” 青木
Creator:Niva
Version:Easy
Source:GITADORA Tri-Boost
Tags:guitarist on demand concept album instrumental rock vivix the game changer
BeatmapID:2775441
BeatmapSetID:1323877

[Difficulty]
HPDrainRate:2.5
CircleSize:3
OverallDifficulty:3.5
ApproachRate:4.5
SliderMultiplier:1.4
SliderTickRate:1

[Events]
//Background and Video events
0,0,"012660820561-test.jpg",0,0
//Break Periods
//Storyboard Layer 0 (Background)
//Storyboard Layer 1 (Fail)
//Storyboard Layer 2 (Pass)
//Storyboard Layer 3 (Foreground)
//Storyboard Layer 4 (Overlay)
//Storyboard Sound Samples

[TimingPoints]
282,428.571428571429,4,2,77,60,1,0
282,-166.666666666667,4,2,77,60,0,0
2639,-166.666666666667,4,2,77,5,0,0
2853,-166.666666666667,4,2,77,60,0,0
3710,-166.666666666667,4,2,77,60,0,0
5210,-166.666666666667,4,2,77,60,0,0
5424,-166.666666666667,4,2,78,70,0,0
5853,-166.666666666667,4,2,77,70,0,0
6282,-166.666666666667,4,2,78,70,0,0
6710,-166.666666666667,4,2,77,70,0,0
6924,-166.666666666667,4,2,78,70,0,0
6996,-166.666666666667,4,2,77,70,0,0
7139,428.571428571429,3,2,77,70,1,0
7139,-166.666666666667,3,2,77,70,0,0
7192,-166.666666666667,3,2,77,60,0,0
7353,-166.666666666667,3,2,77,5,0,0
7460,-166.666666666667,3,2,77,60,0,0
8317,-166.666666666667,3,2,77,5,0,0
8424,-166.666666666667,3,2,77,60,0,0
9174,-166.666666666667,3,2,77,5,0,0
9281,-166.666666666667,3,2,77,60,0,0
10996,-166.666666666667,3,2,77,70,0,0
12067,-166.666666666667,3,2,78,70,0,0
12139,-166.666666666667,3,2,77,70,0,0
12335,-166.666666666667,3,2,77,60,0,0
12496,-166.666666666667,3,2,77,5,0,0
12603,-166.666666666667,3,2,77,60,0,0
13460,-166.666666666667,3,2,77,5,0,0
13567,-166.666666666667,3,2,77,60,0,0
14317,-166.666666666667,3,2,77,5,0,0
14424,-166.666666666667,3,2,77,60,0,0
16139,428.571428571429,4,2,77,70,1,0
16139,-166.666666666667,4,2,77,70,0,0
17531,-166.666666666667,4,2,77,60,0,0
17746,-166.666666666667,4,2,77,5,0,0
17853,-166.666666666667,4,2,77,80,0,1
18817,-166.666666666667,4,2,77,80,0,1
20531,-166.666666666667,4,2,77,80,0,1
21924,-166.666666666667,4,2,77,80,0,1
23210,-166.666666666667,4,2,77,80,0,1
24496,-166.666666666667,4,2,77,80,0,1
24710,-166.666666666667,4,2,77,80,0,1
25674,-166.666666666667,4,2,77,80,0,1
27389,-166.666666666667,4,2,77,80,0,1
28781,-166.666666666667,4,2,77,80,0,1
30067,-166.666666666667,4,2,77,80,0,1
30281,-166.666666666667,4,2,77,80,0,1
31246,-166.666666666667,4,2,77,80,0,1
31460,-166.666666666667,4,2,77,5,0,1
31567,428.571428571429,3,2,77,80,1,0
31567,-166.666666666667,3,2,77,80,0,0
31620,-166.666666666667,3,2,77,70,0,0
31781,-166.666666666667,3,2,77,5,0,0
31888,-166.666666666667,3,2,77,70,0,0
32102,-166.666666666667,3,2,77,5,0,0
32209,-166.666666666667,3,2,77,70,0,0
32852,-166.666666666667,3,2,77,70,0,0
33067,-166.666666666667,3,2,77,5,0,0
33174,-166.666666666667,3,2,77,70,0,0
33388,-166.666666666667,3,2,77,5,0,0
33495,-166.666666666667,3,2,77,70,0,0
33817,-166.666666666667,3,2,77,5,0,0
33924,-166.666666666667,3,2,77,70,0,0
34031,-166.666666666667,3,2,77,70,0,0
34352,-166.666666666667,3,2,77,5,0,0
34459,-166.666666666667,3,2,77,70,0,0
34674,-166.666666666667,3,2,77,5,0,0
34781,-166.666666666667,3,2,77,70,0,0
35638,-166.666666666667,3,2,77,70,0,0
36924,-166.666666666667,3,2,77,5,0,0
37031,-166.666666666667,3,2,77,70,0,0
37245,-166.666666666667,3,2,77,5,0,0
37352,-166.666666666667,3,2,77,70,0,0
37995,-166.666666666667,3,2,77,70,0,0
38209,-166.666666666667,3,2,77,5,0,0
38317,-166.666666666667,3,2,77,70,0,0
38531,-166.666666666667,3,2,77,5,0,0
38638,-166.666666666667,3,2,77,70,0,0
38959,-166.666666666667,3,2,77,5,0,0
39067,-166.666666666667,3,2,77,70,0,0
39174,-166.666666666667,3,2,77,70,0,0
39495,-166.666666666667,3,2,77,5,0,0
39602,-166.666666666667,3,2,77,70,0,0
39817,-166.666666666667,3,2,77,5,0,0
39924,-166.666666666667,3,2,77,70,0,0
40567,-166.666666666667,3,2,77,70,0,0
45067,-166.666666666667,3,2,77,70,0,0
45924,-166.666666666667,3,2,77,70,0,0
49567,428.571428571429,4,2,77,70,1,0
49567,-166.666666666667,4,2,77,70,0,0
49620,-166.666666666667,4,2,77,60,0,0
52031,-166.666666666667,4,2,77,5,0,0
52138,-166.666666666667,4,2,77,60,0,0
55352,-166.666666666667,4,2,77,5,0,0
55567,-166.666666666667,4,2,77,80,0,0
56424,-166.666666666667,4,2,77,80,0,0
56477,-166.666666666667,4,2,77,70,0,0
56745,-166.666666666667,4,2,77,70,0,0
57067,-166.666666666667,4,2,77,70,0,0
57388,-166.666666666667,4,2,77,70,0,0
57709,-166.666666666667,4,2,77,70,0,0
58245,-166.666666666667,4,2,77,5,0,0
58352,-166.666666666667,4,2,77,70,0,0
59424,-166.666666666667,4,2,77,70,0,0
59852,-166.666666666667,4,2,77,70,0,0
60174,-166.666666666667,4,2,77,70,0,0
60495,-166.666666666667,4,2,77,70,0,0
60817,-166.666666666667,4,2,77,70,0,0
61138,-166.666666666667,4,2,77,70,0,0
62424,-166.666666666667,4,2,77,70,0,0
62852,-166.666666666667,4,2,78,70,0,0
63281,-166.666666666667,4,2,77,70,0,0
63602,-166.666666666667,4,2,77,70,0,0
63924,-166.666666666667,4,2,77,70,0,0
64138,-166.666666666667,4,2,77,70,0,0
64567,-166.666666666667,4,2,77,70,0,0
65102,-166.666666666667,4,2,77,70,0,0
65852,-166.666666666667,4,2,77,70,0,0
66281,-166.666666666667,4,2,78,70,0,0
66709,-166.666666666667,4,2,77,70,0,0
67031,-166.666666666667,4,2,77,5,0,0
67138,-166.666666666667,4,2,77,80,0,0
67567,-166.666666666667,4,2,77,80,0,0
67995,-166.666666666667,4,2,78,80,0,0
68424,-166.666666666667,4,2,77,80,0,0
68477,-166.666666666667,4,2,77,70,0,0
69281,-166.666666666667,4,2,77,70,0,0
70138,-166.666666666667,4,2,77,80,0,1
70674,-166.666666666667,4,2,77,80,0,1
71317,-166.666666666667,4,2,77,5,0,1
71424,-166.666666666667,4,2,77,80,0,1
72388,-166.666666666667,4,2,77,80,0,1
73031,-166.666666666667,4,2,77,5,0,1
73138,-166.666666666667,4,2,77,80,0,1
75388,-166.666666666667,4,2,77,5,0,1
75495,-166.666666666667,4,2,77,80,0,1
76567,-166.666666666667,4,2,77,80,0,1
76995,-166.666666666667,4,2,77,80,0,1
77531,-166.666666666667,4,2,77,80,0,1
78174,-166.666666666667,4,2,77,5,0,1
78281,-166.666666666667,4,2,77,80,0,1
79245,-166.666666666667,4,2,77,80,0,1
79888,-166.666666666667,4,2,77,5,0,1
79995,-166.666666666667,4,2,77,80,0,1
82138,-166.666666666667,4,2,77,80,0,1
82888,-166.666666666667,4,2,77,5,0,1
82995,-166.666666666667,4,2,77,80,0,1
83209,-166.666666666667,4,2,77,80,0,1
83852,428.571428571429,3,2,77,80,1,0
83852,-166.666666666667,3,2,77,80,0,0
83905,-166.666666666667,3,2,77,70,0,0
84066,-166.666666666667,3,2,77,5,0,0
84173,-166.666666666667,3,2,77,70,0,0
84494,-166.666666666667,3,2,77,70,0,0
84816,-166.666666666667,3,2,77,70,0,0
85137,-166.666666666667,3,2,77,70,0,0
85994,-166.666666666667,3,2,77,70,0,0
86102,-166.666666666667,3,2,77,5,0,0
86209,-166.666666666667,3,2,77,70,0,0
88994,-166.666666666667,3,2,77,70,0,0
89209,-166.666666666667,3,2,77,5,0,0
89316,-166.666666666667,3,2,77,70,0,0
89637,-166.666666666667,3,2,77,70,0,0
89959,-166.666666666667,3,2,77,70,0,0
90280,-166.666666666667,3,2,77,70,0,0
91137,-166.666666666667,3,2,77,70,0,0
91244,-166.666666666667,3,2,77,5,0,0
91352,-166.666666666667,3,2,77,70,0,0
92852,-166.666666666667,3,2,77,80,0,0
93280,-166.666666666667,3,2,77,5,0,0
93387,-166.666666666667,3,2,77,80,0,0
94137,-166.666666666667,3,2,77,80,0,0
94191,-166.666666666667,3,2,77,70,0,0
95316,-166.666666666667,3,2,77,5,0,0
95423,-166.666666666667,3,2,77,70,0,0
97994,-166.666666666667,3,2,77,80,0,0
99066,-166.666666666667,3,2,78,80,0,0
99173,-166.666666666667,3,2,77,80,0,0
99334,-166.666666666667,3,2,77,70,0,0
100459,-166.666666666667,3,2,77,5,0,0
100566,-166.666666666667,3,2,77,70,0,0
101852,-166.666666666667,3,2,77,80,0,0
102280,-166.666666666667,3,2,77,80,0,0
102491,-166.666666666667,3,2,77,83,0,0
102709,-166.666666666667,3,2,77,86,0,0
102923,-166.666666666667,3,2,77,90,0,0
103994,428.571428571429,3,2,77,70,1,0
103994,-166.666666666667,3,2,77,70,0,0
104048,-166.666666666667,3,2,77,30,0,0
104423,-166.666666666667,3,2,77,40,0,0
104852,-166.666666666667,3,2,77,50,0,0
105280,-166.666666666667,3,2,77,60,0,0
105709,-166.666666666667,3,2,77,70,0,0
106137,-166.666666666667,3,2,77,80,0,0
106566,-166.666666666667,3,2,77,90,0,0
106994,-166.666666666667,3,2,77,100,0,0
107423,-166.666666666667,3,2,77,30,0,0

[Colours]
Combo1 : 255,88,100
Combo2 : 17,254,176
Combo3 : 255,94,55
Combo4 : 173,255,95

[HitObjects]
123,69,282,6,0,B|154:360|154:360|281:349,1,419.999987182618,6|0,1:2|0:0,0:0:0:0:
381,341,2853,1,8,0:0:0:0:
459,277,3282,1,8,0:0:0:0:
469,176,3710,6,0,B|407:176|407:176|343:176|352:213|289:213|289:213|225:213,1,251.999992309571,6|0,1:2|0:0,0:0:0:0:
139,266,5424,2,0,B|104:245|104:245|63:256,1,83.9999974365235,10|2,0:3|1:2,0:0:0:0:
31,159,6282,2,0,L|-11:159,2,41.9999987182618,6|6|10,0:3|0:3|0:0,0:0:0:0:
60,118,6924,1,6,0:3:0:0:
86,75,7139,6,0,P|147:129|236:109,1,167.999994873047,6|10,1:2|0:0,0:0:0:0:
290,193,8424,2,0,L|377:183,2,83.9999974365235,2|2|10,1:2|0:0|0:0,0:0:0:0:
261,289,9710,6,0,B|196:279|196:279|163:294|163:294|98:284,1,167.999994873047,6|10,1:2|0:0,0:0:0:0:
32,207,10996,2,0,P|18:169|34:129,1,83.9999974365235,2|2,1:2|0:0,0:0:0:0:
116,73,11853,1,10,0:0:0:0:
150,109,12067,1,6,0:3:0:0:
188,142,12281,6,0,B|230:152|266:122|266:122|301:93|344:106,1,167.999994873047,6|10,1:2|0:0,0:0:0:0:
439,72,13567,2,0,L|490:6,2,83.9999974365235,2|2|10,1:2|0:0|0:0,0:0:0:0:
341,46,14853,6,0,B|293:58|261:29|261:29|179:29,1,167.999994873047,6|10,1:2|0:0,0:0:0:0:
82,61,16139,1,10,0:0:0:0:
48,156,16567,1,10,0:0:0:0:
90,247,16996,2,0,P|134:220|186:225,1,104.999996795654,2|6,1:2|1:2,0:0:0:0:
246,179,17853,6,0,L|340:179,2,83.9999974365235,6|2|0,1:2|0:2|1:2,0:0:0:0:
160,137,19139,1,10,1:2:0:0:
86,206,19567,2,0,P|52:181|4:182,1,83.9999974365235,2|0,1:2|0:0,0:0:0:0:
0,80,20424,1,2,1:2:0:0:
75,13,20853,1,2,1:2:0:0:
121,31,21067,1,8,0:0:0:0:
168,46,21281,6,0,B|220:36|220:36|241:44|241:44|292:33,1,125.999996154785,6|10,1:2|0:0,0:0:0:0:
424,104,22567,2,0,B|442:142|442:142|424:182,1,83.9999974365235,8|0,0:2|1:2,0:0:0:0:
333,223,23424,1,2,1:2:0:0:
239,185,23853,2,0,P|199:198|158:187,1,83.9999974365235,2|2,1:2|1:2,0:0:0:0:
141,235,24496,1,10,0:0:0:0:
120,280,24710,6,0,L|35:280,2,83.9999974365235,6|2|0,1:2|0:0|1:2,0:0:0:0:
210,325,25996,1,2,1:2:0:0:
247,231,26424,2,0,L|276:149,1,83.9999974365235,2|0,1:2|0:0,0:0:0:0:
372,177,27281,1,2,1:2:0:0:
470,200,27710,1,2,1:2:0:0:
483,248,27924,1,8,0:0:0:0:
498,295,28139,6,0,P|434:301|396:351,1,125.999996154785,6|10,1:2|0:0,0:0:0:0:
254,295,29424,2,0,B|215:309|215:309|175:296,1,83.9999974365235,8|0,0:0|1:2,0:0:0:0:
79,330,30281,1,2,1:2:0:0:
19,248,30710,2,0,P|60:215|59:157,1,104.999996795654,10|6,0:0|1:2,0:0:0:0:
18,92,31567,6,0,B|64:75|64:75|92:81|92:81|137:64,1,125.999996154785,6|2,1:2|1:2,0:0:0:0:
274,0,32852,2,0,P|314:43|378:38,1,125.999996154785,2|2,1:2|1:2,0:0:0:0:
403,135,33924,1,2,1:2:0:0:
415,183,34138,6,0,L|536:145,2,125.999996154785,2|2|0,1:2|1:2|1:2,0:0:0:0:
395,282,35852,1,10,0:0:0:0:
296,260,36281,1,10,0:0:0:0:
285,309,36495,1,2,1:2:0:0:
274,358,36709,6,0,P|227:319|167:329,1,125.999996154785,6|2,1:2|1:2,0:0:0:0:
62,217,37995,2,0,P|126:215|166:163,1,125.999996154785,2|2,1:2|1:2,0:0:0:0:
246,229,39067,1,2,1:2:0:0:
291,208,39281,6,0,L|307:339,1,125.999996154785,2|2,1:2|1:2,0:0:0:0:
397,376,40352,1,10,0:0:0:0:
445,360,40567,2,0,B|483:373|483:373|524:360,1,83.9999974365235,2|0,1:2|1:2,0:0:0:0:
509,260,41424,1,10,0:2:0:0:
503,209,41638,1,2,1:2:0:0:
498,158,41852,6,0,B|442:158|442:158|419:178|375:170,1,125.999996154785,6|0,1:2|1:0,0:0:0:0:
309,246,42924,1,8,0:2:0:0:
320,294,43138,2,0,B|266:294|266:294|253:285|253:285|196:285,1,125.999996154785,6|2,1:2|1:2,0:0:0:0:
140,201,44209,1,10,0:2:0:0:
114,157,44424,6,0,P|175:150|217:96,2,125.999996154785,6|2|0,1:2|1:2|1:2,0:0:0:0:
80,252,46138,1,10,0:0:0:0:
156,317,46567,1,10,0:0:0:0:
205,310,46781,1,2,1:2:0:0:
255,305,46995,6,0,B|288:305|314:321|314:321|344:305|376:305,1,125.999996154785,6|2,1:2|1:2,0:0:0:0:
422,215,48067,1,10,0:0:0:0:
448,172,48281,2,0,P|388:162|354:111,1,125.999996154785,6|2,1:2|1:2,0:0:0:0:
275,47,49352,1,8,0:0:0:0:
238,81,49567,6,0,L|275:337,1,251.999992309571,6|0,1:2|0:0,0:0:0:0:
181,371,51281,2,0,P|102:371|71:298,1,167.999994873047,6|0,1:2|1:2,0:0:0:0:
140,223,52567,1,10,0:0:0:0:
190,223,52781,1,0,1:2:0:0:
240,223,52995,6,0,B|364:223|364:223|413:273|481:248,1,251.999992309571,6|0,1:2|0:0,0:0:0:0:
467,147,54709,2,0,B|490:101|531:101|531:101|490:101|462:55,1,167.999994873047,6|10,1:2|0:0,0:0:0:0:
368,22,55995,1,10,0:0:0:0:
327,51,56209,1,2,1:2:0:0:
285,79,56424,6,0,B|230:79|230:79|216:70|216:70|158:70,2,125.999996154785,6|2|6,1:2|1:2|1:2,0:0:0:0:
456,192,58567,1,2,1:2:0:0:
372,248,58995,1,10,0:2:0:0:
291,308,59424,1,10,0:0:0:0:
240,308,59638,1,2,1:2:0:0:
189,308,59852,6,0,B|143:266|143:266|82:284,2,125.999996154785,6|2|6,1:2|1:2|1:2,0:0:0:0:
205,105,61995,1,2,1:2:0:0:
256,192,62424,1,10,0:0:0:0:
307,279,62852,1,6,0:3:0:0:
344,244,63067,1,4,0:3:0:0:
381,209,63281,6,0,P|417:264|472:262,2,125.999996154785,6|2|6,1:2|1:2|1:2,0:0:0:0:
490,39,65424,1,0,1:2:0:0:
390,51,65852,1,10,0:0:0:0:
289,62,66281,1,6,0:3:0:0:
243,41,66495,1,6,0:3:0:0:
197,20,66709,6,0,B|159:33|159:33|114:20,1,83.9999974365235,10|6,0:2|1:2,0:0:0:0:
61,105,67567,1,14,0:0:0:0:
117,188,67995,1,10,0:3:0:0:
61,272,68424,2,0,P|101:340|187:331,1,167.999994873047,6|6,1:2|1:2,0:0:0:0:
256,267,69709,1,8,0:0:0:0:
256,216,69924,1,10,0:0:0:0:
256,165,70138,6,0,L|350:165,1,83.9999974365235,6|10,1:2|0:0,0:0:0:0:
433,203,70995,1,2,1:2:0:0:
478,113,71424,1,2,1:2:0:0:
463,64,71638,1,8,0:0:0:0:
449,15,71852,2,0,P|409:26|367:15,1,83.9999974365235,6|10,1:2|0:0,0:0:0:0:
299,88,72709,1,2,1:2:0:0:
213,34,73138,1,2,1:2:0:0:
162,34,73352,1,8,0:0:0:0:
111,34,73567,6,0,L|45:34,2,62.9999980773926,6|2|10,1:2|1:2|0:0,0:0:0:0:
155,9,74424,2,0,L|166:141,1,125.999996154785,6|14,1:2|0:0,0:0:0:0:
107,274,75709,1,10,0:2:0:0:
181,342,76138,1,2,1:2:0:0:
276,309,76567,1,10,0:0:0:0:
312,343,76781,1,0,1:2:0:0:
351,373,76995,6,0,B|387:353|387:353|429:361,1,83.9999974365235,6|10,1:2|0:0,0:0:0:0:
508,299,77852,1,2,1:2:0:0:
459,210,78281,1,2,1:2:0:0:
459,159,78495,1,8,0:0:0:0:
459,108,78709,2,0,L|375:108,1,83.9999974365235,6|10,1:2|0:0,0:0:0:0:
297,172,79567,1,2,1:2:0:0:
220,238,79995,1,2,1:2:0:0:
169,238,80209,1,8,0:0:0:0:
118,238,80424,6,0,L|118:308,2,62.9999980773926,6|2|10,1:2|1:2|0:0,0:0:0:0:
77,207,81281,1,6,1:2:0:0:
147,135,81709,1,2,1:2:0:0:
217,63,82138,2,0,P|248:70|278:62,2,62.9999980773926,6|6|14,1:2|1:2|0:0,0:0:0:0:
174,35,82995,1,4,1:2:0:0:
77,63,83424,1,8,0:3:0:0:
60,110,83638,1,4,0:3:0:0:
44,157,83852,6,0,B|94:171|94:171|116:164|116:164|165:178,2,125.999996154785,6|2|2,1:2|1:2|1:2,0:0:0:0:
184,12,85994,1,8,0:0:0:0:
273,59,86423,6,0,B|313:71|313:71|354:58,1,83.9999974365235,6|2,1:2|0:0,0:0:0:0:
437,113,87280,1,2,1:2:0:0:
418,212,87709,2,0,P|337:224|293:295,1,167.999994873047,2|10,1:2|0:0,0:0:0:0:
198,258,88994,6,0,B|167:268|136:247|136:247|107:227|74:237,2,125.999996154785,6|2|2,1:2|1:2|1:2,0:0:0:0:
378,347,91137,1,8,0:0:0:0:
459,287,91566,6,0,B|476:249|476:249|459:211,1,83.9999974365235,6|2,1:2|0:0,0:0:0:0:
359,190,92423,1,2,1:2:0:0:
260,168,92852,2,0,B|215:182|179:151|179:151|97:151,1,167.999994873047,6|8,1:2|0:0,0:0:0:0:
62,56,94137,6,0,L|-24:56,2,83.9999974365235,6|2|10,1:2|1:2|0:0,0:0:0:0:
157,22,95423,1,6,1:2:0:0:
193,116,95852,1,2,1:2:0:0:
231,209,96280,1,10,0:0:0:0:
325,172,96709,6,0,L|413:172,2,83.9999974365235,6|2|10,1:2|1:2|0:0,0:0:0:0:
245,233,97994,1,10,0:0:0:0:
145,218,98423,1,10,0:0:0:0:
123,119,98852,1,10,0:0:0:0:
131,69,99066,1,10,0:3:0:0:
139,19,99280,6,0,B|97:38|58:20,2,83.9999974365235,6|2|10,1:2|1:2|0:0,0:0:0:0:
237,41,100566,1,6,1:2:0:0:
316,103,100994,1,2,1:2:0:0:
331,202,101423,1,10,0:0:0:0:
319,302,101852,6,0,B|283:282|283:282|241:292,1,83.9999974365235,10|10,0:0|0:0,0:0:0:0:
146,258,102709,2,0,L|75:258,1,62.9999980773926,10|6,0:0|1:2,0:0:0:0:
300,192,103994,6,0,B|239:222|231:345|328:374|408:368|437:293|427:235|427:235|394:38|394:38|404:101|450:127,1,671.999979492188,6|2,1:2|0:0,0:0:0:0:
