osu file format v14

[General]
AudioFilename: audio.mp3
AudioLeadIn: 0
PreviewTime: -1
Countdown: 0
SampleSet: None
StackLeniency: 0.7
Mode: 1
LetterboxInBreaks: 0
WidescreenStoryboard: 1

[Editor]
DistanceSpacing: 1.1
BeatDivisor: 2
GridSize: 4
TimelineZoom: 0.8999999

[Metadata]
Title:Character Select
TitleUnicode:Character Select
Artist:Masahiro Aoki
ArtistUnicode:Masahiro Aoki
Creator:Kei
Version:Taiko
Source:Street Fighter V
Tags:capcom ost
BeatmapID:1043724
BeatmapSetID:489691

[Difficulty]
HPDrainRate:7.5
CircleSize:4
OverallDifficulty:7
ApproachRate:9
SliderMultiplier:1.4
SliderTickRate:1

[Events]
//Background and Video events
//Break Periods
//Storyboard Layer 0 (Background)
//Storyboard Layer 1 (Fail)
//Storyboard Layer 2 (Pass)
//Storyboard Layer 3 (Foreground)
//Storyboard Sound Samples

[TimingPoints]
329,300,4,1,0,70,1,0
6929,300,4,1,0,70,1,0

[HitObjects]
256,184,329,5,0,0:0:0:0:
256,184,629,1,8,0:0:0:0:
256,184,779,1,0,0:0:0:0:
256,184,1079,1,0,0:0:0:0:
256,184,1379,1,8,0:0:0:0:
256,184,1529,1,0,0:0:0:0:
256,184,1679,1,0,0:0:0:0:
256,184,1829,1,0,0:0:0:0:
256,184,2129,1,8,0:0:0:0:
256,184,2279,1,0,0:0:0:0:
256,184,2579,1,0,0:0:0:0:
256,184,2879,1,8,0:0:0:0:
256,184,3029,1,0,0:0:0:0:
256,184,3104,1,0,0:0:0:0:
256,184,3179,1,0,0:0:0:0:
256,184,3329,1,8,0:0:0:0:
256,184,3479,1,0,0:0:0:0:
256,184,3554,1,0,0:0:0:0:
256,184,3629,1,0,0:0:0:0:
256,184,3929,1,8,0:0:0:0:
256,184,4079,1,0,0:0:0:0:
256,184,4379,1,0,0:0:0:0:
256,184,4679,1,8,0:0:0:0:
256,184,4979,1,0,0:0:0:0:
256,184,5129,1,0,0:0:0:0:
256,184,5429,1,0,0:0:0:0:
256,184,5579,1,8,0:0:0:0:
256,184,5879,1,8,0:0:0:0:
256,184,6179,1,0,0:0:0:0:
256,184,6329,1,0,0:0:0:0:
256,184,6479,1,0,0:0:0:0:
256,184,6629,1,8,0:0:0:0:
256,184,6779,1,0,0:0:0:0:
256,184,6854,1,0,0:0:0:0:
256,184,6929,1,4,0:0:0:0:
256,184,7229,1,8,0:0:0:0:
256,184,7379,1,0,0:0:0:0:
256,184,7679,1,0,0:0:0:0:
256,184,7979,1,0,0:0:0:0:
256,184,8129,1,0,0:0:0:0:
256,184,8279,1,0,0:0:0:0:
256,184,8429,1,0,0:0:0:0:
256,184,8729,1,8,0:0:0:0:
256,184,8879,1,0,0:0:0:0:
256,184,9179,1,0,0:0:0:0:
256,184,9479,1,8,0:0:0:0:
256,184,9629,1,0,0:0:0:0:
256,184,9779,1,0,0:0:0:0:
256,184,9929,1,8,0:0:0:0:
256,184,10079,1,0,0:0:0:0:
256,184,10154,1,0,0:0:0:0:
256,184,10229,1,0,0:0:0:0:
256,184,10529,1,8,0:0:0:0:
256,184,10679,1,0,0:0:0:0:
256,184,10979,1,0,0:0:0:0:
256,184,11279,1,8,0:0:0:0:
256,184,11429,1,0,0:0:0:0:
256,184,11579,1,0,0:0:0:0:
256,184,11729,1,0,0:0:0:0:
256,184,12029,1,8,0:0:0:0:
256,184,12179,1,0,0:0:0:0:
256,184,12479,1,0,0:0:0:0:
256,184,12779,1,8,0:0:0:0:
256,184,12929,1,0,0:0:0:0:
256,184,13079,1,0,0:0:0:0:
256,184,13229,1,8,0:0:0:0:
256,184,13304,1,0,0:0:0:0:
256,184,13379,1,0,0:0:0:0:
256,184,13454,1,0,0:0:0:0:
256,184,13529,1,0,0:0:0:0:
256,184,13829,1,8,0:0:0:0:
256,184,13979,1,0,0:0:0:0:
256,184,14279,1,0,0:0:0:0:
256,184,14579,1,8,0:0:0:0:
256,184,14729,1,0,0:0:0:0:
256,184,14879,1,0,0:0:0:0:
256,184,15029,1,0,0:0:0:0:
256,184,15329,1,8,0:0:0:0:
256,184,15479,1,0,0:0:0:0:
256,184,15779,1,0,0:0:0:0:
256,184,16079,1,8,0:0:0:0:
256,184,16229,1,0,0:0:0:0:
256,184,16529,1,0,0:0:0:0:
256,184,16754,1,0,0:0:0:0:
256,184,16829,1,8,0:0:0:0:
256,184,17129,1,8,0:0:0:0:
256,184,17279,1,0,0:0:0:0:
256,184,17579,1,0,0:0:0:0:
256,184,17879,1,8,0:0:0:0:
256,184,18029,1,0,0:0:0:0:
264,188,18179,1,0,0:0:0:0:
256,184,18329,1,8,0:0:0:0:
256,184,18629,1,8,0:0:0:0:
256,184,18779,1,0,0:0:0:0:
256,184,19079,1,0,0:0:0:0:
256,184,19379,1,8,0:0:0:0:
256,184,19529,1,0,0:0:0:0:
256,184,19679,1,0,0:0:0:0:
256,184,19829,1,8,0:0:0:0:
256,184,19979,1,0,0:0:0:0:
256,184,20054,1,8,0:0:0:0:
256,184,20129,1,0,0:0:0:0:
256,184,20429,1,0,0:0:0:0:
256,184,20579,1,0,0:0:0:0:
256,184,20879,1,0,0:0:0:0:
256,184,21179,1,0,0:0:0:0:
256,184,21329,1,0,0:0:0:0:
256,184,21479,1,0,0:0:0:0:
256,184,21629,1,0,0:0:0:0:
256,184,21929,1,0,0:0:0:0:
256,184,22079,1,0,0:0:0:0:
256,184,22379,1,0,0:0:0:0:
256,184,22679,1,0,0:0:0:0:
256,184,22829,1,0,0:0:0:0:
256,184,23129,1,0,0:0:0:0:
256,184,23354,1,0,0:0:0:0:
256,184,23429,1,0,0:0:0:0:
256,184,23729,1,0,0:0:0:0:
256,184,23879,1,0,0:0:0:0:
256,184,24179,1,0,0:0:0:0:
256,184,24479,1,0,0:0:0:0:
256,184,24779,1,0,0:0:0:0:
256,184,24929,1,0,0:0:0:0:
256,184,25229,1,0,0:0:0:0:
256,184,25379,1,0,0:0:0:0:
256,184,25679,1,0,0:0:0:0:
256,184,25979,1,0,0:0:0:0:
256,184,26129,1,0,0:0:0:0:
256,184,26279,1,0,0:0:0:0:
256,184,26429,1,0,0:0:0:0:
256,184,26504,1,0,0:0:0:0:
256,184,26579,1,0,0:0:0:0:
256,184,26654,1,0,0:0:0:0:
256,184,26729,1,0,0:0:0:0:
256,184,27029,1,0,0:0:0:0:
256,184,27179,1,0,0:0:0:0:
256,184,27479,1,0,0:0:0:0:
256,184,27779,1,0,0:0:0:0:
256,184,28079,1,0,0:0:0:0:
256,184,28229,1,0,0:0:0:0:
256,184,28529,1,0,0:0:0:0:
256,184,28679,1,0,0:0:0:0:
256,184,28979,1,0,0:0:0:0:
256,184,29279,1,0,0:0:0:0:
256,184,29429,1,0,0:0:0:0:
256,184,29729,1,0,0:0:0:0:
256,184,29879,1,0,0:0:0:0:
256,184,29954,1,0,0:0:0:0:
256,184,30029,1,0,0:0:0:0:
256,184,30329,1,0,0:0:0:0:
256,184,30479,1,0,0:0:0:0:
256,184,30779,1,0,0:0:0:0:
256,184,31079,1,0,0:0:0:0:
256,184,31229,1,0,0:0:0:0:
256,184,31379,1,0,0:0:0:0:
256,184,31529,1,0,0:0:0:0:
256,184,31829,1,8,0:0:0:0:
256,184,31979,1,0,0:0:0:0:
256,184,32279,1,0,0:0:0:0:
256,184,32579,1,0,0:0:0:0:
256,184,32729,1,0,0:0:0:0:
256,184,32879,1,8,0:0:0:0:
256,184,33029,1,0,0:0:0:0:
256,184,33104,1,0,0:0:0:0:
256,184,33179,1,0,0:0:0:0:
256,184,33254,1,0,0:0:0:0:
256,184,33329,1,0,0:0:0:0:
256,188,38129,1,8,0:0:0:0:
256,188,38279,1,0,0:0:0:0:
256,188,38354,1,0,0:0:0:0:
256,188,38429,1,0,0:0:0:0:
256,188,38504,1,0,0:0:0:0:
256,188,38579,1,8,0:0:0:0:
256,188,38729,1,0,0:0:0:0:
256,188,38804,1,0,0:0:0:0:
256,188,38879,1,0,0:0:0:0:
256,188,38954,1,0,0:0:0:0:
256,188,39029,1,8,0:0:0:0:
256,188,39329,1,8,0:0:0:0:
256,188,39429,1,0,0:0:0:0:
256,188,39529,1,8,0:0:0:0:
256,188,39629,1,0,0:0:0:0:
256,188,39729,1,8,0:0:0:0:
256,188,39829,1,0,0:0:0:0:
256,188,39929,1,0,0:0:0:0:
256,188,40229,1,8,0:0:0:0:
256,188,40379,1,0,0:0:0:0:
256,188,40679,1,0,0:0:0:0:
256,188,40979,1,8,0:0:0:0:
256,188,41129,1,0,0:0:0:0:
256,188,41429,1,0,0:0:0:0:
256,188,41729,1,8,0:0:0:0:
256,188,41879,1,0,0:0:0:0:
256,188,42179,1,8,0:0:0:0:
256,188,42479,1,8,0:0:0:0:
256,188,42629,1,0,0:0:0:0:
256,188,42729,1,8,0:0:0:0:
256,188,42829,1,0,0:0:0:0:
256,188,42929,1,8,0:0:0:0:
256,188,43029,1,0,0:0:0:0:
256,188,43129,1,8,0:0:0:0:
256,188,43229,1,0,0:0:0:0:
256,188,43529,1,8,0:0:0:0:
256,188,43679,1,0,0:0:0:0:
264,192,43979,1,0,0:0:0:0:
