osu file format v14

[General]
AudioFilename: audio.mp3
AudioLeadIn: 0
PreviewTime: 19454
Countdown: 1
SampleSet: None
StackLeniency: 0.7
Mode: 0
LetterboxInBreaks: 0
WidescreenStoryboard: 1

[Editor]
Bookmarks: 5009,9453,13898,18342,28342,32787,36953,45148,63620,65148,66259,71676,76953
DistanceSpacing: 1.3
BeatDivisor: 4
GridSize: 8
TimelineZoom: 1

[Metadata]
Title:Climax Reasoning
TitleUnicode:クライマックス推理
Artist:Masafumi Takada and Satoshi Iwase
ArtistUnicode:高田 雅史 と 岩瀬 聡
Creator:5teven
Version:Execution
Source:Danganronpa: Trigger Happy Havoc
Tags:masafumi takada satoshi iwase danganronpa climax reasoning ost soundtrack comic minigame
BeatmapID:2573363
BeatmapSetID:1020216

[Difficulty]
HPDrainRate:5.5
CircleSize:4.5
OverallDifficulty:8.5
ApproachRate:9.8
SliderMultiplier:2.8
SliderTickRate:2

[Events]
//Background and Video events
0,0,"bg.png",0,0
//Break Periods
//Storyboard Layer 0 (Background)
//Storyboard Layer 1 (Fail)
//Storyboard Layer 2 (Pass)
//Storyboard Layer 3 (Foreground)
//Storyboard Layer 4 (Overlay)
//Storyboard Sound Samples

[TimingPoints]
565,555.555555555556,4,1,1,50,1,0
565,-66.6666666666667,4,1,1,50,0,0
981,-50,4,1,1,50,0,0
1398,-200,4,1,1,50,0,0
5009,-66.6666666666667,4,1,1,50,0,0
5425,-50,4,1,1,50,0,0
5842,-200,4,1,1,50,0,0
9453,-66.6666666666667,4,1,1,50,0,0
9869,-50,4,1,1,50,0,0
10287,-200,4,1,1,50,0,0
13898,-66.6666666666667,4,1,1,50,0,0
14314,-50,4,1,1,50,0,0
14731,-200,4,1,1,50,0,0
18342,-66.6666666666667,4,1,1,50,0,0
18758,-50,4,1,1,50,0,0
19175,-66.6666666666667,4,1,1,50,0,0
19454,-100,4,1,1,100,0,0
22787,-100,4,1,1,100,0,1
23898,-100,4,1,1,100,0,0
37241,-100,4,1,1,100,0,0
40565,-100,4,1,1,100,0,1
41676,-100,4,1,1,100,0,0
49593,-100,4,1,1,100,0,0
50565,-100,4,1,1,100,0,0
56120,-100,4,1,1,100,0,0
58342,-100,4,1,1,100,0,1
59453,-100,4,1,1,100,0,0
63620,-100,4,1,1,100,0,1
65009,-66.6666666666667,4,1,1,100,0,1
66398,-50,4,1,1,100,0,1
67231,-50,4,1,1,100,0,0
68342,-100,4,1,1,100,0,0
72509,-100,4,1,1,100,0,0
79176,-100,4,1,1,75,0,0
86537,-100,4,1,1,75,0,0
90842,-100,4,1,1,75,0,0
91953,-100,4,1,1,75,0,0
93481,-100,4,1,1,100,0,0
95148,-100,4,1,1,50,0,0

[Colours]
Combo1 : 170,70,70
Combo2 : 97,94,117

[HitObjects]
104,113,565,6,0,P|235:60|283:105,1,210.000008010865,4|0,0:0|0:0,0:0:0:0:
196,143,981,2,0,P|279:214|441:129,1,280,4|0,0:0|0:0,0:0:0:0:
334,121,1398,2,0,B|295:99|284:43|284:43|250:277|62:230|62:230|71:268|54:314,1,490,4|2,0:0|0:0,0:0:0:0:
335,40,5009,6,0,P|387:167|329:207,1,210.000008010865,4|0,0:0|0:0,0:0:0:0:
308,123,5425,2,0,P|254:194|372:298,1,280,4|0,0:0|0:0,0:0:0:0:
337,208,5842,2,0,B|359:169|415:158|415:158|408:15|277:-2|277:-2|254:65|128:35,1,490,4|2,0:0|0:0,0:0:0:0:
56,269,9453,6,0,P|187:322|235:277,1,210.000008010865,4|0,0:0|0:0,0:0:0:0:
145,239,9870,2,0,P|206:154|315:317,1,280,4|0,0:0|0:0,0:0:0:0:
244,231,10287,2,0,B|241:121|282:32|282:32|177:167|18:88,1,490,4|2,0:0|0:0,0:0:0:0:
99,325,13898,6,0,P|72:223|158:172,1,210.000008010865,4|0,0:0|0:0,0:0:0:0:
150,256,14314,2,0,P|276:291|313:151,1,280,4|0,0:0|0:0,0:0:0:0:
237,213,14731,2,0,B|216:147|257:88|331:87|331:87|238:17|109:50|52:163,1,490,4|2,0:0|0:0,0:0:0:0:
320,303,18342,6,0,P|374:176|324:136,1,210.000008010865,4|0,0:0|0:0,0:0:0:0:
300,219,18759,2,0,P|239:192|191:349,1,280,4|0,0:0|0:0,0:0:0:0:
238,279,19176,2,0,P|284:299|343:291,1,105.000004005432,4|0,0:0|0:0,0:0:0:0:
419,310,19453,6,0,P|411:251|355:210,1,105.000004005432,4|0,0:0|0:0,0:0:0:0:
309,162,19731,2,0,P|288:209|293:247,1,70
300,318,20010,1,0,0:0:0:0:
390,320,20148,2,0,P|435:298|440:259,1,70
450,190,20426,1,0,0:0:0:0:
383,127,20565,2,0,P|352:106|309:103,1,70
229,116,20843,1,0,0:0:0:0:
198,201,20981,2,0,P|196:240|228:290,1,70
259,343,21259,1,0,0:0:0:0:
350,346,21398,2,0,P|395:330|410:293,1,70
414,221,21676,1,0,0:0:0:0:
402,130,21815,1,0,0:0:0:0:
340,63,21953,1,0,0:0:0:0:
249,53,22092,1,0,0:0:0:0:
169,97,22231,2,0,B|137:123|147:167,1,70
162,250,22510,1,0,0:0:0:0:
213,324,22648,1,0,0:0:0:0:
299,352,22787,5,2,0:0:0:0:
476,239,22926,1,2,0:0:0:0:
290,140,23065,1,2,0:0:0:0:
277,349,23204,1,2,0:0:0:0:
455,238,23343,1,2,0:0:0:0:
275,129,23482,1,2,0:0:0:0:
265,338,23621,1,2,0:0:0:0:
453,248,23759,1,2,0:0:0:0:
264,154,23898,5,4,0:0:0:0:
180,190,24037,1,0,0:0:0:0:
120,121,24176,2,0,P|154:103|195:103,1,70
276,110,24454,1,0,0:0:0:0:
352,62,24592,2,0,P|367:106|358:146,1,70
332,214,24870,1,0,0:0:0:0:
363,299,25009,2,0,P|309:300|279:284,1,70
217,245,25287,1,0,0:0:0:0:
126,250,25426,2,0,P|135:199|166:167,1,70
207,118,25703,1,0,0:0:0:0:
220,27,25842,2,0,B|269:41|286:82,1,70
354,114,26120,2,0,P|331:139|256:149,1,70
207,159,26398,1,0,0:0:0:0:
129,111,26537,2,0,P|116:158|126:211,1,70
135,268,26815,1,0,0:0:0:0:
133,358,26953,2,0,P|167:350|198:333,1,70
265,270,27232,5,2,0:0:0:0:
382,95,27371,1,2,0:0:0:0:
454,290,27509,1,2,0:0:0:0:
42,205,27787,5,2,0:0:0:0:
177,44,27926,1,2,0:0:0:0:
351,161,28065,1,2,0:0:0:0:
223,327,28204,1,2,0:0:0:0:
53,203,28343,5,4,0:0:0:0:
112,134,28481,1,0,0:0:0:0:
143,219,28620,2,0,P|183:220|217:198,1,70
279,147,28898,1,0,0:0:0:0:
292,56,29037,2,0,P|340:75|362:103,1,70
408,159,29315,1,0,0:0:0:0:
498,160,29453,2,0,P|490:198|461:234,1,70
398,277,29732,1,0,0:0:0:0:
323,328,29870,2,0,P|309:289|310:258,1,70
331,171,30148,1,0,0:0:0:0:
376,92,30287,2,0,P|343:81|308:83,1,70
229,131,30565,2,0,P|194:150|154:148,1,70
78,124,30843,1,0,0:0:0:0:
8,181,30981,2,0,P|22:201|63:218,1,70
154,219,31259,1,0,0:0:0:0:
95,288,31398,2,0,P|117:302|176:306,1,70
251,300,31676,5,2,0:0:0:0:
371,128,31815,1,2,0:0:0:0:
478,308,31954,1,2,0:0:0:0:
67,226,32231,5,2,0:0:0:0:
171,43,32370,1,2,0:0:0:0:
353,150,32510,1,2,0:0:0:0:
251,332,32648,1,2,0:0:0:0:
58,247,32787,5,6,0:0:0:0:
430,52,33065,1,2,0:0:0:0:
471,258,33204,1,6,0:0:0:0:
58,330,33481,1,2,0:0:0:0:
111,126,33620,1,2,0:0:0:0:
467,348,33898,5,6,0:0:0:0:
203,275,34315,1,6,0:0:0:0:
401,86,34732,1,2,0:0:0:0:
464,256,35009,5,6,0:0:0:0:
204,342,35426,1,2,0:0:0:0:
283,80,35843,5,2,0:0:0:0:
133,183,36121,1,6,0:0:0:0:
357,337,36537,5,2,0:0:0:0:
187,123,36953,1,2,0:0:0:0:
106,286,37231,6,0,P|142:306|178:310,1,70,4|0,0:0|0:0,0:0:0:0:
261,312,37509,1,0,0:0:0:0:
242,222,37648,2,0,P|282:223|322:238,1,70
397,260,37926,1,0,0:0:0:0:
458,192,38065,2,0,P|424:173|366:171,1,70
302,173,38342,2,0,P|261:190|242:219,1,70
189,282,38621,1,0,0:0:0:0:
127,347,38759,2,0,P|106:318|99:284,1,70
109,193,39037,1,0,0:0:0:0:
72,109,39176,2,0,P|110:100|152:111,1,70
225,135,39453,2,0,P|253:148|286:178,1,70
333,250,39732,1,0,0:0:0:0:
320,339,39870,1,0,0:0:0:0:
231,360,40009,1,0,0:0:0:0:
158,305,40148,1,0,0:0:0:0:
74,341,40287,2,0,P|66:301|78:260,1,70
104,187,40565,5,2,0:0:0:0:
263,49,40704,1,2,0:0:0:0:
255,259,40843,1,2,0:0:0:0:
132,88,40982,1,2,0:0:0:0:
324,172,41121,1,2,0:0:0:0:
114,187,41260,1,2,0:0:0:0:
268,44,41399,1,2,0:0:0:0:
242,252,41538,1,2,0:0:0:0:
159,60,41676,5,4,0:0:0:0:
340,166,41815,1,0,0:0:0:0:
136,210,41953,2,0,P|136:249|160:297,1,70
195,355,42232,1,0,0:0:0:0:
285,358,42370,2,0,P|276:314|257:290,1,70
193,233,42648,1,0,0:0:0:0:
116,184,42787,2,0,P|146:154|187:143,1,70
262,128,43066,1,0,0:0:0:0:
330,185,43203,2,0,P|302:207|255:217,1,70
177,208,43481,1,0,0:0:0:0:
102,155,43620,2,0,P|133:129|169:118,1,70
252,115,43898,2,0,P|289:118|333:141,1,70
393,183,44176,1,0,0:0:0:0:
481,203,44315,2,0,P|464:240|435:264,1,70
363,303,44592,1,0,0:0:0:0:
272,288,44732,1,0,0:0:0:0:
229,208,44870,1,0,0:0:0:0:
245,117,45010,1,0,0:0:0:0:
318,62,45149,5,2,0:0:0:0:
114,108,45287,1,2,0:0:0:0:
463,341,45565,1,2,0:0:0:0:
252,335,45704,1,2,0:0:0:0:
248,124,45843,1,2,0:0:0:0:
458,127,45982,1,2,0:0:0:0:
446,336,46121,5,4,0:0:0:0:
357,318,46259,1,0,0:0:0:0:
274,357,46398,2,0,P|266:324|271:287,1,70
311,205,46676,1,0,0:0:0:0:
336,292,46815,2,0,P|373:271|395:239,1,70
413,161,47092,1,0,0:0:0:0:
455,80,47231,2,0,P|420:70|381:76,1,70
301,105,47509,1,0,0:0:0:0:
359,174,47648,2,0,P|322:191|280:192,1,70
202,180,47926,1,0,0:0:0:0:
111,190,48065,2,0,P|115:149|134:118,1,70
198,65,48342,6,0,P|238:54|289:66,1,70
352,85,48620,1,0,0:0:0:0:
440,108,48759,2,0,P|414:151|377:172,1,70
319,208,49037,1,0,0:0:0:0:
254,271,49176,2,0,P|231:235|231:194,1,70
250,119,49453,5,2,0:0:0:0:
50,49,49593,1,2,0:0:0:0:
96,253,49732,1,2,0:0:0:0:
465,55,50009,1,2,0:0:0:0:
463,265,50148,1,2,0:0:0:0:
252,286,50288,1,2,0:0:0:0:
236,77,50426,1,2,0:0:0:0:
446,71,50565,6,2,P|423:142|344:183,1,140,6|2,0:0|0:0,0:0:0:0:
282,197,50981,1,0,0:0:0:0:
192,178,51120,1,4,0:0:0:0:
112,222,51259,6,2,P|138:253|171:269,2,70
193,180,51676,6,2,P|259:146|344:172,1,140,6|2,0:0|0:0,0:0:0:0:
399,204,52092,1,0,0:0:0:0:
461,270,52231,1,4,0:0:0:0:
483,358,52370,6,2,P|446:359|410:345,2,70
460,269,52787,6,2,P|454:175|398:137,1,140
379,226,53203,2,2,P|328:290|272:297,1,140
189,261,53620,1,2,0:0:0:0:
77,117,53897,5,4,0:0:0:0:
349,146,54315,1,4,0:0:0:0:
140,322,54731,1,4,0:0:0:0:
56,57,55286,5,2,0:0:0:0:
220,137,55565,1,2,0:0:0:0:
63,313,56120,6,0,P|99:333|135:337,1,70,4|0,0:0|0:0,0:0:0:0:
218,329,56398,1,0,0:0:0:0:
211,238,56537,2,0,P|248:243|286:268,1,70
349,314,56815,1,0,0:0:0:0:
427,358,56953,2,0,P|439:320|431:278,1,70
415,201,57231,2,0,P|396:164|360:133,1,70
299,94,57509,1,0,0:0:0:0:
207,95,57648,1,0,0:0:0:0:
121,64,57787,2,0,P|114:100|129:146,1,70
167,211,58065,1,0,0:0:0:0:
241,262,58203,1,0,0:0:0:0:
331,266,58342,5,2,0:0:0:0:
318,56,58481,1,2,0:0:0:0:
256,256,58620,1,2,0:0:0:0:
229,47,58759,1,2,0:0:0:0:
171,249,58898,1,2,0:0:0:0:
136,41,59037,1,2,0:0:0:0:
83,244,59176,1,2,0:0:0:0:
49,36,59315,1,2,0:0:0:0:
2,239,59453,6,0,P|6:269|28:304,1,70,4|0,0:0|0:0,0:0:0:0:
99,357,59731,1,0,0:0:0:0:
187,378,59870,1,0,0:0:0:0:
179,287,60009,2,0,B|212:302|212:302|262:298,1,70
332,271,60287,1,0,0:0:0:0:
386,198,60426,1,0,0:0:0:0:
394,107,60565,2,0,P|360:110|323:132,1,70
256,182,60842,1,0,0:0:0:0:
171,215,60981,1,0,0:0:0:0:
192,126,61120,2,0,B|150:127|150:127|113:145,1,70
58,202,61398,1,0,0:0:0:0:
35,290,61537,1,0,0:0:0:0:
18,379,61676,2,0,P|52:379|84:366,1,70
158,313,61953,1,0,0:0:0:0:
189,227,62092,1,0,0:0:0:0:
103,259,62231,2,0,B|97:223|97:223|106:189,1,70
150,110,62509,1,0,0:0:0:0:
230,67,62648,1,0,0:0:0:0:
320,78,62787,5,4,0:0:0:0:
205,326,63204,1,4,0:0:0:0:
80,83,63620,1,4,0:0:0:0:
239,196,63898,6,2,P|197:229|139:239,1,70
251,174,64176,2,2,P|218:132|208:74,1,70
264,191,64453,2,2,P|306:158|364:148,1,70
252,212,64731,2,2,P|285:254|295:312,1,70
181,185,65009,6,2,P|139:218|65:206,1,105.000004005432
209,151,65287,2,2,P|176:109|188:35,1,105.000004005432
248,175,65565,2,2,P|290:142|364:154,1,105.000004005432
229,222,65842,2,2,P|262:264|250:338,1,105.000004005432
193,194,66120,6,2,P|151:227|77:215,1,105.000004005432
273,162,66398,2,2,P|239:97|313:29,1,140
233,223,66676,2,2,P|298:189|366:263,1,140
172,187,66953,2,2,P|206:252|132:320,1,140
226,129,67231,5,4,0:0:0:0:
413,338,67648,1,4,0:0:0:0:
106,337,68065,1,4,0:0:0:0:
167,166,68342,6,0,P|179:212|206:243,1,70
257,294,68620,2,0,P|285:314|339:315,1,70
409,299,68898,1,0,0:0:0:0:
479,241,69037,1,0,0:0:0:0:
489,150,69176,1,0,0:0:0:0:
431,79,69315,1,0,0:0:0:0:
367,14,69453,2,0,P|348:40|341:81,1,70
342,168,69732,1,0,0:0:0:0:
368,254,69870,2,0,P|330:257|293:243,1,70
219,203,70148,1,0,0:0:0:0:
288,143,70287,2,0,P|253:118|206:114,1,70
136,124,70565,2,0,P|108:142|91:186,1,70
100,264,70842,1,0,0:0:0:0:
77,352,70981,2,0,P|115:355|156:335,1,70
217,288,71259,1,0,0:0:0:0:
185,202,71398,2,0,P|255:204|274:219,1,70
330,252,71676,5,4,0:0:0:0:
60,294,72093,1,4,0:0:0:0:
162,41,72509,1,4,0:0:0:0:
127,125,72648,1,0,0:0:0:0:
194,186,72787,6,0,L|223:115,1,70
308,97,73065,5,0,0:0:0:0:
278,183,73204,1,0,0:0:0:0:
224,356,73481,1,0,0:0:0:0:
145,310,73620,2,0,P|95:261|132:147,1,140,2|4,0:0|0:0,0:0:0:0:
181,33,74176,5,2,0:0:0:0:
134,111,74315,1,2,0:0:0:0:
339,290,74731,5,2,0:0:0:0:
416,242,74870,1,2,0:0:0:0:
299,101,75148,5,2,0:0:0:0:
137,186,75426,1,2,0:0:0:0:
369,327,75842,5,2,0:0:0:0:
355,236,75981,1,2,0:0:0:0:
338,146,76120,5,4,0:0:0:0:
74,72,76537,1,4,0:0:0:0:
171,326,76953,1,4,0:0:0:0:
225,152,77231,5,0,0:0:0:0:
267,71,77370,1,0,0:0:0:0:
330,6,77509,2,0,P|356:51|354:90,1,70
344,158,77787,1,0,0:0:0:0:
302,239,77926,1,0,0:0:0:0:
221,281,78065,1,0,0:0:0:0:
138,244,78203,1,0,0:0:0:0:
47,249,78342,2,0,P|60:291|82:315,1,70
156,355,78620,1,0,0:0:0:0:
245,340,78759,1,0,0:0:0:0:
334,357,78898,2,0,P|335:322|321:290,1,70
257,224,79176,5,4,0:0:0:0:
68,75,80009,1,2,0:0:0:0:
135,244,80287,1,2,0:0:0:0:
301,318,80565,5,4,0:0:0:0:
448,89,80981,1,4,0:0:0:0:
176,60,81398,1,4,0:0:0:0:
73,303,82231,5,2,0:0:0:0:
435,338,82787,1,2,0:0:0:0:
216,47,83342,1,2,0:0:0:0:
44,341,84176,5,4,0:0:0:0:
453,333,85009,1,2,0:0:0:0:
418,154,85287,1,2,0:0:0:0:
65,64,85842,1,6,0:0:0:0:
62,95,86537,6,2,L|143:111,1,70
309,145,86953,1,2,0:0:0:0:
465,238,87231,2,2,P|408:305|281:309,1,210,2|6,0:0|0:0,0:0:0:0:
43,58,89176,5,2,0:0:0:0:
91,232,89453,1,2,0:0:0:0:
237,340,89731,5,2,0:0:0:0:
254,250,89870,1,2,0:0:0:0:
450,59,90287,1,2,0:0:0:0:
206,329,90842,5,2,0:0:0:0:
168,150,91120,1,2,0:0:0:0:
348,126,91398,1,2,0:0:0:0:
378,305,91676,1,2,0:0:0:0:
116,227,92092,5,2,0:0:0:0:
361,108,92509,1,2,0:0:0:0:
66,321,93065,1,2,0:0:0:0:
245,293,93342,1,2,0:0:0:0:
429,333,93898,5,4,0:0:0:0:
163,269,94315,1,4,0:0:0:0:
351,72,94731,1,4,0:0:0:0:
256,192,94870,12,4,99176,0:0:0:0:
