osu file format v14

[General]
AudioFilename: audio.mp3
AudioLeadIn: 0
PreviewTime: 19454
Countdown: 1
SampleSet: Normal
StackLeniency: 0.7
Mode: 0
LetterboxInBreaks: 0
WidescreenStoryboard: 1

[Editor]
DistanceSpacing: 1.1
BeatDivisor: 4
GridSize: 8
TimelineZoom: 1

[Metadata]
Title:Climax Reasoning
TitleUnicode:クライマックス推理
Artist:Masafumi Takada and Satoshi Iwase
ArtistUnicode:高田 雅史 と 岩瀬 聡
Creator:5teven
Version:Class Trial
Source:Danganronpa: Trigger Happy Havoc
Tags:masafumi takada satoshi iwase danganronpa climax reasoning ost soundtrack comic minigame
BeatmapID:2134723
BeatmapSetID:1020216

[Difficulty]
HPDrainRate:4
CircleSize:4.5
OverallDifficulty:7
ApproachRate:9.8
SliderMultiplier:2.8
SliderTickRate:2

[Events]
//Background and Video events
0,0,"bg.png",0,0
//Break Periods
//Storyboard Layer 0 (Background)
//Storyboard Layer 1 (Fail)
//Storyboard Layer 2 (Pass)
//Storyboard Layer 3 (Foreground)
//Storyboard Layer 4 (Overlay)
//Storyboard Sound Samples

[TimingPoints]
565,555.555555555556,4,1,1,50,1,0
19454,-100,4,1,1,100,0,1
37241,-100,4,1,1,100,0,0
79176,-100,4,1,1,20,0,0
93481,-100,4,1,1,100,0,0

[Colours]
Combo1 : 170,70,70
Combo2 : 97,94,117

[HitObjects]
256,192,565,5,12,0:0:0:0:
256,192,982,1,12,0:0:0:0:
256,192,1398,1,12,0:0:0:0:
48,48,5010,5,12,0:0:0:0:
48,48,5426,1,12,0:0:0:0:
48,48,5843,1,12,0:0:0:0:
456,336,9454,5,12,0:0:0:0:
456,336,9870,1,12,0:0:0:0:
456,336,10287,1,12,0:0:0:0:
48,336,13898,5,12,0:0:0:0:
48,336,14314,1,12,0:0:0:0:
48,336,14731,1,12,0:0:0:0:
464,48,18342,5,12,0:0:0:0:
464,48,18759,1,12,0:0:0:0:
464,48,19176,1,12,0:0:0:0:
320,104,19454,5,12,0:0:0:0:
94,319,19732,1,8,0:0:0:0:
246,32,20010,5,8,0:0:0:0:
363,296,20287,1,8,0:0:0:0:
86,127,20565,5,8,0:0:0:0:
381,65,20843,1,8,0:0:0:0:
127,79,21121,5,8,0:0:0:0:
68,336,21398,1,8,0:0:0:0:
382,351,21676,5,8,0:0:0:0:
359,68,21953,1,8,0:0:0:0:
165,348,22231,5,8,0:0:0:0:
236,44,22510,1,8,0:0:0:0:
120,224,22787,5,10,0:0:0:0:
120,144,22926,1,10,0:0:0:0:
168,88,23065,1,10,0:0:0:0:
232,48,23204,1,10,0:0:0:0:
304,88,23343,5,10,0:0:0:0:
296,168,23482,1,10,0:0:0:0:
264,240,23621,1,10,0:0:0:0:
208,288,23760,1,10,0:0:0:0:
136,280,23898,5,14,0:0:0:0:
57,51,24176,1,8,0:0:0:0:
352,110,24454,5,8,0:0:0:0:
101,326,24732,1,8,0:0:0:0:
169,68,25010,5,8,0:0:0:0:
261,333,25287,1,8,0:0:0:0:
430,112,25565,5,8,0:0:0:0:
132,56,25843,1,8,0:0:0:0:
93,328,26121,5,8,0:0:0:0:
424,237,26398,1,8,0:0:0:0:
240,65,26676,5,8,0:0:0:0:
36,198,26954,1,8,0:0:0:0:
272,56,27232,1,10,0:0:0:0:
208,96,27371,5,10,0:0:0:0:
144,136,27509,1,10,0:0:0:0:
88,280,27787,1,10,0:0:0:0:
144,232,27926,1,10,0:0:0:0:
208,184,28065,1,10,0:0:0:0:
272,144,28204,1,10,0:0:0:0:
336,104,28343,5,14,0:0:0:0:
184,104,28621,1,8,0:0:0:0:
58,332,28898,5,8,0:0:0:0:
340,337,29176,1,8,0:0:0:0:
256,52,29453,5,8,0:0:0:0:
128,324,29732,1,8,0:0:0:0:
428,221,30009,5,8,0:0:0:0:
154,61,30287,1,8,0:0:0:0:
263,331,30565,5,8,0:0:0:0:
447,159,30843,1,8,0:0:0:0:
130,68,31121,5,8,0:0:0:0:
248,340,31398,1,8,0:0:0:0:
288,152,31676,1,10,0:0:0:0:
256,80,31815,5,10,0:0:0:0:
184,64,31954,1,10,0:0:0:0:
56,152,32231,1,10,0:0:0:0:
112,208,32370,1,10,0:0:0:0:
184,232,32510,1,10,0:0:0:0:
256,200,32648,1,10,0:0:0:0:
312,144,32787,1,14,0:0:0:0:
439,179,33065,1,10,0:0:0:0:
120,32,33204,1,10,0:0:0:0:
64,176,33482,5,10,0:0:0:0:
367,341,33620,1,10,0:0:0:0:
296,192,33898,5,10,0:0:0:0:
104,64,34315,1,10,0:0:0:0:
72,296,34732,1,10,0:0:0:0:
224,328,35009,1,10,0:0:0:0:
272,104,35426,1,10,0:0:0:0:
304,336,35843,5,10,0:0:0:0:
344,184,36121,1,10,0:0:0:0:
136,80,36537,1,10,0:0:0:0:
64,296,36953,1,10,0:0:0:0:
152,168,37231,6,8,L|216:208,1,70,12|8,0:0|0:0,0:0:0:0:
256,144,37509,2,8,L|320:184,1,70
384,224,37788,1,8,0:0:0:0:
109,57,38065,1,8,0:0:0:0:
259,348,38343,5,8,0:0:0:0:
415,61,38621,1,8,0:0:0:0:
68,135,38898,5,8,0:0:0:0:
415,310,39176,1,8,0:0:0:0:
268,54,39453,5,8,0:0:0:0:
77,324,39732,1,8,0:0:0:0:
450,207,40009,5,8,0:0:0:0:
154,54,40287,1,8,0:0:0:0:
224,176,40565,5,10,0:0:0:0:
160,136,40704,1,10,0:0:0:0:
176,56,40843,1,10,0:0:0:0:
248,32,40982,1,10,0:0:0:0:
312,72,41121,5,10,0:0:0:0:
336,144,41260,1,10,0:0:0:0:
304,216,41399,1,10,0:0:0:0:
232,248,41538,1,10,0:0:0:0:
168,208,41676,5,14,0:0:0:0:
80,80,41954,1,8,0:0:0:0:
392,176,42232,5,8,0:0:0:0:
117,338,42509,1,8,0:0:0:0:
241,53,42788,5,8,0:0:0:0:
429,313,43066,1,8,0:0:0:0:
95,142,43343,5,8,0:0:0:0:
421,64,43621,1,8,0:0:0:0:
228,351,43899,5,8,0:0:0:0:
159,63,44176,1,8,0:0:0:0:
52,313,44454,5,8,0:0:0:0:
286,62,44732,1,8,0:0:0:0:
96,160,45010,1,10,0:0:0:0:
128,88,45149,5,10,0:0:0:0:
192,48,45287,1,10,0:0:0:0:
168,200,45565,1,10,0:0:0:0:
224,152,45704,1,10,0:0:0:0:
296,120,45843,1,10,0:0:0:0:
376,128,45982,1,10,0:0:0:0:
448,160,46121,5,14,0:0:0:0:
336,264,46398,1,8,0:0:0:0:
142,49,46676,5,8,0:0:0:0:
152,332,46954,1,8,0:0:0:0:
343,69,47231,5,8,0:0:0:0:
390,348,47509,1,8,0:0:0:0:
145,91,47787,5,8,0:0:0:0:
293,354,48065,1,8,0:0:0:0:
444,148,48342,5,8,0:0:0:0:
158,55,48620,1,8,0:0:0:0:
89,335,48898,5,8,0:0:0:0:
402,207,49176,1,8,0:0:0:0:
136,296,49454,1,10,0:0:0:0:
96,232,49593,5,10,0:0:0:0:
88,152,49732,1,10,0:0:0:0:
176,272,50009,1,10,0:0:0:0:
152,200,50148,1,10,0:0:0:0:
168,128,50288,1,10,0:0:0:0:
216,72,50426,1,10,0:0:0:0:
288,48,50565,1,14,0:0:0:0:
264,200,50842,5,8,0:0:0:0:
83,60,51120,1,8,0:0:0:0:
30,314,51397,5,8,0:0:0:0:
386,344,51675,1,10,0:0:0:0:
418,90,51953,5,10,0:0:0:0:
73,48,52231,1,10,0:0:0:0:
58,330,52509,5,8,0:0:0:0:
446,337,52787,5,10,0:0:0:0:
176,216,53203,1,10,0:0:0:0:
40,32,53620,1,10,0:0:0:0:
192,56,53897,1,10,0:0:0:0:
96,264,54315,1,10,0:0:0:0:
320,200,54731,1,10,0:0:0:0:
48,336,55286,1,10,0:0:0:0:
96,192,55565,1,10,0:0:0:0:
360,40,56120,6,8,L|424:80,1,70,12|8,0:0|0:0,0:0:0:0:
360,112,56398,2,8,L|424:152,1,70
480,192,56676,1,10,0:0:0:0:
150,90,56954,1,10,0:0:0:0:
81,267,57231,1,10,0:0:0:0:
319,340,57509,1,10,0:0:0:0:
379,117,57787,1,10,0:0:0:0:
163,65,58065,1,10,0:0:0:0:
392,56,58342,5,10,0:0:0:0:
384,136,58481,1,10,0:0:0:0:
344,200,58620,1,10,0:0:0:0:
280,248,58759,1,10,0:0:0:0:
200,248,58898,5,10,0:0:0:0:
128,216,59037,1,10,0:0:0:0:
88,152,59176,1,10,0:0:0:0:
112,80,59315,1,10,0:0:0:0:
168,32,59453,5,14,0:0:0:0:
145,58,59731,1,8,0:0:0:0:
443,63,60009,1,8,0:0:0:0:
455,336,60287,1,8,0:0:0:0:
138,335,60565,1,8,0:0:0:0:
213,45,60842,1,8,0:0:0:0:
464,122,61120,1,8,0:0:0:0:
395,362,61398,1,8,0:0:0:0:
127,252,61676,1,8,0:0:0:0:
310,48,61953,1,8,0:0:0:0:
439,320,62231,1,8,0:0:0:0:
183,361,62509,1,8,0:0:0:0:
126,105,62787,5,12,0:0:0:0:
104,335,63204,1,12,0:0:0:0:
317,247,63620,1,12,0:0:0:0:
120,104,63898,6,8,L|264:128,1,140
328,144,64453,1,8,0:0:0:0:
64,288,64731,6,8,L|208:312,1,140
272,328,65286,1,8,0:0:0:0:
216,200,65565,6,8,L|360:224,1,140
424,240,66120,1,8,0:0:0:0:
56,48,66398,6,8,L|200:72,1,140
264,88,66953,1,8,0:0:0:0:
368,296,67231,5,12,0:0:0:0:
144,224,67648,1,12,0:0:0:0:
328,80,68065,1,12,0:0:0:0:
120,104,68342,6,8,P|200:128|256:160,1,140
312,200,68898,1,8,0:0:0:0:
72,232,69176,6,8,P|152:256|208:288,1,140
264,328,69732,1,8,0:0:0:0:
248,56,70009,6,8,P|328:80|384:112,1,140
440,152,70565,1,8,0:0:0:0:
200,208,70842,6,8,P|280:232|336:264,1,140
392,304,71398,1,8,0:0:0:0:
304,352,71676,5,12,0:0:0:0:
104,232,72093,1,12,0:0:0:0:
248,56,72510,1,12,0:0:0:0:
120,104,72787,6,8,P|192:160|232:224,1,140
248,264,73343,1,8,0:0:0:0:
288,64,73620,6,8,P|360:120|400:184,1,140
416,224,74176,1,8,0:0:0:0:
40,192,74453,6,8,P|112:248|152:312,1,140
168,352,75009,1,8,0:0:0:0:
224,80,75287,6,8,P|296:136|336:200,1,140
352,240,75843,1,8,0:0:0:0:
376,184,76120,5,12,0:0:0:0:
192,48,76537,1,12,0:0:0:0:
64,240,76953,1,12,0:0:0:0:
313,70,77231,5,8,0:0:0:0:
64,318,77509,1,8,0:0:0:0:
92,59,77787,1,8,0:0:0:0:
352,298,78065,1,10,0:0:0:0:
302,45,78342,1,10,0:0:0:0:
152,333,78620,1,10,0:0:0:0:
62,92,78898,1,8,0:0:0:0:
326,269,79176,5,8,0:0:0:0:
40,32,80009,1,8,0:0:0:0:
240,272,80565,5,12,0:0:0:0:
456,192,80981,1,12,0:0:0:0:
272,48,81398,1,12,0:0:0:0:
48,336,82231,5,8,0:0:0:0:
184,56,82787,1,8,0:0:0:0:
408,272,83342,1,8,0:0:0:0:
16,24,84176,1,8,0:0:0:0:
360,336,85009,1,8,0:0:0:0:
424,192,85287,1,8,0:0:0:0:
152,48,85842,1,8,0:0:0:0:
488,368,86676,5,8,0:0:0:0:
352,296,86953,1,8,0:0:0:0:
208,248,87231,1,8,0:0:0:0:
424,160,87648,1,8,0:0:0:0:
64,240,89176,5,8,0:0:0:0:
168,128,89453,1,12,0:0:0:0:
392,168,89870,1,12,0:0:0:0:
240,344,90287,1,12,0:0:0:0:
40,112,90842,1,8,0:0:0:0:
184,64,91120,1,8,0:0:0:0:
320,128,91398,1,8,0:0:0:0:
416,248,91676,1,8,0:0:0:0:
192,296,92092,5,8,0:0:0:0:
80,96,92509,1,8,0:0:0:0:
392,96,93065,1,8,0:0:0:0:
16,360,93898,5,12,0:0:0:0:
56,128,94315,1,12,0:0:0:0:
240,264,94731,1,12,0:0:0:0:
