osu file format v14

[General]
AudioFilename: audio.mp3
AudioLeadIn: 0
PreviewTime: 14625
Countdown: 0
SampleSet: Soft
StackLeniency: 0.8
Mode: 0
LetterboxInBreaks: 0
WidescreenStoryboard: 1

[Editor]
DistanceSpacing: 1.2
BeatDivisor: 4
GridSize: 4
TimelineZoom: 1

[Metadata]
Title:Discussion -HEAT UP- [8bit]
TitleUnicode:Discussion -HEAT UP- [8bit]
Artist:Masafumi Takada
ArtistUnicode:Masafumi Takada
Creator:SkairulGames
Version:Kind
Source:Danganronpa 2: Goodbye Despair
Tags:
BeatmapID:972446
BeatmapSetID:453487

[Difficulty]
HPDrainRate:5
CircleSize:4
OverallDifficulty:4.5
ApproachRate:5
SliderMultiplier:1.4
SliderTickRate:1

[Events]
//Background and Video events
0,0,"DR2gsc01.jpg",0,0
//Break Periods
2,58968,61425
//Storyboard Layer 0 (Background)
//Storyboard Layer 1 (Fail)
//Storyboard Layer 2 (Pass)
//Storyboard Layer 3 (Foreground)
//Storyboard Sound Samples

[TimingPoints]
911,428.571428571429,4,2,0,50,1,0
28339,-100,4,2,0,50,0,1
30053,-100,4,2,0,50,0,0
42053,-100,4,2,0,50,0,1
43768,-100,4,2,0,50,0,0
45482,-100,4,2,0,50,0,1
47196,-100,4,2,0,50,0,0
79768,-100,4,2,0,5,0,0

[Colours]
Combo1 : 0,128,255
Combo2 : 255,255,0
Combo3 : 234,234,234
Combo4 : 255,128,0
Combo5 : 0,64,128
Combo6 : 255,72,72

[HitObjects]
336,192,911,6,0,P|400:224|384:296,1,140
256,272,1768,2,0,P|224:336|152:320,1,140,0|0,0:0|0:0,0:0:0:0:
176,192,2625,2,0,P|112:160|128:88,1,140,0|0,0:0|0:0,0:0:0:0:
256,112,3482,2,0,P|288:48|360:64,1,140,0|0,0:0|0:0,0:0:0:0:
396,96,4125,1,0,0:0:0:0:
440,136,4339,5,0,0:0:0:0:
424,240,4768,2,0,P|388:284|296:296,1,140
208,296,5625,2,0,P|144:272|126:207,1,140
184,112,6482,1,0,0:0:0:0:
272,60,6911,1,0,0:0:0:0:
352,144,7339,1,0,0:0:0:0:
392,184,7553,2,0,L|408:264,1,70,0|0,0:0|0:0,0:0:0:0:
328,328,8196,5,0,0:0:0:0:
216,252,8625,1,0,0:0:0:0:
112,200,9053,2,0,P|40:176|40:104,1,140,0|0,0:0|0:0,0:0:0:0:
136,72,9911,1,0,0:0:0:0:
248,64,10339,2,0,P|336:72|376:128,1,140,0|0,0:0|0:0,0:0:0:0:
404,152,10982,1,0,0:0:0:0:
436,200,11196,5,0,0:0:0:0:
336,280,11625,2,0,L|264:312,2,70
432,220,12482,1,0,0:0:0:0:
404,120,12911,1,0,0:0:0:0:
356,88,13125,1,0,0:0:0:0:
308,56,13339,1,0,0:0:0:0:
160,64,13768,2,0,L|88:24,2,70,0|0|0,0:0|0:0|0:0,0:0:0:0:
208,96,14411,1,0,0:0:0:0:
256,128,14625,5,0,0:0:0:0:
368,168,15053,2,0,P|384:248|336:264,1,140
240,304,15911,1,0,0:0:0:0:
136,256,16339,2,0,P|72:216|80:152,1,140,0|0,0:0|0:0,0:0:0:0:
116,120,16982,1,0,0:0:0:0:
152,80,17196,2,0,P|224:48|288:96,1,140,0|0,0:0|0:0,0:0:0:0:
316,108,17839,1,0,0:0:0:0:
356,148,18053,5,0,0:0:0:0:
416,248,18482,2,0,B|368:304|368:304|296:304,1,140
192,304,19339,2,0,B|125:304|125:304|77:248,1,140,0|0,0:0|0:0,0:0:0:0:
120,144,20196,2,0,B|120:72|120:72|176:32,2,140,0|0|0,0:0|0:0|0:0,0:0:0:0:
148,192,21268,1,0,0:0:0:0:
180,240,21482,5,0,0:0:0:0:
288,280,21911,2,0,P|352:240|376:152,1,140
308,96,22768,2,0,L|252:40,2,70
376,182,23625,2,0,P|347:245|160:304,1,280
116,276,24696,1,0,0:0:0:0:
76,240,24911,5,0,0:0:0:0:
88,120,25339,2,0,B|144:56|144:56|200:56,1,140
312,56,26196,2,0,B|392:88|392:88|392:168,1,140
308,240,27053,2,0,B|276:304|276:304|180:288,2,140
380,204,28125,1,0,0:0:0:0:
336,144,28339,6,0,L|260:120,1,70
220,136,28768,2,0,L|148:160,1,70
128,208,29196,1,0,0:0:0:0:
112,260,29411,1,0,0:0:0:0:
100,316,29625,1,0,0:0:0:0:
208,328,30053,1,0,0:0:0:0:
312,340,30482,2,0,P|384:300|392:292,2,70
256,356,31125,1,0,0:0:0:0:
200,352,31339,2,0,P|144:312|152:240,1,140
176,144,32196,5,0,0:0:0:0:
280,88,32625,1,0,0:0:0:0:
392,72,33053,1,0,0:0:0:0:
456,152,33482,2,0,P|488:216|448:288,1,140
432,328,34125,1,0,0:0:0:0:
376,320,34339,2,0,P|288:304|256:336,1,140
200,320,34982,2,0,L|144:256,1,70
96,168,35625,5,0,0:0:0:0:
184,96,36053,1,0,0:0:0:0:
296,56,36482,1,0,0:0:0:0:
408,56,36911,2,0,P|472:96|488:176,1,140
480,212,37553,1,0,0:0:0:0:
464,268,37768,2,0,P|392:340|336:324,1,140
308,328,38411,1,0,0:0:0:0:
256,316,38625,5,0,0:0:0:0:
160,240,39053,2,0,P|224:200|248:128,1,140
248,32,39911,2,0,P|336:32|376:88,1,140
320,176,40768,2,0,P|368:224|440:216,1,140
468,272,41411,2,0,L|420:328,1,70
368,336,41839,1,0,0:0:0:0:
276,336,42053,6,0,L|204:324,1,70
176,312,42482,2,0,L|128:260,1,70
112,228,42911,2,0,L|96:160,1,70
92,104,43339,1,0,0:0:0:0:
188,60,43768,1,0,0:0:0:0:
304,88,44196,2,0,P|368:128|392:200,1,140
436,300,45053,1,0,0:0:0:0:
392,328,45268,1,0,0:0:0:0:
352,352,45482,6,0,L|264:336,1,70
256,312,45911,2,0,L|228:248,1,70
212,216,46339,2,0,L|204:140,1,70
204,100,46768,1,0,0:0:0:0:
320,56,47196,2,0,P|408:64|440:120,1,140
408,208,48053,2,0,L|376:280,1,70
360,320,48482,1,0,0:0:0:0:
256,272,48911,5,0,0:0:0:0:
208,244,49125,1,0,0:0:0:0:
164,212,49339,1,0,0:0:0:0:
136,112,49768,2,0,L|224:80,1,70
244,72,50196,1,0,0:0:0:0:
340,116,50625,1,0,0:0:0:0:
384,208,51053,1,0,0:0:0:0:
444,308,51482,2,0,B|480:248|464:160,1,140
348,120,52339,6,0,P|300:56|236:24,2,140
408,228,53625,1,0,0:0:0:0:
348,316,54053,2,0,P|312:340|280:352,1,70
232,348,54482,1,0,0:0:0:0:
176,336,54696,1,0,0:0:0:0:
120,312,54911,2,0,P|76:264|72:248,1,70
72,208,55339,1,0,0:0:0:0:
68,152,55553,1,0,0:0:0:0:
256,192,55768,12,0,58768,0:0:0:0:
304,56,62625,6,0,P|376:88|376:152,1,140
384,196,63268,1,0,0:0:0:0:
380,252,63482,2,0,P|359:315|288:328,1,140
196,316,64339,2,0,P|132:295|119:230,1,140
120,172,64982,1,0,0:0:0:0:
124,116,65196,2,0,P|144:52|209:39,1,140
264,48,65839,1,0,0:0:0:0:
320,64,66053,5,0,0:0:0:0:
408,136,66482,2,0,B|448:208|448:208|416:288,1,140
336,328,67339,1,0,0:0:0:0:
232,288,67768,2,0,B|168:248|168:248|152:168,1,140
160,72,68625,2,0,L|240:40,1,70
280,64,69053,2,0,L|344:104,1,70
384,136,69482,5,0,0:0:0:0:
392,248,69911,2,0,P|448:288|400:360,2,140
304,184,71196,1,0,0:0:0:0:
216,112,71625,1,0,0:0:0:0:
104,96,72053,2,0,L|40:48,2,70
128,144,72696,1,0,0:0:0:0:
152,192,72911,5,0,0:0:0:0:
136,304,73339,2,0,B|192:352|192:352|272:312,1,140
300,300,73982,1,0,0:0:0:0:
336,260,74196,2,0,B|384:204|384:204|464:236,2,140
300,300,75268,1,0,0:0:0:0:
251,322,75482,2,0,B|192:352|192:352|136:304,1,140
96,272,76125,1,0,0:0:0:0:
48,232,76339,5,0,0:0:0:0:
88,128,76768,2,0,P|136:64|224:56,1,140
248,56,77411,1,0,0:0:0:0:
304,48,77625,2,0,P|384:48|432:112,1,140
424,144,78268,1,0,0:0:0:0:
384,184,78482,2,0,P|344:168|320:152,2,70
424,224,79125,2,0,P|472:256|472:292,1,70
256,192,79768,12,0,86625,0:0:0:0:
