osu file format v14

[General]
AudioFilename: audio.mp3
AudioLeadIn: 0
PreviewTime: 14159
Countdown: 1
SampleSet: Normal
StackLeniency: 0.7
Mode: 1
LetterboxInBreaks: 0
WidescreenStoryboard: 1

[Editor]
DistanceSpacing: 0.5
BeatDivisor: 3
GridSize: 16
TimelineZoom: 3.599999

[Metadata]
Title:Danganronpa V3 (Full Version)
TitleUnicode:Danganronpa V3 (Full Version)
Artist:Masafumi Takada
ArtistUnicode:高田 雅史
Creator:Jerry
Version:Lies
Source:Danganronpa V3: Killing Harmony
Tags:original soundtrack black ニューダンガンロンパV3オリジナルサウンドトラック クロ
BeatmapID:1656039
BeatmapSetID:789055

[Difficulty]
HPDrainRate:5
CircleSize:5
OverallDifficulty:5
ApproachRate:5
SliderMultiplier:1.4
SliderTickRate:1

[Events]
//Background and Video events
0,0,"BG.jpg",0,0
//Break Periods
//Storyboard Layer 0 (Background)
Sprite,Background,TopLeft,"BG.jpg",0,0
//Storyboard Layer 1 (Fail)
//Storyboard Layer 2 (Pass)
//Storyboard Layer 3 (Foreground)
//Storyboard Sound Samples

[TimingPoints]
444,428.571428571429,4,1,0,50,1,0
1086,-100,4,1,0,40,0,0
1194,-100,4,1,0,30,0,0
1302,428.571428571429,4,1,0,20,1,0
1302,-100,4,1,0,20,0,0
15016,-500,4,1,0,10,0,0
28944,-66.6666666666667,4,1,0,15,0,0
29159,-100,4,1,0,15,0,0
29373,-66.6666666666667,4,1,0,15,0,0
29480,-100,4,1,0,15,0,0
29802,-66.6666666666667,4,1,0,15,0,0
29909,-100,4,1,0,15,0,0
30230,-66.6666666666667,4,1,0,15,0,0
30337,-100,4,1,0,15,0,0
30659,-66.6666666666667,4,1,0,15,0,0
30766,-100,4,1,0,15,0,0
31087,-66.6666666666667,4,1,0,15,0,0
31194,-100,4,1,0,15,0,0
31516,-66.6666666666667,4,1,0,15,0,0
31623,-100,4,1,0,15,0,0
31944,-66.6666666666667,4,1,0,15,0,0
32052,-100,4,1,0,15,0,0
32373,-66.6666666666667,4,1,0,15,0,0
32480,-100,4,1,0,15,0,0
32802,-66.6666666666667,4,1,0,15,0,0
32909,-100,4,1,0,15,0,0
33230,-66.6666666666667,4,1,0,15,0,0
33337,-100,4,1,0,15,0,0
33659,-66.6666666666667,4,1,0,15,0,0
33766,-100,4,1,0,15,0,0
34087,-66.6666666666667,4,1,0,15,0,0
34194,-100,4,1,0,15,0,0
34516,-66.6666666666667,4,1,0,15,0,0
34623,-100,4,1,0,15,0,0
34944,-66.6666666666667,4,1,0,15,0,0
35052,-100,4,1,0,15,0,0
35373,-66.6666666666667,4,1,0,15,0,0
35480,-100,4,1,0,15,0,0
35802,-66.6666666666667,4,1,0,15,0,0
35909,-100,4,1,0,15,0,0
36230,-66.6666666666667,4,1,0,15,0,0
36337,-100,4,1,0,15,0,0
36659,-66.6666666666667,4,1,0,15,0,0
36766,-100,4,1,0,15,0,0
37087,-66.6666666666667,4,1,0,15,0,0
37194,-100,4,1,0,15,0,0
37516,-66.6666666666667,4,1,0,15,0,0
37623,-100,4,1,0,15,0,0
37944,-66.6666666666667,4,1,0,15,0,0
38052,-100,4,1,0,15,0,0
38373,-66.6666666666667,4,1,0,15,0,0
38480,-100,4,1,0,15,0,0
38802,-66.6666666666667,4,1,0,15,0,0
38909,-100,4,1,0,15,0,0
39230,-66.6666666666667,4,1,0,15,0,0
39337,-100,4,1,0,15,0,0
39659,-66.6666666666667,4,1,0,15,0,0
39766,-100,4,1,0,15,0,0
40087,-66.6666666666667,4,1,0,15,0,0
40194,-100,4,1,0,15,0,0
40730,-100,4,1,0,20,0,0
41694,-58.8235294117647,4,1,0,20,0,0
41802,-62.5,4,1,0,20,0,0
41909,-66.6666666666667,4,1,0,20,0,0
42016,-71.4285714285714,4,1,0,20,0,0
42123,-76.9230769230769,4,1,0,20,0,0
42230,-83.3333333333333,4,1,0,20,0,0
42337,-90.9090909090909,4,1,0,20,0,0
42444,-100,4,1,0,20,0,0
44159,-1,4,1,0,20,0,0
45873,-100,4,1,0,20,0,0
47587,-1,4,1,0,20,0,0
49302,-100,4,1,0,20,0,0
51016,-1,4,1,0,20,0,0
52730,-100,4,1,0,30,0,0
54444,-1,4,1,0,30,0,0
56159,-100,4,1,0,40,0,0
59567,428.571428571429,4,1,0,50,1,0
59567,-100,4,1,0,50,0,1
66404,428.571428571429,4,1,0,50,1,1
73221,428.571428571429,4,1,0,50,1,1
80078,428.571428571429,4,1,0,50,1,8
80198,428.571428571429,4,1,0,50,1,1
87016,428.571428571429,4,1,0,50,1,0
87016,-142.857142857143,4,1,0,20,0,0
87042,-149.253731343284,4,1,0,20,0,0
87444,-142.857142857143,4,1,0,20,0,0
87471,-149.253731343284,4,1,0,20,0,0
87873,-142.857142857143,4,1,0,20,0,0
87899,-149.253731343284,4,1,0,20,0,0
88301,-142.857142857143,4,1,0,20,0,0
88328,-149.253731343284,4,1,0,20,0,0
88730,-142.857142857143,4,1,0,20,0,0
88757,-149.253731343284,4,1,0,20,0,0
89158,-142.857142857143,4,1,0,20,0,0
89185,-149.253731343284,4,1,0,20,0,0
89587,-142.857142857143,4,1,0,20,0,0
89614,-149.253731343284,4,1,0,20,0,0
90016,-142.857142857143,4,1,0,20,0,0
90042,-149.253731343284,4,1,0,20,0,0
90444,-142.857142857143,4,1,0,20,0,0
90471,-149.253731343284,4,1,0,20,0,0
90873,-142.857142857143,4,1,0,20,0,0
90899,-149.253731343284,4,1,0,20,0,0
91301,-142.857142857143,4,1,0,20,0,0
91328,-149.253731343284,4,1,0,20,0,0
91730,-142.857142857143,4,1,0,20,0,0
91757,-149.253731343284,4,1,0,20,0,0
92158,-142.857142857143,4,1,0,20,0,0
92185,-149.253731343284,4,1,0,20,0,0
92587,-142.857142857143,4,1,0,20,0,0
92614,-149.253731343284,4,1,0,20,0,0
93016,-142.857142857143,4,1,0,20,0,0
93042,-149.253731343284,4,1,0,20,0,0
93444,-125,4,1,0,20,0,0
93471,-129.87012987013,4,1,0,20,0,0
93873,-125,4,1,0,30,0,0
93899,-129.87012987013,4,1,0,30,0,0
94542,-129.87012987013,4,1,0,30,0,0
94623,-125,4,1,0,30,0,0
95078,-129.87012987013,4,1,0,30,0,0
95105,-125,4,1,0,30,0,0
95614,-129.87012987013,4,1,0,30,0,0
95641,-125,4,1,0,30,0,0
96257,-129.87012987013,4,1,0,30,0,0
96283,-125,4,1,0,30,0,0
96792,-129.87012987013,4,1,0,30,0,0
96819,-125,4,1,0,30,0,0
97302,-111.111111111111,4,1,0,40,0,0
97542,-114.942528735632,4,1,0,40,0,0
97569,-111.111111111111,4,1,0,40,0,0
97757,-114.942528735632,4,1,0,40,0,0
97783,-111.111111111111,4,1,0,40,0,0
97971,-114.942528735632,4,1,0,40,0,0
97998,-111.111111111111,4,1,0,40,0,0
98507,-114.942528735632,4,1,0,40,0,0
98533,-111.111111111111,4,1,0,40,0,0
98801,-100,4,1,0,40,0,0
99444,-95.2380952380952,4,1,0,40,0,0
100194,-90.9090909090909,4,1,0,40,0,0
100730,-83.3333333333333,4,1,0,50,0,0
117123,-133.333333333333,4,1,0,20,0,0
120873,-50,4,1,0,50,0,0
121944,-100,4,1,0,50,0,0
128802,20000,4,1,0,50,1,0

[HitObjects]
256,192,444,5,8,0:0:0:0:
256,192,552,1,8,0:0:0:0:
256,192,659,1,0,0:0:0:0:
256,192,766,1,0,0:0:0:0:
256,192,873,1,8,0:0:0:0:
256,192,980,1,0,0:0:0:0:
256,192,1087,1,8,0:0:0:0:
256,192,1194,1,8,0:0:0:0:
256,192,1302,1,0,0:0:0:0:
256,192,1516,1,0,0:0:0:0:
256,192,1837,1,0,0:0:0:0:
256,192,1944,1,0,0:0:0:0:
256,192,2052,1,0,0:0:0:0:
256,192,2266,1,0,0:0:0:0:
256,192,2480,1,0,0:0:0:0:
256,192,2587,1,8,0:0:0:0:
256,192,3016,1,0,0:0:0:0:
256,192,3230,1,0,0:0:0:0:
256,192,3552,1,0,0:0:0:0:
256,192,3659,1,0,0:0:0:0:
256,192,3766,1,0,0:0:0:0:
256,192,3980,1,0,0:0:0:0:
256,192,4194,1,0,0:0:0:0:
256,192,4302,1,0,0:0:0:0:
256,192,4409,1,8,0:0:0:0:
256,192,4623,1,0,0:0:0:0:
256,192,4730,1,8,0:0:0:0:
256,192,4944,1,0,0:0:0:0:
256,192,5266,1,0,0:0:0:0:
256,192,5373,1,0,0:0:0:0:
256,192,5480,1,0,0:0:0:0:
256,192,5694,1,0,0:0:0:0:
256,192,5909,1,0,0:0:0:0:
256,192,6016,1,8,0:0:0:0:
256,192,6230,1,0,0:0:0:0:
256,192,6444,1,8,0:0:0:0:
256,192,6552,1,0,0:0:0:0:
256,192,6766,1,0,0:0:0:0:
256,192,6980,1,0,0:0:0:0:
256,192,7087,1,0,0:0:0:0:
256,192,7194,1,8,0:0:0:0:
256,192,7409,1,8,0:0:0:0:
256,192,7623,1,0,0:0:0:0:
256,192,7730,1,8,0:0:0:0:
256,192,7944,1,0,0:0:0:0:
256,192,8159,1,0,0:0:0:0:
256,192,8373,1,0,0:0:0:0:
256,192,8694,1,0,0:0:0:0:
256,192,8802,1,0,0:0:0:0:
256,192,8909,1,0,0:0:0:0:
256,192,9123,1,0,0:0:0:0:
256,192,9337,1,8,0:0:0:0:
256,192,9444,1,0,0:0:0:0:
256,192,9659,1,0,0:0:0:0:
256,192,9873,1,8,0:0:0:0:
256,192,10087,1,8,0:0:0:0:
256,192,10194,1,0,0:0:0:0:
256,192,10409,1,0,0:0:0:0:
256,192,10623,1,8,0:0:0:0:
256,192,10837,1,0,0:0:0:0:
256,192,10944,1,8,0:0:0:0:
256,192,11052,1,0,0:0:0:0:
256,192,11266,1,8,0:0:0:0:
256,192,11373,1,0,0:0:0:0:
256,192,11587,1,0,0:0:0:0:
256,192,11694,1,0,0:0:0:0:
256,192,11909,1,0,0:0:0:0:
256,192,12123,1,0,0:0:0:0:
256,192,12337,1,8,0:0:0:0:
256,192,12444,1,0,0:0:0:0:
256,192,12659,1,0,0:0:0:0:
256,192,12873,1,8,0:0:0:0:
256,192,13087,1,0,0:0:0:0:
256,192,13302,1,8,0:0:0:0:
256,192,13409,1,0,0:0:0:0:
256,192,13623,1,0,0:0:0:0:
256,192,13837,1,0,0:0:0:0:
256,192,13944,1,8,0:0:0:0:
256,192,14052,1,0,0:0:0:0:
256,192,15016,1,0,0:0:0:0:
256,192,15230,1,8,0:0:0:0:
256,192,15444,1,8,0:0:0:0:
256,192,15659,1,0,0:0:0:0:
256,192,15766,1,8,0:0:0:0:
256,192,15980,1,8,0:0:0:0:
256,192,16194,1,8,0:0:0:0:
256,192,16302,1,0,0:0:0:0:
256,192,16516,1,8,0:0:0:0:
256,192,16730,1,0,0:0:0:0:
256,192,16944,1,8,0:0:0:0:
256,192,17159,1,8,0:0:0:0:
256,192,17373,1,0,0:0:0:0:
256,192,17480,1,8,0:0:0:0:
256,192,17694,1,8,0:0:0:0:
256,192,17909,1,8,0:0:0:0:
256,192,18016,1,0,0:0:0:0:
256,192,18230,1,8,0:0:0:0:
256,192,18444,1,0,0:0:0:0:
256,192,18659,1,8,0:0:0:0:
256,192,18873,1,8,0:0:0:0:
256,192,19087,1,0,0:0:0:0:
256,192,19194,1,8,0:0:0:0:
256,192,19409,1,8,0:0:0:0:
256,192,19623,1,8,0:0:0:0:
256,192,19730,1,0,0:0:0:0:
256,192,19944,1,8,0:0:0:0:
256,192,20159,1,0,0:0:0:0:
256,192,20373,1,8,0:0:0:0:
256,192,20587,1,8,0:0:0:0:
256,192,20802,1,0,0:0:0:0:
256,192,20909,1,8,0:0:0:0:
256,192,21123,1,8,0:0:0:0:
256,192,21337,1,0,0:0:0:0:
256,192,21444,1,8,0:0:0:0:
256,192,21659,1,0,0:0:0:0:
256,192,21873,1,0,0:0:0:0:
256,192,21980,1,0,0:0:0:0:
256,192,22087,1,8,0:0:0:0:
256,192,22302,1,8,0:0:0:0:
256,192,22409,1,8,0:0:0:0:
256,192,22516,1,0,0:0:0:0:
256,192,22623,1,8,0:0:0:0:
256,192,22837,1,8,0:0:0:0:
256,192,23052,1,8,0:0:0:0:
256,192,23159,1,0,0:0:0:0:
256,192,23373,1,8,0:0:0:0:
256,192,23587,1,0,0:0:0:0:
256,192,23694,1,0,0:0:0:0:
256,192,23802,1,8,0:0:0:0:
256,192,24016,1,8,0:0:0:0:
256,192,24123,1,8,0:0:0:0:
256,192,24230,1,0,0:0:0:0:
256,192,24337,1,8,0:0:0:0:
256,192,24552,1,8,0:0:0:0:
256,192,24766,1,8,0:0:0:0:
256,192,24873,1,0,0:0:0:0:
256,192,25087,1,8,0:0:0:0:
256,192,25194,1,8,0:0:0:0:
256,192,25302,1,0,0:0:0:0:
256,192,25516,1,0,0:0:0:0:
256,192,25730,1,8,0:0:0:0:
256,192,25837,1,8,0:0:0:0:
256,192,25944,1,0,0:0:0:0:
256,192,26052,1,8,0:0:0:0:
256,192,26266,1,8,0:0:0:0:
256,192,26480,1,8,0:0:0:0:
256,192,26587,1,0,0:0:0:0:
256,192,26802,1,8,0:0:0:0:
256,192,27016,1,0,0:0:0:0:
256,192,27123,1,0,0:0:0:0:
256,192,27230,1,8,0:0:0:0:
256,192,27444,1,8,0:0:0:0:
256,192,27552,1,8,0:0:0:0:
256,192,27659,1,0,0:0:0:0:
256,192,27766,1,8,0:0:0:0:
256,192,27980,1,8,0:0:0:0:
256,192,28194,1,0,0:0:0:0:
256,192,28302,1,8,0:0:0:0:
256,192,28516,1,0,0:0:0:0:
256,192,28623,1,0,0:0:0:0:
256,192,28730,1,0,0:0:0:0:
256,192,28944,1,8,0:0:0:0:
256,192,29159,1,8,0:0:0:0:
256,192,29266,1,0,0:0:0:0:
256,192,29373,1,8,0:0:0:0:
256,192,29480,1,8,0:0:0:0:
256,192,29694,1,8,0:0:0:0:
256,192,29802,1,8,0:0:0:0:
256,192,29909,1,0,0:0:0:0:
256,192,30016,1,8,0:0:0:0:
256,192,30230,1,8,0:0:0:0:
256,192,30444,1,0,0:0:0:0:
256,192,30659,1,8,0:0:0:0:
256,192,30873,1,8,0:0:0:0:
256,192,30980,1,0,0:0:0:0:
256,192,31087,1,8,0:0:0:0:
256,192,31194,1,8,0:0:0:0:
256,192,31409,1,8,0:0:0:0:
256,192,31516,1,8,0:0:0:0:
256,192,31623,1,0,0:0:0:0:
256,192,31730,1,8,0:0:0:0:
256,192,31944,1,8,0:0:0:0:
256,192,32159,1,0,0:0:0:0:
256,192,32373,1,8,0:0:0:0:
256,192,32587,1,8,0:0:0:0:
256,192,32694,1,0,0:0:0:0:
256,192,32802,1,8,0:0:0:0:
256,192,32909,1,8,0:0:0:0:
256,192,33123,1,8,0:0:0:0:
256,192,33230,1,8,0:0:0:0:
256,192,33337,1,0,0:0:0:0:
256,192,33444,1,8,0:0:0:0:
256,192,33659,1,8,0:0:0:0:
256,192,33873,1,0,0:0:0:0:
256,192,34087,1,8,0:0:0:0:
256,192,34302,1,8,0:0:0:0:
256,192,34409,1,0,0:0:0:0:
256,192,34516,1,8,0:0:0:0:
256,192,34623,1,8,0:0:0:0:
256,192,34837,1,8,0:0:0:0:
256,192,34944,1,8,0:0:0:0:
256,192,35052,1,0,0:0:0:0:
256,192,35159,1,8,0:0:0:0:
256,192,35373,1,8,0:0:0:0:
256,192,35587,1,0,0:0:0:0:
256,192,35802,1,8,0:0:0:0:
256,192,36016,1,8,0:0:0:0:
256,192,36123,1,0,0:0:0:0:
256,192,36230,1,8,0:0:0:0:
256,192,36337,1,8,0:0:0:0:
256,192,36552,1,8,0:0:0:0:
256,192,36659,1,8,0:0:0:0:
256,192,36766,1,0,0:0:0:0:
256,192,36873,1,8,0:0:0:0:
256,192,37087,1,8,0:0:0:0:
256,192,37302,1,0,0:0:0:0:
256,192,37516,1,8,0:0:0:0:
256,192,37730,1,8,0:0:0:0:
256,192,37837,1,0,0:0:0:0:
256,192,37944,1,8,0:0:0:0:
256,192,38052,1,8,0:0:0:0:
256,192,38266,1,8,0:0:0:0:
256,192,38373,1,8,0:0:0:0:
256,192,38480,1,0,0:0:0:0:
256,192,38587,1,8,0:0:0:0:
256,192,38802,1,8,0:0:0:0:
256,192,39016,1,0,0:0:0:0:
256,192,39230,1,8,0:0:0:0:
256,192,39444,1,8,0:0:0:0:
256,192,39552,1,0,0:0:0:0:
256,192,39659,1,8,0:0:0:0:
256,192,39766,1,8,0:0:0:0:
256,192,39980,1,8,0:0:0:0:
256,192,40087,1,0,0:0:0:0:
256,192,40194,1,8,0:0:0:0:
256,192,40302,1,8,0:0:0:0:
256,192,40480,1,8,0:0:0:0:
256,192,40730,1,0,0:0:0:0:
256,192,40944,1,8,0:0:0:0:
256,192,41159,1,0,0:0:0:0:
256,192,41266,1,8,0:0:0:0:
256,192,41373,1,0,0:0:0:0:
256,192,41480,1,8,0:0:0:0:
256,192,41694,1,8,0:0:0:0:
256,192,41802,1,0,0:0:0:0:
256,192,41909,1,0,0:0:0:0:
256,192,42016,1,0,0:0:0:0:
256,192,42123,1,8,0:0:0:0:
256,192,42230,1,8,0:0:0:0:
256,192,42337,1,0,0:0:0:0:
256,192,42444,1,0,0:0:0:0:
256,192,42659,1,8,0:0:0:0:
256,192,42873,1,8,0:0:0:0:
256,192,43087,1,0,0:0:0:0:
256,192,43194,1,8,0:0:0:0:
256,192,43409,1,8,0:0:0:0:
256,192,43623,1,8,0:0:0:0:
256,192,43730,1,0,0:0:0:0:
256,192,43944,1,8,0:0:0:0:
256,192,44159,1,0,0:0:0:0:
256,192,44373,1,8,0:0:0:0:
256,192,44587,1,8,0:0:0:0:
256,192,44802,1,0,0:0:0:0:
256,192,44909,1,8,0:0:0:0:
256,192,45123,1,8,0:0:0:0:
256,192,45337,1,8,0:0:0:0:
256,192,45444,1,0,0:0:0:0:
256,192,45659,1,8,0:0:0:0:
256,192,45873,1,8,0:0:0:0:
256,192,45980,1,8,0:0:0:0:
256,192,46087,1,0,0:0:0:0:
256,192,46302,1,8,0:0:0:0:
256,192,46516,1,0,0:0:0:0:
256,192,46623,1,8,0:0:0:0:
256,192,46837,1,8,0:0:0:0:
256,192,47052,1,8,0:0:0:0:
256,192,47159,1,0,0:0:0:0:
256,192,47373,1,8,0:0:0:0:
256,192,47587,1,0,0:0:0:0:
256,192,47694,1,0,0:0:0:0:
256,192,47801,1,8,0:0:0:0:
256,192,48016,1,0,0:0:0:0:
256,192,48230,1,8,0:0:0:0:
256,192,48337,1,0,0:0:0:0:
256,192,48551,1,0,0:0:0:0:
256,192,48766,1,0,0:0:0:0:
256,192,48873,1,8,0:0:0:0:
256,192,49087,1,0,0:0:0:0:
256,192,49302,1,8,0:0:0:0:
256,192,49409,1,0,0:0:0:0:
256,192,49516,1,8,0:0:0:0:
256,192,49730,1,8,0:0:0:0:
256,192,49944,1,0,0:0:0:0:
256,192,50052,1,8,0:0:0:0:
256,192,50266,1,8,0:0:0:0:
256,192,50480,1,8,0:0:0:0:
256,192,50587,1,0,0:0:0:0:
256,192,50694,1,0,0:0:0:0:
256,192,50802,1,8,0:0:0:0:
256,192,51016,1,8,0:0:0:0:
256,192,51123,1,0,0:0:0:0:
256,192,51230,1,8,0:0:0:0:
256,192,51444,1,8,0:0:0:0:
256,192,51658,1,0,0:0:0:0:
256,192,51766,1,8,0:0:0:0:
256,192,51980,1,8,0:0:0:0:
256,192,52194,1,8,0:0:0:0:
256,192,52301,1,0,0:0:0:0:
256,192,52408,1,0,0:0:0:0:
256,192,52516,1,8,0:0:0:0:
256,192,52730,1,4,0:0:0:0:
256,192,52944,1,8,0:0:0:0:
256,192,53159,1,8,0:0:0:0:
256,192,53266,1,8,0:0:0:0:
256,192,53373,1,0,0:0:0:0:
256,192,53480,1,8,0:0:0:0:
256,192,53694,1,8,0:0:0:0:
256,192,53909,1,8,0:0:0:0:
256,192,54016,1,0,0:0:0:0:
256,192,54230,1,8,0:0:0:0:
256,192,54444,1,8,0:0:0:0:
256,192,54552,1,0,0:0:0:0:
256,192,54659,1,8,0:0:0:0:
256,192,54873,1,8,0:0:0:0:
256,192,55087,1,0,0:0:0:0:
256,192,55194,1,8,0:0:0:0:
256,192,55409,1,8,0:0:0:0:
256,192,55623,1,8,0:0:0:0:
256,192,55730,1,0,0:0:0:0:
256,192,55944,1,8,0:0:0:0:
256,192,56159,1,0,0:0:0:0:
256,192,56480,1,8,0:0:0:0:
256,192,56802,1,8,0:0:0:0:
256,192,57016,1,8,0:0:0:0:
256,192,57337,1,0,0:0:0:0:
256,192,57659,1,0,0:0:0:0:
256,192,57873,1,0,0:0:0:0:
256,192,58194,1,0,0:0:0:0:
256,192,58516,1,8,0:0:0:0:
256,192,58837,1,8,0:0:0:0:
256,192,58944,1,0,0:0:0:0:
256,192,59016,1,0,0:0:0:0:
256,192,59087,1,0,0:0:0:0:
256,192,59159,1,8,0:0:0:0:
256,192,59567,1,4,0:0:0:0:
256,192,59782,1,0,0:0:0:0:
256,192,59889,1,8,0:0:0:0:
256,192,60103,1,8,0:0:0:0:
256,192,60317,1,8,0:0:0:0:
256,192,60532,1,0,0:0:0:0:
256,192,60746,1,0,0:0:0:0:
256,192,60853,1,8,0:0:0:0:
256,192,61067,1,0,0:0:0:0:
256,192,61282,1,0,0:0:0:0:
256,192,61496,1,8,0:0:0:0:
256,192,61603,1,0,0:0:0:0:
256,192,61817,1,8,0:0:0:0:
256,192,62032,1,0,0:0:0:0:
256,192,62246,1,0,0:0:0:0:
256,192,62460,1,0,0:0:0:0:
256,192,62567,1,8,0:0:0:0:
256,192,62782,1,0,0:0:0:0:
256,192,62996,1,0,0:0:0:0:
256,192,63210,1,8,0:0:0:0:
256,192,63317,1,0,0:0:0:0:
256,192,63424,1,0,0:0:0:0:
256,192,63532,1,8,0:0:0:0:
256,192,63746,1,8,0:0:0:0:
256,192,63960,1,0,0:0:0:0:
256,192,64174,1,0,0:0:0:0:
256,192,64282,1,8,0:0:0:0:
256,192,64496,1,0,0:0:0:0:
256,192,64710,1,0,0:0:0:0:
256,192,64817,1,8,0:0:0:0:
256,192,65032,1,0,0:0:0:0:
256,192,65246,1,8,0:0:0:0:
256,192,65460,1,8,0:0:0:0:
256,192,65674,1,0,0:0:0:0:
256,192,65889,1,0,0:0:0:0:
256,192,65996,1,8,0:0:0:0:
256,192,66210,1,8,0:0:0:0:
256,192,66404,1,0,0:0:0:0:
256,192,66619,1,8,0:0:0:0:
256,192,66726,1,0,0:0:0:0:
256,192,66833,1,0,0:0:0:0:
256,192,66940,1,8,0:0:0:0:
256,192,67154,1,8,0:0:0:0:
256,192,67369,1,0,0:0:0:0:
256,192,67583,1,0,0:0:0:0:
256,192,67690,1,0,0:0:0:0:
256,192,67904,1,8,0:0:0:0:
256,192,68119,1,0,0:0:0:0:
256,192,68333,1,8,0:0:0:0:
256,192,68440,1,0,0:0:0:0:
256,192,68547,1,0,0:0:0:0:
256,192,68654,1,8,0:0:0:0:
256,192,68869,1,8,0:0:0:0:
256,192,69083,1,0,0:0:0:0:
256,192,69297,1,0,0:0:0:0:
256,192,69404,1,0,0:0:0:0:
256,192,69619,1,8,0:0:0:0:
256,192,69833,1,0,0:0:0:0:
256,192,70047,1,8,0:0:0:0:
256,192,70154,1,0,0:0:0:0:
256,192,70262,1,0,0:0:0:0:
256,192,70369,1,8,0:0:0:0:
256,192,70583,1,8,0:0:0:0:
256,192,70797,1,0,0:0:0:0:
256,192,71012,1,0,0:0:0:0:
256,192,71119,1,0,0:0:0:0:
256,192,71333,1,8,0:0:0:0:
256,192,71547,1,0,0:0:0:0:
256,192,71762,1,8,0:0:0:0:
256,192,71869,1,0,0:0:0:0:
256,192,71976,1,8,0:0:0:0:
256,192,72083,1,8,0:0:0:0:
256,192,72190,1,0,0:0:0:0:
256,192,72297,1,8,0:0:0:0:
256,192,72512,1,8,0:0:0:0:
256,192,72726,1,0,0:0:0:0:
256,192,72833,1,8,0:0:0:0:
256,192,72940,1,0,0:0:0:0:
256,192,73047,1,8,0:0:0:0:
256,192,73221,1,4,0:0:0:0:
256,192,73435,1,8,0:0:0:0:
256,192,73649,1,0,0:0:0:0:
256,192,73756,1,8,0:0:0:0:
256,192,73971,1,8,0:0:0:0:
256,192,74185,1,0,0:0:0:0:
256,192,74399,1,0,0:0:0:0:
256,192,74506,1,8,0:0:0:0:
256,192,74721,1,0,0:0:0:0:
256,192,74828,1,8,0:0:0:0:
256,192,74935,1,8,0:0:0:0:
256,192,75042,1,0,0:0:0:0:
256,192,75256,1,0,0:0:0:0:
256,192,75471,1,8,0:0:0:0:
256,192,75685,1,8,0:0:0:0:
256,192,75899,1,0,0:0:0:0:
256,192,76113,1,0,0:0:0:0:
256,192,76221,1,8,0:0:0:0:
256,192,76435,1,0,0:0:0:0:
256,192,76649,1,0,0:0:0:0:
256,192,76863,1,8,0:0:0:0:
256,192,76971,1,0,0:0:0:0:
256,192,77185,1,8,0:0:0:0:
256,192,77399,1,8,0:0:0:0:
256,192,77613,1,0,0:0:0:0:
256,192,77828,1,0,0:0:0:0:
256,192,77935,1,8,0:0:0:0:
256,192,78149,1,8,0:0:0:0:
256,192,78363,1,0,0:0:0:0:
256,192,78471,1,8,0:0:0:0:
256,192,78685,1,0,0:0:0:0:
256,192,78899,1,8,0:0:0:0:
256,192,79006,1,0,0:0:0:0:
256,192,79113,1,8,0:0:0:0:
256,192,79328,1,0,0:0:0:0:
256,192,79542,1,0,0:0:0:0:
256,192,79649,1,8,0:0:0:0:
256,192,79863,1,0,0:0:0:0:
256,192,80078,1,0,0:0:0:0:
256,192,80198,1,0,0:0:0:0:
256,192,80412,1,8,0:0:0:0:
256,192,80519,1,0,0:0:0:0:
256,192,80626,1,0,0:0:0:0:
256,192,80733,1,8,0:0:0:0:
256,192,80948,1,8,0:0:0:0:
256,192,81162,1,0,0:0:0:0:
256,192,81376,1,0,0:0:0:0:
256,192,81483,1,8,0:0:0:0:
256,192,81698,1,0,0:0:0:0:
256,192,81912,1,8,0:0:0:0:
256,192,82126,1,8,0:0:0:0:
256,192,82341,1,0,0:0:0:0:
256,192,82448,1,8,0:0:0:0:
256,192,82555,1,0,0:0:0:0:
256,192,82662,1,8,0:0:0:0:
256,192,82876,1,0,0:0:0:0:
256,192,83091,1,0,0:0:0:0:
256,192,83198,1,8,0:0:0:0:
256,192,83412,1,0,0:0:0:0:
256,192,83626,1,8,0:0:0:0:
256,192,83733,1,0,0:0:0:0:
256,192,83948,1,8,0:0:0:0:
256,192,84055,1,0,0:0:0:0:
256,192,84162,1,8,0:0:0:0:
256,192,84376,1,8,0:0:0:0:
256,192,84591,1,0,0:0:0:0:
256,192,84805,1,0,0:0:0:0:
256,192,84912,1,0,0:0:0:0:
256,192,85126,1,8,0:0:0:0:
256,192,85341,1,0,0:0:0:0:
256,192,85555,1,8,0:0:0:0:
256,192,85662,1,8,0:0:0:0:
256,192,85769,1,0,0:0:0:0:
256,192,85876,5,8,0:0:0:0:
256,192,86091,1,8,0:0:0:0:
256,192,86198,1,0,0:0:0:0:
256,192,86305,1,8,0:0:0:0:
256,192,86519,1,4,0:0:0:0:
256,192,87016,5,8,0:0:0:0:
256,192,87042,5,0,0:0:0:0:
256,192,87444,5,8,0:0:0:0:
256,192,87471,1,0,0:0:0:0:
256,192,87873,1,8,0:0:0:0:
256,192,87899,1,0,0:0:0:0:
256,192,88302,1,8,0:0:0:0:
256,192,88328,1,0,0:0:0:0:
256,192,88730,5,8,0:0:0:0:
256,192,88757,1,8,0:0:0:0:
256,192,89159,5,8,0:0:0:0:
256,192,89185,1,8,0:0:0:0:
256,192,89587,1,8,0:0:0:0:
256,192,89614,1,8,0:0:0:0:
256,192,90016,1,8,0:0:0:0:
256,192,90042,1,8,0:0:0:0:
256,192,90444,5,8,0:0:0:0:
256,192,90471,1,0,0:0:0:0:
256,192,90873,5,8,0:0:0:0:
256,192,90899,1,8,0:0:0:0:
256,192,91302,1,8,0:0:0:0:
256,192,91328,1,0,0:0:0:0:
256,192,91730,1,8,0:0:0:0:
256,192,91757,1,8,0:0:0:0:
256,192,92159,5,8,0:0:0:0:
256,192,92185,1,0,0:0:0:0:
256,192,92587,5,8,0:0:0:0:
256,192,92614,1,0,0:0:0:0:
256,192,93016,5,8,0:0:0:0:
256,192,93042,1,8,0:0:0:0:
256,192,93444,1,8,0:0:0:0:
256,192,93471,1,8,0:0:0:0:
256,192,93659,1,0,0:0:0:0:
256,192,93873,1,0,0:0:0:0:
256,192,93899,1,0,0:0:0:0:
256,192,94087,1,8,0:0:0:0:
256,192,94302,1,8,0:0:0:0:
256,192,94516,1,0,0:0:0:0:
256,192,94542,1,0,0:0:0:0:
256,192,94623,1,8,0:0:0:0:
256,192,94837,1,8,0:0:0:0:
256,192,95052,1,8,0:0:0:0:
256,192,95078,1,8,0:0:0:0:
256,192,95159,1,0,0:0:0:0:
256,192,95373,1,8,0:0:0:0:
256,192,95587,1,0,0:0:0:0:
256,192,95614,1,0,0:0:0:0:
256,192,95802,1,8,0:0:0:0:
256,192,96016,1,8,0:0:0:0:
256,192,96230,1,0,0:0:0:0:
256,192,96257,1,0,0:0:0:0:
256,192,96337,1,8,0:0:0:0:
256,192,96552,1,8,0:0:0:0:
256,192,96766,1,8,0:0:0:0:
256,192,96792,1,8,0:0:0:0:
256,192,96873,1,0,0:0:0:0:
256,192,97087,1,8,0:0:0:0:
256,192,97302,1,0,0:0:0:0:
256,192,97516,1,8,0:0:0:0:
256,192,97542,1,8,0:0:0:0:
256,192,97730,1,8,0:0:0:0:
256,192,97757,1,8,0:0:0:0:
256,192,97944,1,0,0:0:0:0:
256,192,97971,1,0,0:0:0:0:
256,192,98052,1,8,0:0:0:0:
256,192,98266,1,8,0:0:0:0:
256,192,98480,1,8,0:0:0:0:
256,192,98507,1,8,0:0:0:0:
256,192,98587,1,0,0:0:0:0:
256,192,98802,1,8,0:0:0:0:
256,192,98909,1,8,0:0:0:0:
256,192,99016,1,0,0:0:0:0:
256,192,99230,1,8,0:0:0:0:
256,192,99444,1,8,0:0:0:0:
256,192,99552,1,8,0:0:0:0:
256,192,99659,1,0,0:0:0:0:
256,192,99766,1,8,0:0:0:0:
256,192,99980,1,8,0:0:0:0:
256,192,100194,1,8,0:0:0:0:
256,192,100302,1,0,0:0:0:0:
256,192,100409,1,0,0:0:0:0:
256,192,100516,1,8,0:0:0:0:
256,192,100730,1,0,0:0:0:0:
256,192,100837,1,0,0:0:0:0:
256,192,101052,1,8,0:0:0:0:
256,192,101159,1,8,0:0:0:0:
256,192,101373,1,8,0:0:0:0:
256,192,101480,1,0,0:0:0:0:
256,192,101694,1,0,0:0:0:0:
256,192,101802,1,8,0:0:0:0:
256,192,102016,1,0,0:0:0:0:
256,192,102230,1,8,0:0:0:0:
256,192,102337,1,0,0:0:0:0:
256,192,102552,1,8,0:0:0:0:
256,192,102766,1,0,0:0:0:0:
256,192,102873,1,8,0:0:0:0:
256,192,102927,1,8,0:0:0:0:
256,192,102980,1,0,0:0:0:0:
256,192,103034,1,0,0:0:0:0:
256,192,103087,1,8,0:0:0:0:
256,192,103194,1,0,0:0:0:0:
256,192,103302,1,8,0:0:0:0:
256,192,103516,1,0,0:0:0:0:
256,192,103623,1,8,0:0:0:0:
256,192,103677,1,0,0:0:0:0:
256,192,103730,1,8,0:0:0:0:
256,192,103837,1,8,0:0:0:0:
256,192,103944,1,0,0:0:0:0:
256,192,104159,1,0,0:0:0:0:
256,192,104373,1,0,0:0:0:0:
256,192,104480,1,8,0:0:0:0:
256,192,104587,1,8,0:0:0:0:
256,192,104694,1,8,0:0:0:0:
256,192,104802,1,0,0:0:0:0:
256,192,104909,1,8,0:0:0:0:
256,192,105123,1,0,0:0:0:0:
256,192,105230,1,8,0:0:0:0:
256,192,105444,1,8,0:0:0:0:
256,192,105659,1,0,0:0:0:0:
256,192,105873,1,8,0:0:0:0:
256,192,105980,1,8,0:0:0:0:
256,192,106087,1,0,0:0:0:0:
256,192,106194,1,0,0:0:0:0:
256,192,106302,1,8,0:0:0:0:
256,192,106516,1,0,0:0:0:0:
256,192,106623,1,8,0:0:0:0:
256,192,106837,1,8,0:0:0:0:
256,192,107052,1,0,0:0:0:0:
256,192,107159,1,8,0:0:0:0:
256,192,107373,1,0,0:0:0:0:
256,192,107587,1,8,0:0:0:0:
256,192,107694,1,8,0:0:0:0:
256,192,107802,1,0,0:0:0:0:
256,192,107909,1,0,0:0:0:0:
256,192,108016,1,8,0:0:0:0:
256,192,108069,1,8,0:0:0:0:
256,192,108123,1,8,0:0:0:0:
256,192,108230,1,0,0:0:0:0:
256,192,108337,1,0,0:0:0:0:
256,192,108552,1,8,0:0:0:0:
256,192,108766,1,0,0:0:0:0:
256,192,108873,1,8,0:0:0:0:
256,192,109087,1,8,0:0:0:0:
256,192,109302,1,8,0:0:0:0:
256,192,109409,1,0,0:0:0:0:
256,192,109516,1,8,0:0:0:0:
256,192,109623,1,8,0:0:0:0:
256,192,109730,1,0,0:0:0:0:
256,192,109837,1,8,0:0:0:0:
256,192,110052,1,8,0:0:0:0:
256,192,110266,1,0,0:0:0:0:
256,192,110480,1,0,0:0:0:0:
256,192,110587,1,8,0:0:0:0:
256,192,110802,1,0,0:0:0:0:
256,192,111016,1,4,0:0:0:0:
256,192,111230,1,0,0:0:0:0:
256,192,111337,1,8,0:0:0:0:
256,192,111552,1,8,0:0:0:0:
256,192,111766,1,8,0:0:0:0:
256,192,111980,1,0,0:0:0:0:
256,192,112194,1,0,0:0:0:0:
256,192,112302,1,8,0:0:0:0:
256,192,112516,1,0,0:0:0:0:
256,192,112730,1,8,0:0:0:0:
256,192,112837,1,0,0:0:0:0:
256,192,112944,1,8,0:0:0:0:
256,192,113159,1,0,0:0:0:0:
256,192,113266,1,8,0:0:0:0:
256,192,113480,1,8,0:0:0:0:
256,192,113694,1,8,0:0:0:0:
256,192,113909,1,0,0:0:0:0:
256,192,114016,1,8,0:0:0:0:
256,192,114123,1,0,0:0:0:0:
256,192,114230,1,0,0:0:0:0:
256,192,114337,1,8,0:0:0:0:
256,192,114444,1,0,0:0:0:0:
256,192,114659,1,0,0:0:0:0:
256,192,114766,1,8,0:0:0:0:
256,192,114980,1,8,0:0:0:0:
256,192,115087,1,0,0:0:0:0:
256,192,115302,1,8,0:0:0:0:
256,192,115409,1,8,0:0:0:0:
256,192,115516,1,0,0:0:0:0:
256,192,115623,1,8,0:0:0:0:
256,192,115730,1,8,0:0:0:0:
256,192,115837,1,0,0:0:0:0:
256,192,115944,1,8,0:0:0:0:
256,192,116052,1,8,0:0:0:0:
256,192,116159,1,0,0:0:0:0:
256,192,116480,1,12,0:0:0:0:
256,192,116802,1,12,0:0:0:0:
256,192,117123,1,0,0:0:0:0:
256,192,117337,1,0,0:0:0:0:
256,192,117552,1,8,0:0:0:0:
256,192,117766,1,8,0:0:0:0:
256,192,120873,1,12,0:0:0:0:
256,192,121194,1,12,0:0:0:0:
256,192,121944,12,0,127730,0:0:0:0:
256,192,128802,5,4,0:0:0:0:
