osu file format v14

[General]
AudioFilename: audio.mp3
AudioLeadIn: 0
PreviewTime: 308
Countdown: 0
SampleSet: Soft
StackLeniency: 0.3
Mode: 0
LetterboxInBreaks: 0
WidescreenStoryboard: 1

[Editor]
Bookmarks: 15081,22354,25990,45990,53263,58717,69399,69626,82354,87808,98717,102354,109626,116899,120536,135081,149626,164172,178717,193263,207808,215081,218717,229626,236899
DistanceSpacing: 1.1
BeatDivisor: 4
GridSize: 32
TimelineZoom: 1.6

[Metadata]
Title:Beautiful Days
TitleUnicode:Beautiful Days
Artist:Masafumi Takada
ArtistUnicode:高田雅史
Creator:Chaoslitz
Version:Chu's Hard
Source:ダンガンロンパ 希望の学園と絶望の高校生
Tags:danganronpa dangan ronpa trigger happy havoc video game soundtrack instrumental ost Gaia arronchu1207
BeatmapID:3739615
BeatmapSetID:1768541

[Difficulty]
HPDrainRate:4
CircleSize:4
OverallDifficulty:5.5
ApproachRate:7.5
SliderMultiplier:1.6
SliderTickRate:1

[Events]
//Background and Video events
0,0,"bg.jpg",0,0
//Break Periods
//Storyboard Layer 0 (Background)
//Storyboard Layer 1 (Fail)
//Storyboard Layer 2 (Pass)
//Storyboard Layer 3 (Foreground)
//Storyboard Layer 4 (Overlay)
//Storyboard Sound Samples

[TimingPoints]
536,454.545454545455,4,2,3,60,1,0
536,-100,4,2,3,60,0,0
649,-100,4,2,1,60,0,0
14854,-100,4,2,4,60,0,0
15024,-100,4,2,4,10,0,0
15081,-100,4,2,3,70,0,0
15195,-100,4,2,4,70,0,0
15536,-100,4,2,5,70,0,0
15649,-100,4,2,4,70,0,0
18661,-100,4,2,4,10,0,0
18717,-100,4,2,4,70,0,0
19172,-100,4,2,5,70,0,0
19286,-100,4,2,4,70,0,0
21899,-100,4,2,5,70,0,0
22013,-100,4,2,4,70,0,0
22354,-100,4,2,3,70,0,0
22467,-100,4,2,1,70,0,0
25763,-100,4,2,4,70,0,0
25933,-100,4,2,4,10,0,0
25990,-100,4,2,3,70,0,0
26104,-100,4,2,4,70,0,0
26445,-100,4,2,5,70,0,0
26558,-100,4,2,4,70,0,0
29570,-100,4,2,4,10,0,0
29626,-100,4,2,4,70,0,0
30081,-100,4,2,5,70,0,0
30195,-100,4,2,4,70,0,0
31899,-100,4,2,5,70,0,0
32013,-100,4,2,4,70,0,0
33206,-100,4,2,4,10,0,0
33263,-100,4,2,4,70,0,0
36445,-100,4,2,5,70,0,0
36558,-100,4,2,4,70,0,0
37354,-100,4,2,5,70,0,0
37467,-100,4,2,4,70,0,0
38490,-100,4,2,4,70,0,0
38661,-100,4,2,4,10,0,0
38717,-100,4,2,4,70,0,0
40081,-100,4,2,5,70,0,0
40195,-100,4,2,4,70,0,0
40251,-100,4,2,4,10,0,0
40308,-100,4,2,4,70,0,0
40536,-100,4,2,4,70,0,0
44115,-100,4,2,4,10,0,0
44172,-100,4,2,3,70,0,0
44286,-100,4,2,4,70,0,0
45536,-100,4,2,5,70,0,0
45649,-100,4,2,4,70,0,0
45990,-100,4,2,4,70,0,0
47354,-100,4,2,5,70,0,0
47467,-100,4,2,4,70,0,0
48263,-100,4,2,5,70,0,0
48376,-100,4,2,4,70,0,0
48945,-100,4,2,5,70,0,0
49058,-100,4,2,4,70,0,0
50081,-100,4,2,5,70,0,0
50195,-100,4,2,4,70,0,0
50990,-100,4,2,5,70,0,0
51104,-100,4,2,4,70,0,0
52808,-100,4,2,5,70,0,0
52922,-100,4,2,4,70,0,0
53263,-100,4,2,5,70,0,0
53376,-100,4,2,4,70,0,0
53945,-100,4,2,2,70,0,0
54172,-100,4,2,4,70,0,0
54626,-100,4,2,5,70,0,0
54740,-100,4,2,4,70,0,0
56445,-100,4,2,5,70,0,0
56558,-100,4,2,4,70,0,0
57354,-100,4,2,5,70,0,0
57467,-100,4,2,4,70,0,0
58263,-100,4,2,5,70,0,0
58376,-100,4,2,4,70,0,0
58717,-100,4,2,3,70,0,0
58831,-100,4,2,4,70,0,0
60081,-100,4,2,5,70,0,0
60195,-100,4,2,4,70,0,0
61899,-100,4,2,5,70,0,0
62013,-100,4,2,4,70,0,0
62297,-100,4,2,4,10,0,0
62354,-100,4,2,5,70,0,0
62467,-100,4,2,4,70,0,0
63717,-100,4,2,5,70,0,0
63831,-100,4,2,4,70,0,0
64172,-100,4,2,5,70,0,0
64286,-100,4,2,4,70,0,0
64626,-100,4,2,5,70,0,0
64740,-100,4,2,4,70,0,0
67354,-100,4,2,5,70,0,0
67467,-100,4,2,4,70,0,0
69399,-100,4,2,4,70,0,0
69570,-100,4,2,4,10,0,0
69626,-100,4,2,6,70,0,0
69740,-100,4,2,4,70,0,0
70081,-100,4,2,5,70,0,0
70195,-100,4,2,4,70,0,0
70536,-100,4,2,5,70,0,0
70649,-100,4,2,4,70,0,0
71899,-100,4,2,5,70,0,0
72013,-100,4,2,4,70,0,0
73717,-100,4,2,5,70,0,0
73831,-100,4,2,4,70,0,0
76445,-100,4,2,5,70,0,0
76558,-100,4,2,4,70,0,0
78036,-100,4,2,5,70,0,0
78149,-100,4,2,4,70,0,0
80081,-100,4,2,5,70,0,0
80195,-100,4,2,4,70,0,0
82354,-100,4,2,5,70,0,0
82467,-100,4,2,4,70,0,0
83036,-100,4,2,2,70,0,0
83263,-100,4,2,4,70,0,0
83717,-100,4,2,5,70,0,0
83831,-100,4,2,4,70,0,0
84626,-100,4,2,5,70,0,0
84740,-100,4,2,4,70,0,0
87354,-100,4,2,5,70,0,0
87467,-100,4,2,4,70,0,0
87808,-100,4,2,3,60,0,0
87922,-100,4,2,4,60,0,0
89172,-100,4,2,5,60,0,0
89286,-100,4,2,4,60,0,0
90990,-100,4,2,5,60,0,0
91104,-100,4,2,4,60,0,0
91445,-100,4,2,5,60,0,0
91558,-100,4,2,4,60,0,0
91899,-100,4,2,5,60,0,0
92013,-100,4,2,4,60,0,0
93717,-100,4,2,5,60,0,0
93831,-100,4,2,4,60,0,0
96899,-100,4,2,5,60,0,0
97013,-100,4,2,4,60,0,0
98717,-100,4,2,5,60,0,0
98831,-100,4,2,4,60,0,0
100536,-100,4,2,5,60,0,0
100649,-100,4,2,4,60,0,0
102354,-100,4,2,3,50,0,0
102467,-100,4,2,4,50,0,0
103036,-100,4,2,5,50,0,0
103149,-100,4,2,4,50,0,0
103717,-100,4,2,4,50,0,0
104175,-100,4,2,4,50,0,0
104854,-100,4,2,5,50,0,0
104967,-100,4,2,4,50,0,0
106672,-100,4,2,5,50,0,0
106786,-100,4,2,4,50,0,0
107126,-100,4,2,5,50,0,0
107240,-100,4,2,4,50,0,0
109172,-100,4,2,5,50,0,0
109286,-100,4,2,4,50,0,0
110308,-100,4,2,5,50,0,0
110422,-100,4,2,4,50,0,0
112126,-100,4,2,2,50,0,0
112354,-100,4,2,4,50,0,0
113945,-100,4,2,5,50,0,0
114058,-100,4,2,4,50,0,0
115763,-100,4,2,5,50,0,0
115876,-100,4,2,4,50,0,0
120536,-100,4,2,3,60,0,0
120649,-100,4,2,7,60,0,0
121445,-100,4,2,5,60,0,0
121558,-100,4,2,7,60,0,0
122354,-100,4,2,5,60,0,0
122467,-100,4,2,7,60,0,0
125990,-100,4,2,5,60,0,0
126104,-100,4,2,7,60,0,0
127808,-100,4,2,5,60,0,0
127922,-100,4,2,7,60,0,0
128717,-100,4,2,5,60,0,0
128831,-100,4,2,7,60,0,0
129626,-100,4,2,5,60,0,0
129740,-100,4,2,7,60,0,0
131445,-100,4,2,5,60,0,0
131558,-100,4,2,7,60,0,0
133263,-100,4,2,5,60,0,0
133376,-100,4,2,7,60,0,0
135024,-100,4,2,7,10,0,0
135081,-100,4,2,3,70,0,0
135195,-100,4,2,7,70,0,0
135536,-100,4,2,8,70,0,0
135649,-100,4,2,8,70,0,0
135876,-100,4,2,7,70,0,0
139172,-100,4,2,8,70,0,0
139286,-100,4,2,8,70,0,0
139513,-100,4,2,7,70,0,0
139626,-100,4,2,8,70,0,0
139740,-100,4,2,7,70,0,0
141217,-100,4,2,2,70,0,0
141331,-100,4,2,7,70,0,0
141899,-100,4,2,8,70,0,0
142013,-100,4,2,7,70,0,0
142354,-100,4,2,8,70,0,0
142467,-100,4,2,7,70,0,0
143036,-100,4,2,8,70,0,0
143149,-100,4,2,7,70,0,0
144172,-100,4,2,8,70,0,0
144286,-100,4,2,7,70,0,0
144854,-100,4,2,8,70,0,0
144967,-100,4,2,7,70,0,0
146445,-100,4,2,8,70,0,0
146558,-100,4,2,7,70,0,0
148490,-100,4,2,8,70,0,0
148604,-100,4,2,7,70,0,0
149570,-100,4,2,7,10,0,0
149626,-100,4,2,6,75,0,0
149740,-100,4,2,4,75,0,0
150081,-100,4,2,5,75,0,0
150195,-100,4,2,4,75,0,0
150536,-100,4,2,5,75,0,0
150649,-100,4,2,4,75,0,0
151899,-100,4,2,5,75,0,0
152013,-100,4,2,4,75,0,0
156445,-100,4,2,5,75,0,0
156558,-100,4,2,4,75,0,0
157354,-100,4,2,5,75,0,0
157467,-100,4,2,4,75,0,0
157808,-100,4,2,5,75,0,0
157922,-100,4,2,4,75,0,0
158490,-100,4,2,4,75,0,0
158661,-100,4,2,4,10,0,0
158717,-100,4,2,4,75,0,0
160081,-100,4,2,5,75,0,0
160251,-100,4,2,5,10,0,0
160308,-100,4,2,4,75,0,0
160536,-100,4,2,4,75,0,0
164115,-100,4,2,4,10,0,0
164172,-100,4,2,3,75,0,0
164286,-100,4,2,4,75,0,0
165536,-100,4,2,5,75,0,0
165649,-100,4,2,4,75,0,0
167354,-100,4,2,5,75,0,0
167467,-100,4,2,4,75,0,0
168263,-100,4,2,5,75,0,0
168376,-100,4,2,4,75,0,0
168717,-100,4,2,5,75,0,0
168831,-100,4,2,4,75,0,0
170081,-100,4,2,5,75,0,0
170195,-100,4,2,4,75,0,0
170308,-100,4,2,2,75,0,0
170536,-100,4,2,4,75,0,0
170990,-100,4,2,5,75,0,0
171104,-100,4,2,4,75,0,0
172808,-100,4,2,5,75,0,0
172922,-100,4,2,4,75,0,0
174626,-100,4,2,5,75,0,0
174740,-100,4,2,4,75,0,0
176445,-100,4,2,5,75,0,0
176558,-100,4,2,4,75,0,0
177354,-100,4,2,5,75,0,0
177467,-100,4,2,4,75,0,0
178263,-100,4,2,5,75,0,0
178376,-100,4,2,4,75,0,0
178717,-90.9090909090909,4,2,6,80,0,1
178831,-90.9090909090909,4,2,4,80,0,1
180081,-90.9090909090909,4,2,5,80,0,1
180195,-90.9090909090909,4,2,4,80,0,1
180536,-90.9090909090909,4,2,5,80,0,1
180649,-90.9090909090909,4,2,4,80,0,1
181899,-90.9090909090909,4,2,5,80,0,1
182013,-90.9090909090909,4,2,4,80,0,1
182808,-90.9090909090909,4,2,5,80,0,1
182922,-90.9090909090909,4,2,4,80,0,1
183717,-90.9090909090909,4,2,5,80,0,1
183831,-90.9090909090909,4,2,4,80,0,1
184626,-90.9090909090909,4,2,5,80,0,1
184740,-90.9090909090909,4,2,4,80,0,1
185536,-90.9090909090909,4,2,5,80,0,1
185649,-90.9090909090909,4,2,4,80,0,1
186445,-90.9090909090909,4,2,5,80,0,1
186558,-90.9090909090909,4,2,4,80,0,1
187354,-90.9090909090909,4,2,5,80,0,1
187467,-90.9090909090909,4,2,4,80,0,1
188263,-90.9090909090909,4,2,5,80,0,1
188376,-90.9090909090909,4,2,4,80,0,1
189399,-90.9090909090909,4,2,4,80,0,1
189570,-90.9090909090909,4,2,4,10,0,1
189626,-90.9090909090909,4,2,3,80,0,1
189740,-90.9090909090909,4,2,4,80,0,1
189854,-90.9090909090909,4,2,4,80,0,1
190081,-90.9090909090909,4,2,5,80,0,1
190195,-90.9090909090909,4,2,4,80,0,1
190990,-90.9090909090909,4,2,5,80,0,1
191104,-90.9090909090909,4,2,4,80,0,1
191217,-90.9090909090909,4,2,4,80,0,1
191388,-90.9090909090909,4,2,4,10,0,1
191445,-90.9090909090909,4,2,4,80,0,1
191899,-90.9090909090909,4,2,5,80,0,1
192013,-90.9090909090909,4,2,4,80,0,1
192808,-90.9090909090909,4,2,5,80,0,1
192922,-90.9090909090909,4,2,4,80,0,1
193717,-90.9090909090909,4,2,5,80,0,1
193831,-90.9090909090909,4,2,4,80,0,1
193945,-90.9090909090909,4,2,5,80,0,1
194058,-90.9090909090909,4,2,4,80,0,1
194399,-90.9090909090909,4,2,5,80,0,1
194513,-90.9090909090909,4,2,4,80,0,1
196445,-90.9090909090909,4,2,5,80,0,1
196558,-90.9090909090909,4,2,4,80,0,1
197581,-90.9090909090909,4,2,5,80,0,1
197808,-90.9090909090909,4,2,4,80,0,1
199399,-90.9090909090909,4,2,2,80,0,1
199626,-90.9090909090909,4,2,4,80,0,1
200081,-90.9090909090909,4,2,5,80,0,1
200195,-90.9090909090909,4,2,4,80,0,1
200479,-90.9090909090909,4,2,4,10,0,1
200536,-90.9090909090909,4,2,4,80,0,1
201899,-90.9090909090909,4,2,5,80,0,1
202013,-90.9090909090909,4,2,4,80,0,1
205536,-90.9090909090909,4,2,5,80,0,1
205649,-90.9090909090909,4,2,4,80,0,1
207354,-90.9090909090909,4,2,5,80,0,1
207467,-90.9090909090909,4,2,4,80,0,1
207808,-100,4,2,3,70,0,0
207922,-100,4,2,4,70,0,0
209172,-100,4,2,5,70,0,0
209286,-100,4,2,4,70,0,0
210081,-100,4,2,5,70,0,0
210195,-100,4,2,4,70,0,0
210308,-100,4,2,5,70,0,0
210422,-100,4,2,4,70,0,0
210990,-100,4,2,5,70,0,0
211104,-100,4,2,4,70,0,0
211899,-100,4,2,5,70,0,0
212013,-100,4,2,4,70,0,0
212808,-100,4,2,5,70,0,0
212922,-100,4,2,4,70,0,0
213717,-100,4,2,5,70,0,0
213831,-100,4,2,4,70,0,0
214626,-100,4,2,5,70,0,0
214740,-100,4,2,4,70,0,0
215081,-100,4,2,7,60,0,0
216899,-100,4,2,8,60,0,0
217013,-100,4,2,7,60,0,0
217581,-100,4,2,8,60,0,0
217695,-100,4,2,7,60,0,0
218717,-100,4,2,7,60,0,0
220536,-100,4,2,8,60,0,0
220649,-100,4,2,7,60,0,0
221217,-100,4,2,8,60,0,0
221331,-100,4,2,7,60,0,0
224172,-100,4,2,8,60,0,0
224286,-100,4,2,7,60,0,0
225990,-100,4,2,8,60,0,0
226104,-100,4,2,7,60,0,0
227808,-100,4,2,8,60,0,0
227922,-100,4,2,7,60,0,0
228490,-100,4,2,2,60,0,0
228717,-100,4,2,4,60,0,0
229626,-100,4,2,3,50,0,0
229740,-100,4,2,5,50,0,0
231558,-100,4,2,5,50,0,0
235081,-100,4,2,5,40,0,0
236104,-100,4,2,5,30,0,0
238717,-100,4,2,5,25,0,0
239626,-100,4,2,5,20,0,0
240536,-100,4,2,10,15,0,0

[Colours]
Combo1 : 255,0,155
Combo2 : 253,152,0
Combo3 : 27,137,212
Combo4 : 58,175,0
Combo5 : 255,228,1

[HitObjects]
108,101,384,6,0,L|118:67,1,26.6666666666667,2|2,0:0|0:0,0:0:0:0:
109,57,536,6,0,L|123:143,1,80,14|0,0:0|0:0,0:0:0:0:
185,196,990,2,0,L|177:245,2,40,8|0|2,0:0|0:0|0:0,0:0:0:0:
252,139,1445,2,0,L|244:86,3,40,8|0|8|0,0:1|0:0|0:1|0:0,0:0:0:0:
244,85,1899,1,14,0:3:0:0:
309,26,2126,1,2,0:0:0:0:
309,26,2240,1,0,0:0:0:0:
309,26,2354,6,0,L|393:43,1,80,12|2,0:1|0:0,0:0:0:0:
447,105,2808,2,0,P|460:153|449:184,1,80,8|0,0:0|0:0,0:0:0:0:
420,212,3149,1,8,0:0:0:0:
420,212,3263,2,0,L|366:221,2,40,8|0|0,0:1|0:0|0:0,0:0:0:0:
471,283,3717,2,0,L|525:292,2,40,10|0|2,0:0|0:0|0:0,0:0:0:0:
401,338,4172,6,0,P|358:359|313:343,1,80,12|0,0:1|0:0,0:0:0:0:
260,297,4626,2,0,L|250:254,2,40,8|0|2,0:0|0:0|0:0,0:0:0:0:
171,292,5081,2,0,L|161:249,3,40,8|0|8|0,0:1|0:0|0:1|0:0,0:0:0:0:
158,235,5536,1,14,0:3:0:0:
216,171,5763,1,0,0:0:0:0:
216,171,5876,1,0,0:0:0:0:
216,171,5990,6,0,L|309:187,1,80,12|0,0:1|0:0,0:0:0:0:
368,136,6445,1,8,0:0:0:0:
331,55,6672,1,0,0:0:0:0:
331,55,6786,1,8,0:0:0:0:
331,55,6899,2,0,L|336:7,2,40,8|0|0,0:1|0:0|0:0,0:0:0:0:
253,96,7354,2,0,L|258:144,2,40,8|0|2,0:0|0:0|0:0,0:0:0:0:
182,43,7808,6,0,P|139:31|100:47,1,80,14|2,0:1|0:0,0:0:0:0:
43,103,8263,1,10,0:0:0:0:
43,103,8376,1,0,0:0:0:0:
43,103,8490,1,2,0:0:0:0:
100,169,8717,2,0,P|107:206|106:214,3,40,8|0|10|0,0:1|0:0|0:1|0:0,0:0:0:0:
112,220,9172,2,0,P|83:244|76:247,3,40,14|0|0|4,0:3|0:0|0:0|0:3,0:0:0:0:
38,232,9626,6,0,L|52:323,1,80,12|0,0:1|0:0,0:0:0:0:
123,359,10081,2,0,B|155:340|155:340|200:357,1,80,8|0,0:0|0:0,0:0:0:0:
234,374,10422,1,8,0:0:0:0:
234,374,10536,2,0,L|292:366,2,40,8|0|0,0:1|0:0|0:0,0:0:0:0:
251,287,10990,2,0,L|309:279,2,40,8|0|0,0:0|0:0|0:0,0:0:0:0:
180,233,11445,6,0,P|168:200|180:152,1,80,12|0,0:1|0:0,0:0:0:0:
246,103,11899,1,8,0:0:0:0:
246,103,12013,1,0,0:0:0:0:
246,103,12126,1,0,0:0:0:0:
184,39,12354,2,0,L|139:47,3,40,8|0|10|0,0:1|0:0|0:1|0:0,0:0:0:0:
135,55,12808,2,0,L|90:63,3,40,12|0|2|4,0:3|0:0|0:0|0:3,0:0:0:0:
52,51,13263,6,0,P|69:92|59:129,1,80,14|0,0:1|0:0,0:0:0:0:
7,195,13717,1,10,0:0:0:0:
76,264,13945,1,0,0:0:0:0:
76,264,14058,1,8,0:0:0:0:
76,264,14172,2,0,L|65:314,2,40,8|0|2,0:1|0:0|0:0,0:0:0:0:
149,213,14626,1,10,0:0:0:0:
149,213,14740,1,0,0:0:0:0:
149,213,14854,1,2,0:1:0:0:
207,278,15081,5,14,0:1:0:0:
292,210,15308,1,2,0:1:0:0:
356,301,15536,2,0,B|440:314|433:255|510:266,1,160,10|8,0:1|0:1,0:0:0:0:
436,169,16217,1,8,0:1:0:0:
436,169,16331,1,0,0:0:0:0:
436,169,16445,2,0,P|424:129|447:79,1,80,12|2,0:0|0:1,0:0:0:0:
490,25,16899,5,14,0:1:0:0:
349,83,17126,2,0,B|290:74|290:74|253:53|253:53|188:46,1,160,2|0,0:1|0:0,0:0:0:0:
128,104,17808,1,8,0:1:0:0:
128,104,17922,1,0,0:0:0:0:
128,104,18036,1,0,0:0:0:0:
176,177,18263,2,0,L|217:170,2,40,8|0|2,0:0|0:0|0:1,0:0:0:0:
109,234,18717,5,14,0:1:0:0:
161,349,18945,1,2,0:1:0:0:
271,288,19172,2,0,B|357:273|338:339|440:321,1,160,10|8,0:1|0:1,0:0:0:0:
502,265,19854,1,8,0:1:0:0:
502,265,19967,1,0,0:0:0:0:
502,265,20081,2,0,L|487:181,1,80,12|2,0:0|0:1,0:0:0:0:
421,127,20536,5,14,0:1:0:0:
479,6,20763,2,0,P|434:34|325:29,1,160,2|0,0:1|0:0,0:0:0:0:
242,21,21445,2,0,L|250:73,2,40,8|0|2,0:1|0:0|0:1,0:0:0:0:
161,75,21899,2,0,L|155:36,2,40,10|0|2,0:1|0:0|0:1,0:0:0:0:
123,177,22354,6,0,B|180:183|180:183|217:204|217:204|276:213,1,160,14|8,0:0|0:0,0:0:0:0:
313,189,22922,2,0,L|304:137,1,40,0|2,0:0|0:0,0:0:0:0:
373,92,23263,2,0,L|382:40,2,40,8|0|8,0:1|0:0|0:1,0:0:0:0:
431,170,23717,1,14,0:3:0:0:
431,170,23831,1,0,0:0:0:0:
431,170,23945,2,0,P|453:181|478:175,1,40,2|0,0:0|0:0,0:0:0:0:
510,166,24172,6,0,L|497:259,1,80,12|2,0:1|0:0,0:0:0:0:
459,323,24626,1,10,0:0:0:0:
380,283,24854,1,0,0:0:0:0:
380,283,24967,1,8,0:0:0:0:
380,283,25081,2,0,L|333:275,2,40,8|0|0,0:1|0:0|0:0,0:0:0:0:
362,369,25536,2,0,L|315:361,1,40,8|0,0:0|0:0,0:0:0:0:
278,355,25763,5,2,0:1:0:0:
211,297,25990,1,14,0:1:0:0:
147,357,26217,1,2,0:1:0:0:
47,282,26445,6,0,B|31:197|67:206|47:123,2,160,10|8|12,0:1|0:1|0:0,0:0:0:0:
128,245,27581,1,2,0:1:0:0:
183,313,27808,5,14,0:1:0:0:
295,246,28036,2,0,P|370:252|444:194,1,160,2|0,0:1|0:0,0:0:0:0:
477,127,28717,2,0,L|484:70,2,40,8|0|0,0:1|0:0|0:0,0:0:0:0:
392,100,29172,2,0,L|399:43,2,40,8|0|2,0:0|0:0|0:1,0:0:0:0:
316,144,29626,5,14,0:1:0:0:
257,77,29854,1,2,0:1:0:0:
185,127,30081,2,0,B|128:133|128:133|91:154|91:154|32:163,1,160,10|8,0:1|0:1,0:0:0:0:
8,253,30763,1,8,0:1:0:0:
8,253,30876,1,0,0:0:0:0:
8,253,30990,2,0,L|23:348,1,80,12|2,0:0|0:1,0:0:0:0:
98,374,31445,5,14,0:1:0:0:
156,308,31672,1,2,0:1:0:0:
227,359,31899,2,0,P|308:373|381:330,1,160,10|8,0:1|0:1,0:0:0:0:
401,303,32467,2,0,L|392:253,1,40
452,197,32808,2,0,L|461:147,2,40,8|0|2,0:0|0:0|0:1,0:0:0:0:
365,179,33263,6,0,L|379:97,1,80,14|2,0:1|0:1,0:0:0:0:
330,39,33717,1,8,0:0:0:0:
330,39,33831,1,0,0:0:0:0:
330,39,33945,1,0,0:0:0:0:
257,88,34172,2,0,P|230:96|211:95,3,40,8|0|8|0,0:1|0:0|0:1|0:0,0:0:0:0:
205,99,34626,2,0,P|184:79|175:62,3,40,12|0|2|0,0:0|0:0|0:1|0:0,0:0:0:0:
180,57,35081,6,0,L|87:69,1,80,14|2,0:1|0:1,0:0:0:0:
34,125,35536,1,8,0:0:0:0:
109,188,35763,1,2,0:1:0:0:
109,188,35876,1,0,0:0:0:0:
109,188,35990,2,0,L|116:234,2,40,8|0|2,0:1|0:0|0:1,0:0:0:0:
195,205,36445,2,0,L|202:251,2,40,10|0|0,0:1|0:0|0:0,0:0:0:0:
257,142,36899,6,0,P|294:130|341:149,1,80,14|2,0:1|0:1,0:0:0:0:
409,203,37354,1,10,0:1:0:0:
409,203,37467,1,0,0:0:0:0:
409,203,37581,1,0,0:0:0:0:
343,261,37808,2,0,L|338:300,3,40,8|0|8|0,0:1|0:0|0:1|0:0,0:0:0:0:
329,308,38263,2,0,L|324:347,3,40,12|0|2|0,0:0|0:0|0:1|0:0,0:0:0:0:
317,356,38717,5,14,0:1:0:0:
242,308,38945,2,0,P|172:298|96:366,1,160,2|0,0:1|0:0,0:0:0:0:
30,300,39626,1,8,0:1:0:0:
30,300,39740,1,0,0:0:0:0:
30,300,39854,1,0,0:0:0:0:
78,226,40081,2,0,L|84:183,1,40,10|0,0:1|0:0,0:0:0:0:
66,145,40308,1,2,0:1:0:0:
119,74,40536,5,14,0:1:0:0:
196,115,40763,1,2,0:1:0:0:
258,52,40990,2,0,L|265:6,2,40,8|0|0,0:0|0:0|0:0,0:0:0:0:
325,108,41445,2,0,L|331:147,3,40,8|0|8|0,0:1|0:0|0:1|0:0,0:0:0:0:
327,159,41899,2,0,L|333:198,3,40,12|0|2|0,0:0|0:0|0:1|0:0,0:0:0:0:
340,208,42354,6,0,P|378:225|430:213,1,80,14|2,0:1|0:1,0:0:0:0:
490,176,42808,1,8,0:0:0:0:
498,271,43036,1,0,0:0:0:0:
498,271,43149,1,8,0:0:0:0:
498,271,43263,2,0,L|492:310,2,40,8|0|0,0:1|0:0|0:0,0:0:0:0:
404,315,43717,2,0,L|411:367,2,40,8|0|2,0:0|0:0|0:1,0:0:0:0:
329,267,44172,6,0,P|284:252|247:262,1,80,14|0,0:1|0:0,0:0:0:0:
191,321,44626,1,8,0:0:0:0:
191,321,44740,1,0,0:0:0:0:
191,321,44854,1,2,0:1:0:0:
125,262,45081,2,0,L|114:210,3,40,8|0|8|0,0:1|0:0|0:1|0:0,0:0:0:0:
114,211,45536,2,0,L|125:159,3,40,14|0|0|0,0:1|0:0|0:0|0:0,0:0:0:0:
125,161,45990,6,0,P|167:170|210:153,1,80,12|2,0:1|0:1,0:0:0:0:
256,89,46445,1,8,0:0:0:0:
342,134,46672,1,0,0:0:0:0:
342,134,46786,1,2,0:0:0:0:
342,134,46899,2,0,L|333:180,2,40,10|0|0,0:1|0:0|0:0,0:0:0:0:
401,68,47354,2,0,L|393:28,2,40,10|0|0,0:1|0:0|0:0,0:0:0:0:
470,121,47808,6,0,P|485:156|474:200,1,80,14|2,0:1|0:1,0:0:0:0:
412,256,48263,1,10,0:1:0:0:
412,256,48376,1,0,0:0:0:0:
412,256,48490,2,0,B|353:265|353:265|316:286|316:286|251:293,1,160,2|10,0:0|0:0,0:0:0:0:
186,342,49172,1,14,0:0:0:0:
124,278,49399,6,0,L|149:117,1,160,2|2,0:3|0:1,0:0:0:0:
78,66,50081,1,10,0:1:0:0:
14,125,50308,1,0,0:0:0:0:
14,125,50422,1,2,0:0:0:0:
14,125,50536,2,0,L|26:182,2,40,8|0|2,0:1|0:0|0:0,0:0:0:0:
78,66,50990,2,0,L|86:26,2,40,10|0|0,0:1|0:0|0:0,0:0:0:0:
148,119,51445,6,0,P|180:133|229:128,1,80,14|0,0:1|0:0,0:0:0:0:
288,70,51899,1,8,0:0:0:0:
288,70,52013,1,0,0:0:0:0:
288,70,52126,1,2,0:3:0:0:
355,126,52354,2,0,L|347:182,3,40,8|0|8|0,0:1|0:0|0:1|0:0,0:0:0:0:
348,177,52808,2,0,L|356:233,3,40,14|0|0|0,0:1|0:0|0:0|0:0,0:0:0:0:
356,229,53263,6,0,P|303:225|281:238,1,80,14|0,0:0|0:0,0:0:0:0:
237,316,53717,1,8,0:0:0:0:
237,316,53831,1,2,0:0:0:0:
237,316,53945,1,6,0:1:0:0:
166,263,54172,2,0,L|174:172,1,80,8|0,0:1|0:0,0:0:0:0:
178,142,54513,1,2,0:0:0:0:
178,142,54626,2,0,P|135:154|95:135,1,80,10|2,0:1|0:1,0:0:0:0:
17,119,55081,6,0,L|31:200,1,80,14|2,0:3|0:1,0:0:0:0:
11,289,55536,1,8,0:0:0:0:
11,289,55649,1,2,0:0:0:0:
11,289,55763,1,2,0:0:0:0:
94,316,55990,2,0,P|133:293|213:303,1,120,8|2,0:1|0:0,0:0:0:0:
242,322,56445,2,0,L|256:234,1,80,14|2,0:3|0:1,0:0:0:0:
204,170,56899,6,0,L|187:51,1,120,14|2,0:3|0:0,0:0:0:0:
218,19,57354,1,10,0:1:0:0:
299,73,57581,1,2,0:0:0:0:
299,73,57695,1,2,0:0:0:0:
299,73,57808,2,0,P|336:93|424:76,2,120,8|2|2,0:1|0:0|0:0,0:0:0:0:
218,19,58717,6,0,L|135:32,1,80,14|0,0:1|0:0,0:0:0:0:
78,95,59172,2,0,L|18:85,2,40,8|2|2,0:0|0:0|0:1,0:0:0:0:
134,161,59626,2,0,P|143:197|143:218,3,40,8|0|10|2,0:1|0:0|0:1|0:0,0:0:0:0:
144,211,60081,2,0,P|135:247|135:268,3,40,14|0|2|0,0:1|0:0|0:1|0:0,0:0:0:0:
137,261,60536,6,0,L|14:236,2,120,14|2|2,0:3|0:0|0:1,0:0:0:0:
199,323,61445,2,0,P|239:337|281:325,1,80,10|2,0:1|0:1,0:0:0:0:
340,270,61899,1,10,0:1:0:0:
403,331,62126,1,2,0:1:0:0:
474,278,62354,6,0,L|492:188,1,80,14|2,0:0|0:0,0:0:0:0:
453,119,62808,2,0,L|445:69,2,40,8|0|2,0:0|0:0|0:1,0:0:0:0:
382,171,63263,2,0,P|353:179|336:177,3,40,10|0|10|2,0:1|0:0|0:1|0:0,0:0:0:0:
332,173,63717,2,0,P|303:165|286:167,3,40,14|0|0|0,0:1|0:0|0:0|0:0,0:0:0:0:
284,169,64172,6,0,P|297:122|283:83,1,80,14|2,0:0|0:1,0:0:0:0:
227,29,64626,2,0,L|178:23,1,40,10|2,0:1|0:0,0:0:0:0:
152,51,64854,2,0,L|103:57,1,40,2|2,0:1|0:0,0:0:0:0:
70,43,65081,2,0,B|84:79|84:79|73:119,1,80,8|0,0:1|0:0,0:0:0:0:
50,158,65422,1,2,0:0:0:0:
50,158,65536,1,8,0:0:0:0:
141,307,65990,6,0,L|271:330,1,120,12|2,0:1|0:0,0:0:0:0:
295,302,66445,1,8,0:0:0:0:
257,222,66672,1,2,0:1:0:0:
336,179,66899,1,8,0:1:0:0:
336,179,67013,1,0,0:0:0:0:
336,179,67126,2,0,L|383:173,2,40,10|2|14,0:1|0:0|0:1,0:0:0:0:
259,135,67581,1,2,0:1:0:0:
334,89,67808,6,0,P|344:44|325:6,1,80,14|0,0:3|0:0,0:0:0:0:
243,3,68263,1,8,0:0:0:0:
184,68,68490,1,2,0:1:0:0:
184,68,68604,1,2,0:0:0:0:
184,68,68717,2,0,L|197:151,1,80,8|0,0:1|0:0,0:0:0:0:
145,219,69172,1,10,0:0:0:0:
69,174,69399,5,2,0:1:0:0:
3,282,69626,2,0,P|0:325|20:362,1,80,14|2,0:0|0:1,0:0:0:0:
89,307,70081,6,0,B|173:305|158:362|268:348,1,160,10|10,0:1|0:0,0:0:0:0:
319,305,70763,1,8,0:1:0:0:
319,305,70876,1,2,0:0:0:0:
319,305,70990,2,0,L|306:216,1,80,12|2,0:0|0:1,0:0:0:0:
363,157,71445,5,14,0:3:0:0:
432,210,71672,1,2,0:1:0:0:
491,145,71899,2,0,P|498:110|494:97,1,40,10|2,0:1|0:0,0:0:0:0:
475,68,72126,1,2,0:0:0:0:
403,16,72354,2,0,L|315:28,1,80,8|0,0:1|0:0,0:0:0:0:
286,50,72695,1,2,0:0:0:0:
286,50,72808,2,0,P|278:94|297:135,1,80,8|2,0:0|0:1,0:0:0:0:
343,196,73263,6,0,B|331:254|331:254|309:279|309:279|293:355,1,160,14|10,0:1|0:1,0:0:0:0:
259,371,73831,2,0,L|216:362,1,40,2|0,0:0|0:0,0:0:0:0:
153,305,74172,2,0,L|110:314,3,40,8|0|8|2,0:1|0:0|0:1|0:0,0:0:0:0:
103,316,74626,2,0,L|60:325,3,40,14|0|2|0,0:0|0:0|0:1|0:0,0:0:0:0:
53,327,75081,6,0,P|42:283|60:240,1,80,14|2,0:3|0:1,0:0:0:0:
123,198,75536,2,0,L|114:151,1,40,8|2,0:0|0:0,0:0:0:0:
138,121,75763,2,0,L|129:74,1,40,2|2,0:0|0:0,0:0:0:0:
150,42,75990,2,0,P|189:33|233:53,1,80,8|2,0:1|0:1,0:0:0:0:
251,82,76331,1,2,0:0:0:0:
251,82,76445,1,10,0:3:0:0:
409,5,76899,6,0,L|388:98,1,80,14|2,0:1|0:1,0:0:0:0:
327,143,77354,1,8,0:0:0:0:
327,143,77467,1,2,0:0:0:0:
327,143,77581,1,2,0:0:0:0:
393,215,77808,1,8,0:1:0:0:
393,215,77922,1,0,0:0:0:0:
393,215,78036,2,0,L|444:209,2,40,10|2|14,0:0|0:0|0:0,0:0:0:0:
336,282,78490,1,2,0:1:0:0:
336,282,78604,1,2,0:0:0:0:
336,282,78717,6,0,L|253:268,1,80,14|2,0:3|0:1,0:0:0:0:
216,285,79058,2,0,P|227:236|209:199,1,80,2|2,0:0|0:0,0:0:0:0:
148,153,79513,1,2,0:0:0:0:
148,153,79626,2,0,L|96:162,3,40,8|0|2|2,0:1|0:0|0:1|0:0,0:0:0:0:
98,162,80081,2,0,L|112:74,1,80,10|2,0:1|0:1,0:0:0:0:
180,28,80536,6,0,P|217:21|261:45,1,80,14|0,0:3|0:0,0:0:0:0:
302,123,80990,1,8,0:0:0:0:
302,123,81104,1,0,0:0:0:0:
302,123,81217,1,2,0:1:0:0:
387,100,81445,2,0,L|443:89,3,40,8|0|8|0,0:1|0:0|0:1|0:0,0:0:0:0:
437,90,81899,2,0,L|426:184,1,80,12|0,0:0|0:0,0:0:0:0:
369,235,82354,6,0,P|321:220|250:258,1,120,14|2,0:0|0:0,0:0:0:0:
206,316,82922,1,2,0:0:0:0:
206,316,83036,1,6,0:1:0:0:
138,260,83263,2,0,L|125:168,1,80,8|2,0:1|0:1,0:0:0:0:
98,154,83604,1,2,0:0:0:0:
98,154,83717,1,10,0:1:0:0:
144,78,83945,1,2,0:1:0:0:
221,118,84172,6,0,P|267:124|342:94,1,120,14|2,0:3|0:0,0:0:0:0:
383,25,84740,1,2,0:0:0:0:
383,25,84854,1,2,0:1:0:0:
462,62,85081,2,0,L|455:115,3,40,8|0|8|2,0:1|0:0|0:1|0:0,0:0:0:0:
457,112,85536,2,0,L|473:199,1,80,12|0,0:0|0:0,0:0:0:0:
406,250,85990,6,0,L|275:229,1,120,14|2,0:0|0:0,0:0:0:0:
243,224,86445,1,8,0:0:0:0:
190,154,86672,1,2,0:3:0:0:
190,154,86786,1,2,0:0:0:0:
190,154,86899,2,0,P|132:143|109:155,1,80,8|2,0:1|0:1,0:0:0:0:
88,186,87240,1,2,0:0:0:0:
88,186,87354,2,0,L|99:272,1,80,10|2,0:1|0:0,0:0:0:0:
157,330,87808,6,0,P|190:343|246:325,1,80,14|0,0:1|0:0,0:0:0:0:
296,273,88263,2,0,L|338:279,2,40,8|2|2,0:0|0:0|0:1,0:0:0:0:
239,205,88717,2,0,L|233:163,3,40,8|0|8|2,0:1|0:0|0:1|0:0,0:0:0:0:
232,154,89172,1,14,0:1:0:0:
300,99,89399,1,0,0:0:0:0:
300,99,89513,1,0,0:0:0:0:
300,99,89626,6,0,L|384:113,1,80,14|2,0:3|0:1,0:0:0:0:
438,177,90081,2,0,P|441:213|434:226,3,40,8|2|2|0,0:0|0:0|0:0|0:0,0:0:0:0:
436,224,90536,1,0,0:0:0:0:
385,295,90763,1,2,0:1:0:0:
385,295,90876,1,2,0:0:0:0:
385,295,90990,2,0,L|297:306,1,80,10|2,0:1|0:1,0:0:0:0:
245,240,91445,6,0,L|268:98,1,120,14|2,0:0|0:0,0:0:0:0:
244,82,91899,1,10,0:1:0:0:
168,36,92126,1,2,0:0:0:0:
168,36,92240,1,2,0:0:0:0:
168,36,92354,2,0,P|119:30|78:55,1,80,2|8,0:0|0:1,0:0:0:0:
65,77,92695,2,0,L|74:123,1,40,2|12,0:0|0:0,0:0:0:0:
139,188,93036,1,2,0:1:0:0:
139,188,93149,1,0,0:0:0:0:
139,188,93263,6,0,B|196:194|196:194|233:215|233:215|292:224,1,160,14|10,0:3|0:1,0:0:0:0:
328,198,93831,2,0,L|336:152,2,40,2|2|2,0:0|0:0|0:0,0:0:0:0:
435,337,94513,1,2,0:0:0:0:
435,337,94626,2,0,P|470:344|511:327,1,80,8|2,0:0|0:0,0:0:0:0:
465,251,95081,6,0,L|484:121,1,120,14|2,0:1|0:0,0:0:0:0:
459,93,95536,1,8,0:0:0:0:
381,135,95763,2,0,P|340:146|261:113,1,120,2|0,0:0|0:0,0:0:0:0:
245,83,96217,1,8,0:1:0:0:
171,34,96445,2,0,L|120:40,3,40,12|0|0|2,0:0|0:0|0:0|0:0,0:0:0:0:
120,34,96899,6,0,L|130:118,1,80,14|0,0:0|0:0,0:0:0:0:
107,151,97240,1,2,0:0:0:0:
50,218,97467,1,2,0:0:0:0:
111,281,97695,2,0,P|152:269|250:321,1,160,2|2,0:0|0:0,0:0:0:0:
252,365,98263,2,0,L|348:348,1,80,10|2,0:0|0:0,0:0:0:0:
402,300,98717,6,0,P|421:252|403:181,1,120,14|2,0:0|0:0,0:0:0:0:
353,116,99286,1,2,0:0:0:0:
284,171,99513,1,0,0:0:0:0:
284,171,99626,2,0,L|164:156,1,120,2|2,0:0|0:0,0:0:0:0:
133,124,100081,1,14,0:0:0:0:
71,186,100308,1,2,0:0:0:0:
11,120,100536,6,0,P|0:77|33:9,1,120,14|2,0:0|0:0,0:0:0:0:
117,24,101104,2,0,L|161:14,1,40,2|2,0:0|0:0,0:0:0:0:
218,77,101445,2,0,L|204:163,1,80,0|2,0:0|0:0,0:0:0:0:
173,186,101786,1,2,0:0:0:0:
173,186,101899,1,10,0:0:0:0:
228,254,102126,1,2,0:0:0:0:
303,208,102354,6,0,B|394:198|376:258|480:243,1,160,14|0,0:0|0:0,0:0:0:0:
509,175,103036,1,10,0:0:0:0:
337,37,103604,2,0,L|213:57,1,120,2|0,0:0|0:0,0:0:0:0:
138,18,104172,6,0,P|106:67|125:178,1,160,6|0,0:0|0:0,0:0:0:0:
149,192,104740,2,0,L|200:182,2,40,2|10|2,0:0|0:0|0:0,0:0:0:0:
15,306,105422,1,2,0:0:0:0:
15,306,105536,2,0,L|113:326,1,80,0|2,0:0|0:0,0:0:0:0:
178,298,105990,6,0,B|265:281|252:341|334:333,1,160,6|0,0:0|0:0,0:0:0:0:
366,310,106558,2,0,L|358:266,1,40,2|10,0:0|0:0,0:0:0:0:
472,135,107126,1,10,0:0:0:0:
472,135,107354,2,0,L|485:41,1,80,6|2,0:0|0:0,0:0:0:0:
408,9,107808,6,0,P|373:39|277:36,1,120,6|2,0:0|0:0,0:0:0:0:
234,104,108376,2,0,P|187:99|144:123,1,80,2|2,0:0|0:0,0:0:0:0:
63,261,109058,1,2,0:0:0:0:
63,261,109172,2,0,L|75:346,1,80,10|2,0:0|0:0,0:0:0:0:
161,349,109626,6,0,L|142:218,1,120,6|2,0:0|0:0,0:0:0:0:
206,168,110195,2,0,L|216:116,2,40,2|10|2,0:0|0:0|0:0,0:0:0:0:
318,303,110876,1,0,0:0:0:0:
318,303,110990,2,0,P|357:311|397:291,1,80,4|0,0:0|0:0,0:0:0:0:
454,232,111445,6,0,L|469:103,1,120,6|2,0:0|0:0,0:0:0:0:
400,55,112013,2,0,L|392:1,1,40,2|14,0:0|0:1,0:0:0:0:
199,118,112695,6,0,P|177:155|189:245,1,120,2|2,0:0|0:0,0:0:0:0:
213,311,113263,2,0,L|90:290,1,120,6|2,0:0|0:0,0:0:0:0:
38,222,113831,2,0,L|45:180,1,40,2|10,0:0|0:0,0:0:0:0:
210,37,114513,1,2,0:0:0:0:
210,37,114626,2,0,B|223:52|223:52|305:40,1,80,6|2,0:0|0:0,0:0:0:0:
368,25,115081,6,0,L|352:167,1,120,6|2,0:0|0:0,0:0:0:0:
299,213,115649,2,0,L|306:255,2,40,2|10|2,0:0|0:0|0:0,0:0:0:0:
470,174,116331,2,0,P|484:226|468:297,1,120,2|2,0:0|0:0,0:0:0:0:
256,192,116899,12,0,120081,0:0:0:0:
312,272,120536,6,0,L|293:146,1,120,14|2,0:0|0:0,0:0:0:0:
354,88,121104,1,2,0:0:0:0:
354,88,121217,2,0,L|362:36,1,40,2|10,0:0|0:0,0:0:0:0:
324,21,121445,2,0,P|277:14|240:38,1,80,10|8,0:0|0:1,0:0:0:0:
224,64,121786,1,2,0:0:0:0:
224,64,121899,1,12,0:0:0:0:
166,130,122126,1,0,0:0:0:0:
234,185,122354,6,0,L|362:171,1,120,14|0,0:0|0:0,0:0:0:0:
421,115,122922,1,2,0:0:0:0:
421,115,123036,1,2,0:0:0:0:
421,115,123149,2,0,P|474:110|496:203,1,160,10|2,0:0|0:0,0:0:0:0:
466,225,123717,2,0,P|442:271|449:310,1,80,10|2,0:0|0:0,0:0:0:0:
380,358,124172,6,0,B|362:368|362:368|255:362,1,120,12|2,0:1|0:0,0:0:0:0:
192,325,124740,1,2,0:0:0:0:
192,325,124854,1,2,0:0:0:0:
192,325,124967,2,0,B|160:227|218:243|186:152,1,160,8|2,0:0|0:0,0:0:0:0:
182,124,125536,2,0,P|228:140|274:118,1,80,12|0,0:0|0:0,0:0:0:0:
308,60,125990,6,0,L|394:70,1,80,14|0,0:0|0:0,0:0:0:0:
413,105,126332,1,2,0:0:0:0:
354,170,126559,1,2,0:0:0:0:
413,234,126786,2,0,P|429:277|376:372,1,160,10|2,0:0|0:0,0:0:0:0:
340,348,127354,2,0,L|256:338,1,80,10|0,0:0|0:0,0:0:0:0:
199,275,127808,6,0,L|181:146,1,120,14|2,0:0|0:0,0:0:0:0:
120,93,128376,1,2,0:0:0:0:
120,93,128490,1,2,0:0:0:0:
120,93,128604,2,0,P|67:83|21:167,1,160,8|2,0:0|0:0,0:0:0:0:
38,204,129172,2,0,L|129:216,1,80,14|0,0:0|0:0,0:0:0:0:
182,156,129626,6,0,L|307:142,1,120,14|2,0:0|0:0,0:0:0:0:
370,198,130195,2,0,P|373:227|361:257,1,40,2|2,0:0|0:0,0:0:0:0:
316,307,130536,2,0,L|237:295,1,80,8|0,0:1|0:0,0:0:0:0:
198,309,130876,1,2,0:0:0:0:
198,309,130990,2,0,P|209:258|196:230,1,80,8|0,0:0|0:0,0:0:0:0:
156,156,131445,6,0,L|27:178,1,120,14|2,0:0|0:0,0:0:0:0:
1,256,132013,2,0,L|10:305,1,40,2|2,0:0|0:0,0:0:0:0:
73,355,132354,2,0,P|112:368|158:345,1,80,8|8,0:1|0:1,0:0:0:0:
177,323,132695,1,2,0:0:0:0:
177,323,132808,2,0,L|193:242,1,80,12|0,0:0|0:0,0:0:0:0:
265,195,133263,6,0,P|295:227|381:233,1,120,14|0,0:0|0:0,0:0:0:0:
449,198,133831,1,2,0:0:0:0:
449,198,133945,1,2,0:0:0:0:
449,198,134058,2,0,L|429:37,1,160,10|2,0:0|0:0,0:0:0:0:
396,9,134626,1,8,0:0:0:0:
331,69,134854,1,2,0:1:0:0:
222,0,135081,5,14,0:1:0:0:
153,55,135308,2,0,L|162:108,1,40,2|0,0:1|0:0,0:0:0:0:
190,126,135536,1,10,0:1:0:0:
190,126,135649,2,0,L|176:212,1,80,2|8,0:0|0:0,0:0:0:0:
148,238,135990,1,8,0:1:0:0:
193,313,136217,1,0,0:0:0:0:
267,265,136445,2,0,P|302:262|347:286,1,80,14|2,0:0|0:1,0:0:0:0:
392,352,136899,5,14,0:3:0:0:
469,311,137126,1,2,0:1:0:0:
469,311,137240,2,0,L|459:259,1,40,2|8,0:0|0:0,0:0:0:0:
485,234,137467,2,0,L|475:182,1,40,2|8,0:0|0:1,0:0:0:0:
493,153,137695,2,0,B|456:167|456:167|407:147,1,80,10|8,0:0|0:0,0:0:0:0:
355,90,138149,1,2,0:0:0:0:
355,90,138263,2,0,L|371:0,1,80,8|2,0:0|0:1,0:0:0:0:
276,136,138717,5,14,0:3:0:0:
209,77,138945,1,2,0:1:0:0:
209,77,139058,1,0,0:0:0:0:
209,77,139172,2,0,P|166:73|131:93,1,80,10|10,0:1|0:0,0:0:0:0:
117,130,139513,2,0,L|128:173,1,40,10|10,0:0|0:0,0:0:0:0:
203,213,139854,1,8,0:1:0:0:
158,288,140081,2,0,L|109:277,3,40,12|0|2|0,0:0|0:0|0:1|0:0,0:0:0:0:
109,278,140536,6,0,P|70:301|35:299,1,80,14|2,0:3|0:1,0:0:0:0:
0,275,140876,2,0,L|17:192,1,80,2|2,0:0|0:0,0:0:0:0:
3,154,141217,1,14,0:1:0:0:
55,83,141445,1,8,0:1:0:0:
134,140,141672,1,2,0:1:0:0:
134,140,141786,1,2,0:0:0:0:
134,140,141899,2,0,P|170:144|211:125,1,80,10|2,0:1|0:1,0:0:0:0:
318,37,142354,6,0,L|298:168,1,120,14|2,0:0|0:0,0:0:0:0:
354,231,142922,1,2,0:0:0:0:
354,231,143036,1,10,0:0:0:0:
433,193,143263,2,0,P|450:154|442:104,1,80,8|8,0:1|0:1,0:0:0:0:
433,80,143604,1,2,0:0:0:0:
433,80,143717,2,0,L|346:65,1,80,12|0,0:0|0:0,0:0:0:0:
286,10,144172,6,0,L|165:27,1,120,14|2,0:0|0:0,0:0:0:0:
102,85,144740,1,2,0:0:0:0:
102,85,144854,1,10,0:0:0:0:
102,85,144967,2,0,P|81:141|120:232,1,160,10|2,0:0|0:0,0:0:0:0:
160,219,145536,2,0,L|255:233,1,80,8|2,0:0|0:1,0:0:0:0:
307,175,145990,5,14,0:1:0:0:
363,255,146217,1,2,0:1:0:0:
363,255,146331,1,0,0:0:0:0:
363,255,146445,2,0,P|373:301|352:350,1,80,10|8,0:1|0:1,0:0:0:0:
287,375,146899,2,0,L|244:367,3,40,8|8|8|0,0:1|0:0|0:1|0:0,0:0:0:0:
238,366,147354,2,0,L|225:270,1,80,12|2,0:0|0:1,0:0:0:0:
157,233,147808,5,14,0:3:0:0:
205,159,148036,2,0,B|297:142|267:187|376:167,1,160,2|10,0:1|0:0,0:0:0:0:
440,128,148717,2,0,P|447:96|443:77,1,40,8|8,0:1|0:0,0:0:0:0:
453,45,148945,2,0,P|428:22|410:16,1,40,0|2,0:0|0:0,0:0:0:0:
379,31,149172,2,0,L|293:43,1,80,8|2,0:0|0:1,0:0:0:0:
241,108,149626,5,14,0:0:0:0:
310,177,149854,1,2,0:1:0:0:
310,177,149967,1,2,0:0:0:0:
310,177,150081,2,0,P|322:212|307:256,1,80,10|0,0:1|0:0,0:0:0:0:
251,318,150536,2,0,L|170:307,1,80,10|8,0:0|0:1,0:0:0:0:
141,275,150876,1,2,0:0:0:0:
141,275,150990,1,14,0:0:0:0:
181,196,151217,1,2,0:1:0:0:
181,196,151331,1,0,0:0:0:0:
181,196,151445,6,0,P|193:138|178:109,1,80,14|2,0:3|0:1,0:0:0:0:
121,61,151899,1,10,0:1:0:0:
121,61,152013,2,0,L|67:72,2,40,2|2|2,0:0|0:0|0:0,0:0:0:0:
289,9,152695,1,2,0:0:0:0:
289,9,152808,2,0,L|387:22,1,80,8|2,0:0|0:1,0:0:0:0:
422,89,153263,6,0,P|434:131|420:168,1,80,14|2,0:1|0:1,0:0:0:0:
388,191,153604,1,2,0:0:0:0:
388,191,153717,1,8,0:0:0:0:
304,220,153945,1,2,0:0:0:0:
258,144,154172,2,0,L|272:58,1,80,8|8,0:1|0:1,0:0:0:0:
249,32,154513,1,2,0:0:0:0:
249,32,154626,2,0,P|205:15|163:47,1,80,12|2,0:0|0:1,0:0:0:0:
123,97,155081,6,0,L|41:85,1,80,14|2,0:3|0:1,0:0:0:0:
16,120,155422,2,0,B|4:158|4:158|26:209,1,80,2|2,0:0|0:0,0:0:0:0:
73,270,155876,1,0,0:0:0:0:
73,270,155990,2,0,L|128:258,3,40,8|0|2|2,0:1|0:0|0:1|0:0,0:0:0:0:
125,259,156445,2,0,L|111:363,1,80,10|0,0:3|0:0,0:0:0:0:
201,350,156899,6,0,L|211:270,1,80,14|2,0:3|0:1,0:0:0:0:
217,226,157240,2,0,P|265:238|301:222,1,80,2|2,0:0|0:0,0:0:0:0:
322,196,157581,1,0,0:0:0:0:
360,116,157808,2,0,L|353:69,1,40,10|0,0:0|0:0,0:0:0:0:
310,65,158036,2,0,L|303:18,1,40,8|2,0:1|0:0,0:0:0:0:
265,4,158263,2,0,L|180:17,1,80,14|2,0:0|0:1,0:0:0:0:
119,73,158717,6,0,P|95:122|115:206,1,120,14|2,0:3|0:0,0:0:0:0:
174,244,159286,1,2,0:0:0:0:
174,244,159399,1,2,0:0:0:0:
250,199,159626,2,0,L|237:119,1,80,8|0,0:1|0:0,0:0:0:0:
262,83,159967,1,2,0:0:0:0:
262,83,160081,2,0,P|306:71|356:93,1,80,10|2,0:1|0:1,0:0:0:0:
414,123,160536,6,0,L|395:258,1,120,14|2,0:1|0:0,0:0:0:0:
382,328,161104,1,2,0:0:0:0:
382,328,161217,1,2,0:0:0:0:
309,277,161445,2,0,P|255:266|220:286,1,80,8|8,0:1|0:1,0:0:0:0:
197,298,161786,1,2,0:0:0:0:
197,298,161899,2,0,L|180:207,1,80,12|2,0:0|0:1,0:0:0:0:
230,145,162354,5,14,0:3:0:0:
305,190,162581,2,0,P|345:210|402:204,1,80,2|8,0:1|0:0,0:0:0:0:
419,191,162922,2,0,L|430:142,1,40,2|2,0:0|0:0,0:0:0:0:
461,123,163149,2,0,L|448:38,1,80,2|0,0:0|0:0,0:0:0:0:
368,6,163604,1,2,0:0:0:0:
368,6,163717,2,0,L|283:19,1,80,10|2,0:0|0:1,0:0:0:0:
228,82,164172,6,0,P|216:124|231:172,1,80,14|0,0:1|0:0,0:0:0:0:
282,223,164626,2,0,L|333:233,2,40,8|2|2,0:0|0:0|0:3,0:0:0:0:
219,284,165081,2,0,L|168:294,3,40,8|0|8|0,0:1|0:0|0:1|0:0,0:0:0:0:
169,295,165536,1,14,0:3:0:0:
100,240,165763,1,0,0:0:0:0:
100,240,165876,1,2,0:0:0:0:
100,240,165990,6,0,L|123:110,1,120,14|2,0:1|0:0,0:0:0:0:
168,47,166558,1,2,0:0:0:0:
237,101,166786,2,0,B|325:110|315:57|395:70,1,160,2|2,0:0|0:0,0:0:0:0:
426,94,167354,2,0,P|438:138|416:185,1,80,10|2,0:3|0:0,0:0:0:0:
369,235,167808,6,0,L|288:221,1,80,14|2,0:3|0:1,0:0:0:0:
221,276,168263,2,0,L|174:284,2,40,10|0|2,0:1|0:0|0:0,0:0:0:0:
270,348,168717,2,0,L|317:356,3,40,10|0|8|0,0:0|0:0|0:1|0:0,0:0:0:0:
321,350,169172,2,0,L|368:358,3,40,12|0|2|0,0:0|0:0|0:1|0:0,0:0:0:0:
373,352,169626,6,0,P|392:308|377:266,1,80,14|2,0:3|0:1,0:0:0:0:
354,246,169967,1,2,0:0:0:0:
284,191,170195,1,2,0:0:0:0:
284,191,170308,2,0,L|239:197,1,40,6|0,0:1|0:0,0:0:0:0:
210,225,170536,2,0,L|126:215,1,80,8|0,0:1|0:0,0:0:0:0:
101,189,170876,1,2,0:0:0:0:
101,189,170990,2,0,P|110:235|91:274,1,80,10|0,0:1|0:0,0:0:0:0:
65,346,171445,6,0,L|202:332,1,120,14|2,0:3|0:0,0:0:0:0:
247,272,172013,1,2,0:0:0:0:
247,272,172126,1,2,0:3:0:0:
195,200,172354,2,0,P|184:154|195:120,1,80,8|8,0:1|0:1,0:0:0:0:
223,91,172695,1,2,0:0:0:0:
223,91,172808,2,0,L|307:100,1,80,14|0,0:3|0:0,0:0:0:0:
372,46,173263,6,0,P|416:35|455:106,1,120,14|2,0:3|0:0,0:0:0:0:
416,164,173831,1,2,0:0:0:0:
416,164,173945,2,0,L|428:219,1,40,2|2,0:0|0:0,0:0:0:0:
454,235,174172,2,0,L|441:318,1,80,8|0,0:1|0:0,0:0:0:0:
455,356,174513,1,2,0:0:0:0:
455,356,174626,2,0,P|403:346|379:362,1,80,10|2,0:1|0:1,0:0:0:0:
315,301,175081,6,0,L|223:284,1,80,14|2,0:1|0:1,0:0:0:0:
199,311,175422,1,2,0:0:0:0:
199,311,175536,2,0,L|208:360,1,40,8|2,0:0|0:0,0:0:0:0:
173,379,175763,1,2,0:0:0:0:
92,344,175990,2,0,P|75:296|89:253,1,80,8|10,0:1|0:1,0:0:0:0:
109,235,176331,1,2,0:0:0:0:
109,235,176445,2,0,L|25:248,1,80,14|2,0:1|0:1,0:0:0:0:
15,160,176899,6,0,L|94:147,1,80,14|2,0:3|0:1,0:0:0:0:
125,117,177240,1,2,0:0:0:0:
176,45,177467,1,0,0:0:0:0:
176,45,177581,2,0,L|230:54,1,40
257,38,177808,2,0,P|242:88|252:117,1,80,8|2,0:1|0:1,0:0:0:0:
286,137,178149,1,2,0:0:0:0:
286,137,178263,2,0,L|377:123,1,80,10|0,0:1|0:0,0:0:0:0:
436,59,178717,5,14,0:0:0:0:
507,132,178945,1,2,0:1:0:0:
507,132,179058,1,2,0:3:0:0:
435,197,179286,1,2,0:3:0:0:
435,197,179399,1,10,0:3:0:0:
503,265,179626,2,0,P|513:311|496:354,1,88.000002685547,10|10,0:1|0:1,0:0:0:0:
455,367,179967,1,2,0:0:0:0:
455,367,180081,2,0,L|404:355,1,44.0000013427735,14|2,0:1|0:0,0:0:0:0:
375,324,180308,2,0,L|324:336,1,44.0000013427735,2|0,0:3|0:0,0:0:0:0:
285,348,180536,6,0,B|297:303|297:303|279:258,1,88.000002685547,14|0,3:2|0:0,0:0:0:0:
255,224,180876,1,0,3:0:0:0:
191,150,181104,1,2,0:0:0:0:
191,150,181217,2,0,L|132:162,1,44.0000013427735,10|2,0:3|0:0,0:0:0:0:
105,134,181445,2,0,P|96:88|121:46,1,88.000002685547,10|2,0:1|0:3,0:0:0:0:
203,16,181899,2,0,L|295:31,1,88.000002685547,10|2,0:3|0:3,0:0:0:0:
321,66,182240,1,2,0:0:0:0:
321,66,182354,6,0,P|333:111|313:155,1,88.000002685547,14|0,0:1|0:0,0:0:0:0:
280,178,182695,1,2,0:3:0:0:
187,206,182922,1,2,0:0:0:0:
187,206,183036,1,10,0:3:0:0:
157,114,183263,2,0,L|169:20,1,88.000002685547,10|10,0:3|0:1,0:0:0:0:
73,9,183717,2,0,L|61:96,1,88.000002685547,14|2,0:1|0:1,0:0:0:0:
28,131,184058,1,2,0:1:0:0:
28,131,184172,5,14,0:3:0:0:
85,208,184399,1,2,0:1:0:0:
85,208,184513,1,2,0:0:0:0:
85,208,184626,2,0,P|91:242|84:262,1,44.0000013427735,10|2,0:1|0:0,0:0:0:0:
66,294,184854,2,0,P|59:314|61:336,1,44.0000013427735,10|2,0:1|0:0,0:0:0:0:
95,371,185081,2,0,L|198:357,1,88.000002685547,10|0,0:1|0:0,0:0:0:0:
213,321,185422,1,2,0:3:0:0:
213,321,185536,1,10,0:3:0:0:
263,238,185763,1,2,0:1:0:0:
346,287,185990,6,0,P|390:306|436:296,1,88.000002685547,14|0,0:3|0:0,0:0:0:0:
467,271,186331,1,2,0:3:0:0:
467,271,186445,2,0,L|452:177,1,88.000002685547,10|10,0:3|0:1,0:0:0:0:
392,108,186899,1,10,0:1:0:0:
392,108,187013,2,0,B|351:126|351:126|308:105,1,88.000002685547,2|2,0:1|0:0,0:0:0:0:
275,75,187354,1,14,0:3:0:0:
207,143,187581,1,2,0:3:0:0:
280,205,187808,6,0,P|297:254|283:293,1,88.000002685547,14|0,0:3|0:0,0:0:0:0:
216,353,188263,1,10,0:1:0:0:
216,353,188376,1,2,0:3:0:0:
216,353,188490,2,0,L|171:341,1,44.0000013427735,10|0,0:3|0:0,0:0:0:0:
131,317,188717,2,0,L|88:328,2,44.0000013427735,10|10|0,0:1|0:1|0:0,0:0:0:0:
182,234,189172,1,8,0:0:0:0:
182,234,189286,1,0,0:0:0:0:
182,234,189399,1,2,0:1:0:0:
113,166,189626,6,0,P|64:156|27:179,1,88.000002685547,14|2,0:1|0:1,0:0:0:0:
174,91,190081,2,0,L|263:76,1,88.000002685547,10|10,0:1|0:1,0:0:0:0:
295,41,190422,1,2,0:1:0:0:
385,76,190649,1,2,0:1:0:0:
385,76,190763,1,10,0:1:0:0:
419,175,190990,1,14,0:1:0:0:
419,175,191104,1,0,0:0:0:0:
419,175,191217,1,2,0:1:0:0:
368,257,191445,6,0,P|326:275|285:268,1,88.000002685547,14|2,0:1|0:1,0:0:0:0:
203,216,191899,1,10,0:1:0:0:
143,292,192126,1,10,0:1:0:0:
143,292,192240,1,2,0:3:0:0:
64,245,192467,1,10,0:1:0:0:
64,245,192581,1,2,0:1:0:0:
121,167,192808,2,0,L|127:121,2,44.0000013427735,10|2|2,0:3|0:0|0:3,0:0:0:0:
30,130,193263,6,0,L|17:42,1,88.000002685547,14|2,0:3|0:0,0:0:0:0:
47,5,193604,1,2,0:3:0:0:
142,50,193831,1,2,0:0:0:0:
142,50,193945,1,10,0:0:0:0:
142,50,194058,2,0,P|179:67|243:59,1,88.000002685547
261,33,194399,1,10,0:0:0:0:
342,102,194626,1,14,0:0:0:0:
342,102,194740,1,2,0:0:0:0:
342,102,194854,2,0,P|353:136|349:157,1,44.0000013427735,2|2,0:3|0:0,0:0:0:0:
329,186,195081,6,0,L|240:199,1,88.000002685547,14|2,0:3|0:1,0:0:0:0:
164,257,195536,1,8,0:0:0:0:
164,257,195649,2,0,P|148:304|166:348,1,88.000002685547,2|2,0:3|0:1,0:0:0:0:
199,366,195990,2,0,L|249:355,2,44.0000013427735,8|0|2,0:1|0:0|0:1,0:0:0:0:
299,284,196445,1,10,0:3:0:0:
299,284,196558,1,2,0:0:0:0:
299,284,196672,2,0,L|348:293,1,44.0000013427735,2|2,0:3|0:0,0:0:0:0:
388,276,196899,6,0,P|411:230|393:183,1,88.000002685547,14|2,0:3|0:1,0:0:0:0:
347,116,197354,1,8,0:0:0:0:
347,116,197467,1,2,0:1:0:0:
263,165,197695,1,2,0:1:0:0:
263,165,197808,1,10,0:3:0:0:
197,93,198036,1,10,0:3:0:0:
197,93,198149,1,2,0:3:0:0:
197,93,198263,2,0,L|186:37,2,44.0000013427735,12|2|2,0:0|0:1|0:1,0:0:0:0:
149,177,198717,5,14,0:3:0:0:
217,252,198945,1,2,0:1:0:0:
217,252,199058,2,0,P|225:294|201:332,1,88.000002685547,2|2,0:0|0:0,0:0:0:0:
156,347,199399,1,14,0:1:0:0:
66,310,199626,2,0,L|57:263,1,44.0000013427735,8|0,0:1|0:0,0:0:0:0:
25,229,199854,2,0,L|34:182,1,44.0000013427735,2|2,0:1|0:1,0:0:0:0:
16,140,200081,2,0,B|27:155|27:155|109:140,1,88.000002685547,10|2,0:1|0:1,0:0:0:0:
182,99,200536,5,14,0:3:0:0:
104,49,200763,1,2,0:3:0:0:
104,49,200876,1,2,0:3:0:0:
193,7,201104,1,2,0:3:0:0:
193,7,201217,1,10,0:3:0:0:
272,62,201445,2,0,P|303:74|332:68,1,44.0000013427735,10|2,0:3|0:3,0:0:0:0:
356,95,201672,2,0,P|381:74|391:46,1,44.0000013427735,8|2,0:1|0:0,0:0:0:0:
382,16,201899,2,0,L|488:35,1,88.000002685547,14|2,0:3|0:1,0:0:0:0:
504,71,202240,1,2,0:3:0:0:
504,71,202354,6,0,P|516:126|493:164,1,88.000002685547,14|0,0:3|0:0,0:0:0:0:
464,181,202695,1,2,0:0:0:0:
377,223,202922,1,2,0:0:0:0:
377,223,203036,2,0,L|320:210,1,44.0000013427735,10|2,0:3|0:0,0:0:0:0:
286,201,203263,2,0,L|300:302,1,88.000002685547,8|2,0:1|0:1,0:0:0:0:
327,326,203604,1,2,0:0:0:0:
327,326,203717,2,0,P|276:310|242:326,1,88.000002685547,8|2,0:0|0:1,0:0:0:0:
167,378,204172,5,14,0:1:0:0:
116,295,204399,1,2,0:3:0:0:
116,295,204513,2,0,L|130:203,1,88.000002685547,2|2,0:3|0:3,0:0:0:0:
104,166,204854,1,10,0:1:0:0:
172,98,205081,1,8,0:1:0:0:
172,98,205195,1,2,0:1:0:0:
241,165,205422,1,2,0:3:0:0:
241,165,205536,2,0,P|272:185|291:184,1,44.0000013427735,14|0,0:1|0:0,0:0:0:0:
321,207,205763,2,0,P|352:187|371:188,1,44.0000013427735,2|2,0:1|0:3,0:0:0:0:
403,203,205990,6,0,L|389:305,1,88.000002685547,14|2,0:3|0:1,0:0:0:0:
422,327,206331,1,2,0:3:0:0:
334,368,206558,1,2,0:3:0:0:
334,368,206672,1,10,0:1:0:0:
334,368,206786,2,0,P|293:344|239:348,1,88.000002685547
209,362,207126,1,2,0:3:0:0:
127,308,207354,1,10,0:1:0:0:
123,297,207467,1,2,0:0:0:0:
120,286,207581,1,0,0:0:0:0:
117,276,207694,1,2,0:0:0:0:
114,265,207808,6,0,L|135:134,2,120,14|2|10,0:1|0:1|0:1,0:0:0:0:
179,331,208717,1,10,0:1:0:0:
179,331,208831,2,0,P|205:341|267:316,1,80,2|2,0:1|0:1,0:0:0:0:
282,295,209172,1,14,0:1:0:0:
330,221,209399,1,2,0:1:0:0:
330,221,209513,1,2,0:1:0:0:
330,221,209626,6,0,P|381:212|445:252,2,120,14|2|10,0:3|0:0|0:0,0:0:0:0:
266,159,210536,2,0,L|256:108,3,40,8|0|2|2,0:1|0:0|0:1|0:3,0:0:0:0:
256,109,210990,2,0,L|270:29,1,80,10|2,0:3|0:3,0:0:0:0:
182,15,211445,6,0,L|168:93,1,80,12|2,0:1|0:1,0:0:0:0:
125,170,211899,1,10,0:1:0:0:
82,93,212126,2,0,P|41:144|80:247,1,160,10|10,0:1|0:1,0:0:0:0:
119,296,212808,1,14,0:1:0:0:
192,246,213036,1,2,0:1:0:0:
192,246,213149,1,0,0:0:0:0:
192,246,213263,6,0,B|278:234|265:296|358:274,1,160,14|10,0:3|0:1,0:0:0:0:
419,229,213945,1,10,0:1:0:0:
419,229,214058,2,0,P|435:188|423:148,1,80,2|2,0:3|0:1,0:0:0:0:
403,117,214399,1,2,0:1:0:0:
330,66,214626,1,10,0:3:0:0:
330,66,214740,2,0,L|245:76,1,80,2|2,0:1|0:1,0:0:0:0:
211,54,215081,6,0,P|172:112|190:207,1,160,14|10,0:3|0:0,0:0:0:0:
207,291,215763,1,8,0:1:0:0:
207,291,215877,1,10,0:0:0:0:
207,291,215990,2,0,L|119:275,1,80,2|8,0:0|0:1,0:0:0:0:
59,221,216445,1,14,0:0:0:0:
115,153,216672,1,0,0:0:0:0:
115,153,216786,1,2,0:0:0:0:
115,153,216899,6,0,P|124:91|105:53,1,80,14|0,0:0|0:0,0:0:0:0:
186,18,217354,2,0,L|227:41,1,40,8|2,0:0|0:0,0:0:0:0:
259,59,217581,2,0,L|343:48,1,80,10|0,0:0|0:0,0:0:0:0:
416,6,218036,1,0,0:0:0:0:
416,6,218149,2,0,P|438:42|423:135,1,120,2|2,0:0|0:0,0:0:0:0:
385,191,218717,6,0,B|308:197|315:141|217:155,1,160,12|8,0:1|0:0,0:0:0:0:
156,197,219399,1,0,0:0:0:0:
156,197,219513,1,8,0:0:0:0:
156,197,219626,2,0,L|167:282,1,80,2|8,0:0|0:1,0:0:0:0:
135,358,220081,2,0,P|93:374|57:366,1,80,12|0,0:0|0:0,0:0:0:0:
7,296,220536,6,0,L|32:161,1,120,14|0,0:0|0:0,0:0:0:0:
49,92,221104,1,2,0:0:0:0:
49,92,221217,1,10,0:0:0:0:
49,92,221331,2,0,P|96:118|180:97,1,120,10|0,0:0|0:0,0:0:0:0:
217,43,221899,1,10,0:0:0:0:
299,95,222126,1,2,0:0:0:0:
299,95,222240,1,0,0:0:0:0:
299,95,222354,6,0,L|282:191,1,80,12|2,0:1|0:0,0:0:0:0:
224,237,222808,1,8,0:0:0:0:
292,300,223036,1,0,0:0:0:0:
292,300,223149,2,0,L|417:280,1,120,10|8,0:0|0:1,0:0:0:0:
473,219,223717,1,12,0:0:0:0:
411,155,223945,2,0,L|366:147,1,40,2|2,0:0|0:0,0:0:0:0:
329,161,224172,6,0,P|344:113|327:76,1,80,14|0,0:0|0:0,0:0:0:0:
304,54,224513,1,2,0:0:0:0:
242,117,224740,1,2,0:0:0:0:
179,55,224967,2,0,B|102:46|104:104|25:90,1,160,10|2,0:0|0:0,0:0:0:0:
3,127,225536,2,0,L|18:218,1,80,10|2,0:0|0:0,0:0:0:0:
63,280,225990,6,0,P|99:298|140:284,1,80,14|0,0:0|0:0,0:0:0:0:
172,263,226331,1,0,0:0:0:0:
172,263,226445,1,8,0:0:0:0:
222,190,226672,1,0,0:0:0:0:
222,190,226786,2,0,L|239:66,1,120,10|8,0:0|0:1,0:0:0:0:
303,12,227354,1,12,0:0:0:0:
368,85,227581,1,2,0:0:0:0:
368,85,227695,1,2,0:0:0:0:
368,85,227808,6,0,P|404:115|490:103,1,120,14|2,0:0|0:0,0:0:0:0:
438,32,228376,1,2,0:0:0:0:
438,32,228490,1,14,0:1:0:0:
368,85,228717,2,0,L|383:178,1,80
409,197,229058,1,2,0:0:0:0:
409,197,229172,1,8,0:0:0:0:
340,251,229399,2,0,L|329:294,1,40
343,331,229626,6,0,P|299:314|205:367,1,160,14|0,0:0|0:0,0:0:0:0:
126,326,230308,2,0,B|117:268|117:268|123:230|123:230|114:157,1,160,10|0,0:0|0:0,0:0:0:0:
86,133,230876,2,0,L|96:76,1,40,2|14,0:0|0:0,0:0:0:0:
259,35,231445,6,0,P|291:65|366:64,1,120,14|2,0:0|0:0,0:0:0:0:
467,147,232126,1,10,0:0:0:0:
467,147,232240,2,0,L|448:312,1,160,2|2,0:0|0:0,0:0:0:0:
233,260,233263,6,0,P|189:246|117:287,1,120,12|2,0:0|0:0,0:0:0:0:
70,346,233831,1,2,0:0:0:0:
70,346,233945,1,10,0:0:0:0:
23,176,234513,2,0,L|50:49,1,120,2|2,0:0|0:0,0:0:0:0:
124,14,235081,6,0,P|160:45|249:37,1,120,2|2,0:0|0:0,0:0:0:0:
313,18,235649,1,2,0:0:0:0:
313,18,235763,1,10,0:0:0:0:
457,183,236331,2,0,L|332:156,1,120,2|0,0:0|0:0,0:0:0:0:
261,198,236899,5,2,0:0:0:0:
256,192,237013,12,0,240536,0:0:0:0:
