osu file format v14

[General]
AudioFilename: Collision Chaos (Past).mp3
AudioLeadIn: 0
PreviewTime: 49251
Countdown: 0
SampleSet: None
StackLeniency: 0.7
Mode: 1
LetterboxInBreaks: 0
WidescreenStoryboard: 1

[Editor]
DistanceSpacing: 1.8
BeatDivisor: 4
GridSize: 32
TimelineZoom: 2.1

[Metadata]
Title:Collision Chaos "P" mix
TitleUnicode:Collision Chaos "P" mix
Artist:Masafumi Ogata
ArtistUnicode:尾形雅史
Creator:Skull Kid
Version:Muzukashii
Source:Sonic CD
Tags:ソニック・ザ・ヘッジホッグ the hedgehog sega past mega
BeatmapID:1688311
BeatmapSetID:564289

[Difficulty]
HPDrainRate:8
CircleSize:4
OverallDifficulty:5
ApproachRate:9
SliderMultiplier:1.4
SliderTickRate:1

[Events]
//Background and Video events
0,0,"BG.jpg",0,-50
//Break Periods
//Storyboard Layer 0 (Background)
//Storyboard Layer 1 (Fail)
//Storyboard Layer 2 (Pass)
//Storyboard Layer 3 (Foreground)
//Storyboard Sound Samples

[TimingPoints]
176,471.883602044829,4,1,0,60,1,0
49251,-100,4,1,0,60,0,1
64352,-100,4,1,0,60,0,0

[HitObjects]
256,192,3951,5,0,0:0:0:0:
256,192,4187,1,8,0:0:0:0:
256,192,4422,1,8,0:0:0:0:
256,192,4658,1,0,0:0:0:0:
256,192,4894,1,0,0:0:0:0:
256,192,5130,1,8,0:0:0:0:
256,192,5602,1,0,0:0:0:0:
256,192,6074,1,8,0:0:0:0:
256,192,6546,1,0,0:0:0:0:
256,192,7490,1,8,0:0:0:0:
256,192,7608,1,8,0:0:0:0:
256,192,7726,1,0,0:0:0:0:
256,192,7962,1,0,0:0:0:0:
256,192,8198,1,8,0:0:0:0:
256,192,8669,1,8,0:0:0:0:
256,192,9023,1,8,0:0:0:0:
256,192,9377,1,0,0:0:0:0:
256,192,10085,1,8,0:0:0:0:
256,192,10321,1,0,0:0:0:0:
256,192,10557,1,0,0:0:0:0:
256,192,10793,1,8,0:0:0:0:
256,192,11501,1,0,0:0:0:0:
256,192,11737,1,8,0:0:0:0:
256,192,11973,1,8,0:0:0:0:
256,192,12209,1,0,0:0:0:0:
256,192,12444,1,0,0:0:0:0:
256,192,12680,1,8,0:0:0:0:
256,192,13152,1,0,0:0:0:0:
256,192,13624,1,8,0:0:0:0:
256,192,14096,1,0,0:0:0:0:
256,192,15040,1,8,0:0:0:0:
256,192,15158,1,8,0:0:0:0:
256,192,15276,1,0,0:0:0:0:
256,192,15512,1,0,0:0:0:0:
256,192,15748,1,8,0:0:0:0:
256,192,16220,1,0,0:0:0:0:
256,192,16573,1,8,0:0:0:0:
256,192,16927,1,8,0:0:0:0:
256,192,17635,1,8,0:0:0:0:
256,192,17871,1,0,0:0:0:0:
256,192,18107,1,0,0:0:0:0:
256,192,18343,1,8,0:0:0:0:
256,192,18579,1,8,0:0:0:0:
256,192,18697,1,8,0:0:0:0:
256,192,18815,1,8,0:0:0:0:
256,192,19051,1,0,0:0:0:0:
256,192,19287,1,8,0:0:0:0:
256,192,19523,1,8,0:0:0:0:
256,192,19759,1,0,0:0:0:0:
256,192,19995,1,0,0:0:0:0:
256,192,20231,1,8,0:0:0:0:
256,192,20702,1,0,0:0:0:0:
256,192,21174,1,8,0:0:0:0:
256,192,21646,1,0,0:0:0:0:
256,192,22590,1,8,0:0:0:0:
256,192,22708,1,8,0:0:0:0:
256,192,22826,1,0,0:0:0:0:
256,192,23062,1,0,0:0:0:0:
256,192,23298,1,8,0:0:0:0:
256,192,23770,1,8,0:0:0:0:
256,192,24124,1,8,0:0:0:0:
256,192,24478,1,0,0:0:0:0:
256,192,25185,1,8,0:0:0:0:
256,192,25421,1,0,0:0:0:0:
256,192,25657,1,0,0:0:0:0:
256,192,25893,1,8,0:0:0:0:
256,192,26601,1,0,0:0:0:0:
256,192,26837,1,8,0:0:0:0:
256,192,27073,1,8,0:0:0:0:
256,192,27309,1,0,0:0:0:0:
256,192,27545,1,0,0:0:0:0:
256,192,27781,1,8,0:0:0:0:
256,192,28253,1,0,0:0:0:0:
256,192,28724,1,8,0:0:0:0:
256,192,29196,1,0,0:0:0:0:
256,192,30140,1,8,0:0:0:0:
256,192,30258,1,8,0:0:0:0:
256,192,30376,1,0,0:0:0:0:
256,192,30612,1,0,0:0:0:0:
256,192,30848,1,8,0:0:0:0:
256,192,31320,1,0,0:0:0:0:
256,192,31674,1,8,0:0:0:0:
256,192,32028,1,8,0:0:0:0:
256,192,32735,1,8,0:0:0:0:
256,192,32971,1,0,0:0:0:0:
256,192,33207,1,0,0:0:0:0:
256,192,33443,1,8,0:0:0:0:
256,192,33679,1,8,0:0:0:0:
256,192,33797,1,8,0:0:0:0:
256,192,33915,1,8,0:0:0:0:
256,192,34151,1,0,0:0:0:0:
256,192,34623,1,8,0:0:0:0:
256,192,35095,1,0,0:0:0:0:
256,192,35331,1,8,0:0:0:0:
256,192,36039,1,0,0:0:0:0:
256,192,36511,1,8,0:0:0:0:
256,192,36982,1,0,0:0:0:0:
256,192,37218,1,8,0:0:0:0:
256,192,37926,1,0,0:0:0:0:
256,192,38398,1,0,0:0:0:0:
256,192,38870,1,0,0:0:0:0:
256,192,39106,1,0,0:0:0:0:
256,192,39814,1,0,0:0:0:0:
256,192,40286,1,0,0:0:0:0:
256,192,40757,1,0,0:0:0:0:
256,192,40993,1,0,0:0:0:0:
256,192,41701,1,0,0:0:0:0:
256,192,42173,1,8,0:0:0:0:
256,192,42645,1,0,0:0:0:0:
256,192,42881,1,8,0:0:0:0:
256,192,43589,1,0,0:0:0:0:
256,192,44061,1,8,0:0:0:0:
256,192,44533,1,0,0:0:0:0:
256,192,44769,1,8,0:0:0:0:
256,192,45476,1,0,0:0:0:0:
256,192,45948,1,0,0:0:0:0:
256,192,46420,1,0,0:0:0:0:
256,192,46656,1,0,0:0:0:0:
256,192,47364,1,0,0:0:0:0:
256,192,47836,1,0,0:0:0:0:
256,192,48308,1,0,0:0:0:0:
256,192,48544,1,0,0:0:0:0:
256,192,49251,1,8,0:0:0:0:
256,192,49723,1,0,0:0:0:0:
256,192,50195,1,8,0:0:0:0:
256,192,50549,1,8,0:0:0:0:
256,192,50903,1,0,0:0:0:0:
256,192,51139,1,8,0:0:0:0:
256,192,51611,1,0,0:0:0:0:
256,192,52083,1,8,0:0:0:0:
256,192,52437,1,0,0:0:0:0:
256,192,52791,1,0,0:0:0:0:
256,192,53026,1,8,0:0:0:0:
256,192,53498,1,0,0:0:0:0:
256,192,53970,1,8,0:0:0:0:
256,192,54324,1,8,0:0:0:0:
256,192,54678,1,0,0:0:0:0:
256,192,54914,1,8,0:0:0:0:
256,192,55386,1,0,0:0:0:0:
256,192,55858,1,8,0:0:0:0:
256,192,56212,1,0,0:0:0:0:
256,192,56566,1,0,0:0:0:0:
256,192,56802,1,8,0:0:0:0:
256,192,57273,1,0,0:0:0:0:
256,192,57745,1,8,0:0:0:0:
256,192,58099,1,8,0:0:0:0:
256,192,58453,1,0,0:0:0:0:
256,192,58689,1,8,0:0:0:0:
256,192,59161,1,0,0:0:0:0:
256,192,59633,1,8,0:0:0:0:
256,192,59987,1,0,0:0:0:0:
256,192,60341,1,0,0:0:0:0:
256,192,60577,1,8,0:0:0:0:
256,192,61048,1,0,0:0:0:0:
256,192,61520,1,8,0:0:0:0:
256,192,61874,1,8,0:0:0:0:
256,192,62228,1,0,0:0:0:0:
256,192,62464,1,8,0:0:0:0:
256,192,62936,1,0,0:0:0:0:
256,192,63408,1,8,0:0:0:0:
256,192,63644,1,8,0:0:0:0:
256,192,63762,1,8,0:0:0:0:
256,192,63880,1,8,0:0:0:0:
256,192,64116,1,8,0:0:0:0:
256,192,64352,1,0,0:0:0:0:
