osu file format v14

[General]
AudioFilename: audio.mp3
AudioLeadIn: 0
PreviewTime: -1
Countdown: 0
SampleSet: None
StackLeniency: 0.7
Mode: 0
LetterboxInBreaks: 0
WidescreenStoryboard: 1

[Editor]
DistanceSpacing: 0.9
BeatDivisor: 1
GridSize: 8
TimelineZoom: 0.8000008

[Metadata]
Title:Clear Mind
TitleUnicode:Clear Mind
Artist:Masaaki Endou
ArtistUnicode:Masaaki Endou
Creator:dekay
Version:Easy
Source:
Tags:yu gi oh! 5d's clear mind endou shooting star yusei fudo primo zunshin
BeatmapID:1245367
BeatmapSetID:584519

[Difficulty]
HPDrainRate:1
CircleSize:3
OverallDifficulty:2
ApproachRate:3
SliderMultiplier:0.9
SliderTickRate:1

[Events]
//Background and Video events
0,0,"38961760-stardust-wallpapers.jpg",0,0
//Break Periods
2,99778,110138
2,174778,185138
//Storyboard Layer 0 (Background)
//Storyboard Layer 1 (Fail)
//Storyboard Layer 2 (Pass)
//Storyboard Layer 3 (Foreground)
//Storyboard Sound Samples

[TimingPoints]
9578,375,4,3,0,100,1,0

[HitObjects]
105,83,9578,6,4,B|169:114|169:114|171:182|238:194,1,180,0|2,0:2|0:0,0:0:0:0:
317,55,11078,2,4,B|317:98|317:98|285:142|310:196|310:196|300:249,1,180,4|6,0:0|0:0,0:0:0:0:
141,234,12578,2,4,B|110:186|110:186|135:130|289:168,1,180,4|6,0:0|0:0,0:0:0:0:
198,315,14078,2,4,B|241:335|241:335|323:330|320:226,1,180,4|6,0:0|0:0,0:0:0:0:
340,85,15578,6,0,L|256:26,2,90,4|0|4,0:0|0:0|0:0,0:0:0:0:
295,152,16703,1,2,1:3:0:0:
239,211,17078,2,0,L|123:169,2,90,4|0|4,0:0|0:0|0:0,0:0:0:0:
239,130,18203,1,2,1:3:0:0:
264,53,18578,2,0,L|347:117,2,90,4|0|4,0:0|0:0|0:0,0:0:0:0:
203,107,19703,1,2,1:3:0:0:
154,171,20078,2,0,L|205:263,2,90,4|0|0,0:0|0:0|0:0,0:0:0:0:
127,94,21203,1,2,1:3:0:0:
207,77,21578,6,0,B|269:98|336:71|336:71|350:106|404:114,1,180,0|2,0:0|0:0,0:0:0:0:
395,181,22703,1,2,0:0:0:0:
347,246,23078,6,0,B|334:258|319:283|319:283|263:241|177:278,1,180,0|2,0:0|0:0,0:0:0:0:
124,227,24203,1,2,0:0:0:0:
85,155,24578,2,2,P|9:177|-4:193,2,90,2|2|2,0:2|0:2|0:2,0:2:0:0:
165,148,25703,1,2,0:0:0:0:
174,67,26078,1,2,0:0:0:0:
248,34,26453,1,4,0:2:0:0:
255,114,26828,1,4,0:2:0:0:
262,194,27203,1,4,0:2:0:0:
336,226,27578,6,0,B|352:191|352:191|381:158|370:95|370:95|323:70,1,180
262,39,28703,1,0,0:0:0:0:
190,77,29078,2,0,B|182:109|182:109|148:168|171:215|171:215|209:233,1,180
256,192,30578,12,4,35078,0:2:0:0:
143,105,36578,5,4,0:0:0:0:
143,105,36953,2,0,P|152:188|187:221,1,90,4|0,0:1|0:0,0:0:0:0:
251,61,38078,1,4,0:0:0:0:
251,61,38453,2,0,P|260:144|295:177,1,90,4|0,0:1|0:0,0:0:0:0:
273,308,39578,1,4,0:0:0:0:
273,308,39953,2,0,P|267:242|229:192,1,90,4|0,0:1|0:0,0:0:0:0:
417,240,41078,1,4,0:0:0:0:
417,240,41453,2,0,P|408:157|373:124,1,90,4|0,0:1|0:0,0:0:0:0:
325,162,42203,1,0,0:0:0:0:
263,109,42578,6,0,B|201:89|201:89|188:133|152:130|152:130|140:157|77:142|77:142|50:212,1,270
119,250,44078,2,0,B|165:294|165:294|200:266|200:266|242:290|268:269|268:269|335:278|335:278|365:260,1,270
360,189,45578,2,0,P|303:171|273:150,1,90,4|4,0:2|0:1,0:0:0:0:
199,172,46328,2,0,P|171:204|132:231,1,90,4|4,0:2|0:1,0:0:0:0:
146,310,47078,2,0,B|194:344|260:345|260:345|309:303,1,180,4|4,0:2|0:2,0:0:0:0:
365,253,48203,1,2,0:0:0:0:
408,184,48578,6,0,B|331:151|286:225|286:225|192:189|204:109|204:109,1,270
136,91,50078,2,0,B|187:57|187:57|273:84|334:45,1,180
362,115,51203,1,0,0:0:0:0:
385,192,51578,2,0,B|376:313|294:328|294:328|290:269|254:243,1,270
279,167,53078,2,0,P|224:221|193:224,1,90
134,235,53828,1,4,0:1:0:0:
177,166,54203,1,4,0:1:0:0:
96,168,54578,6,0,B|19:128|19:128|95:41|213:94,1,270,4|0,0:2|0:0,0:0:0:0:
207,160,56078,2,0,B|246:236|246:236|282:235|333:283,2,180
217,79,57953,2,0,L|115:71,1,90,8|0,0:2|0:0,0:0:0:0:
93,145,58703,1,8,0:2:0:0:
173,156,59078,2,0,L|333:178,2,90,0|8|8,0:0|0:2|0:2,0:0:0:0:
201,231,60203,1,8,0:2:0:0:
249,298,60578,6,0,L|153:329,1,90,2|0,0:0|0:0,0:0:0:0:
94,282,61328,2,0,L|202:221,1,90,2|0,0:0|0:0,0:0:0:0:
190,158,62078,2,0,P|245:225|253:308,1,90,2|0,0:0|0:0,0:0:0:0:
326,221,62828,2,0,P|341:275|375:323,1,90,2|0,0:0|0:0,0:0:0:0:
433,288,63578,2,0,B|449:232|429:169|429:169|442:110,1,180,8|8,0:1|0:2,0:0:0:0:
370,149,64703,1,0,0:0:0:0:
310,203,65078,2,0,B|300:132|252:96|252:96|213:138,1,180,8|8,0:1|0:2,0:0:0:0:
176,208,66203,1,8,0:2:0:0:
176,208,66578,6,0,L|236:281,1,90,2|8,0:2|0:2,0:0:0:0:
266,203,67328,2,0,L|327:273,1,90,2|8,0:2|0:2,0:0:0:0:
370,204,68078,2,0,L|393:117,1,90,2|8,0:2|0:2,0:0:0:0:
313,133,68828,2,0,L|346:19,1,90,2|8,0:2|0:2,0:0:0:0:
256,192,69578,12,0,74078,0:0:0:0:
112,104,75578,6,6,B|120:205|194:255|194:255|238:197|247:170|247:170,1,270,4|4,0:2|0:2,0:1:0:0:
190,114,77078,6,2,B|233:56|233:56|316:103|332:224,1,270,4|4,0:2|0:1,0:1:0:0:
280,282,78578,2,0,P|232:311|186:320,2,90,0|0|4,0:0|0:0|0:1,0:0:0:0:
340,227,79703,2,0,P|404:195|452:205,1,90,4|4,0:1|0:1,0:0:0:0:
335,333,80828,2,0,B|294:344|294:344|259:309|210:305|210:305|190:258,1,180,0|4,0:0|0:2,0:0:0:0:
129,219,81953,1,8,0:2:0:0:
157,143,82328,2,0,L|277:167,1,90,0|8,0:0|0:2,0:0:0:0:
322,137,83078,2,0,L|298:227,1,90,0|8,0:0|0:2,0:0:0:0:
251,289,83828,2,0,B|327:299|335:322|432:277,1,180
395,204,84953,5,0,0:0:0:0:
315,217,85328,2,0,L|331:122,2,90,4|4|4,0:1|0:2|0:2,0:0:0:0:
153,218,86828,1,0,0:0:0:0:
198,157,87203,2,0,B|261:101|322:91|322:91|336:146|319:220,1,270
277,286,88703,1,0,0:0:0:0:
357,287,89078,2,0,B|460:254|460:254|480:208|445:178|445:178|363:203,1,270
308,148,90578,2,0,L|316:245,1,90
235,223,91328,2,0,L|281:310,2,90
118,109,92828,6,2,P|187:63|246:148,2,180,6|2|6,0:1|0:1|0:1,0:1:0:0:
169,171,94703,1,0,0:0:0:0:
245,145,95078,2,0,B|296:145|334:119|334:119|373:191|328:240,1,180
303,268,96203,5,8,0:1:0:0:
223,281,96578,1,4,0:2:0:0:
143,294,96953,2,0,L|5:319,1,90,8|0,0:2|0:0,0:0:0:0:
54,229,97703,1,8,0:1:0:0:
133,213,98078,1,4,0:2:0:0:
212,197,98453,2,0,L|311:177,1,90,8|0,0:2|0:0,0:0:0:0:
378,159,99203,1,8,0:2:0:0:
456,137,99578,1,4,0:2:0:0:
65,265,111578,6,0,B|130:204|130:204,1,90,0|8,0:0|0:2,0:0:0:0:
182,144,112328,1,0,0:0:0:0:
213,69,112703,1,8,0:1:0:0:
267,126,113078,2,0,P|241:178|263:245,1,90,0|8,0:0|0:2,0:0:0:0:
321,186,113828,1,0,0:0:0:0:
401,197,114203,1,8,0:1:0:0:
358,265,114578,6,0,P|314:298|261:296,2,90
370,184,115703,1,8,0:2:0:0:
293,211,116078,2,0,L|205:255,1,90
137,221,116828,1,8,0:2:0:0:
203,267,117203,1,8,0:2:0:0:
269,313,117578,1,12,0:1:0:0:
301,238,117953,6,0,L|220:164,1,90
153,179,118703,1,0,0:0:0:0:
196,110,119078,2,0,P|253:73|266:29,1,90
341,70,119828,2,0,P|349:141|382:174,1,90
303,213,120578,1,0,0:0:0:0:
233,253,120953,1,0,0:0:0:0:
236,172,121328,1,0,0:0:0:0:
166,212,121703,1,0,0:0:0:0:
122,116,123578,6,0,B|181:208|128:285|128:285|218:306,1,270
285,266,125078,2,0,P|287:162|213:144,2,180
214,305,126953,1,0,0:0:0:0:
133,294,127328,2,0,L|183:178,1,90
108,156,128078,2,0,B|169:109|247:132|246:209|246:209,1,180
229,283,129203,1,0,0:0:0:0:
155,316,129578,2,0,B|213:365|213:366|288:362|288:361|288:361|336:285|431:321,1,270
388,229,131078,2,0,B|295:235|295:235|238:165|151:152|151:152|144:281,1,360
141,330,132953,5,0,0:0:0:0:
85,177,133703,1,0,0:0:0:0:
85,177,134078,2,0,B|109:219|109:219|158:252,1,90
224,251,134828,2,0,B|221:198|221:198|194:149,1,90
352,103,135953,5,0,0:0:0:0:
352,103,136328,2,0,L|339:205,1,90
415,223,137078,2,0,L|448:104,1,90
387,73,137828,2,0,L|259:101,1,90
224,125,138578,2,0,B|268:159|306:150|306:150|314:205|266:234,1,180
116,186,140078,2,0,B|115:231|85:266|85:266|119:300|175:286,1,180
329,254,141578,5,0,0:0:0:0:
329,254,141953,2,0,L|392:324,1,90
446,263,142703,2,0,L|375:182,1,90
311,166,143453,1,0,0:0:0:0:
311,166,143828,2,0,L|212:247,1,90
178,172,144578,1,0,0:0:0:0:
256,192,144953,12,0,149078,0:0:0:0:
122,72,150578,5,0,0:0:0:0:
114,152,150953,1,0,0:0:0:0:
187,117,151328,2,0,L|193:223,1,90
123,249,152078,1,0,0:0:0:0:
185,300,152453,1,0,0:0:0:0:
197,220,152828,2,0,L|281:270,1,90
335,213,153578,2,0,P|422:166|430:153,2,90
256,193,154703,1,0,0:0:0:0:
176,192,155078,6,0,P|176:112|264:112,1,180
304,176,156203,1,0,0:0:0:0:
232,216,156578,6,0,P|157:186|190:104,1,180
264,91,157703,1,0,0:0:0:0:
343,104,158078,2,0,L|298:210,1,90
388,190,158828,1,0,0:0:0:0:
418,115,159203,1,0,0:0:0:0:
452,41,159578,2,0,L|251:49,1,180
191,49,160703,1,0,0:0:0:0:
114,76,161078,1,0,0:0:0:0:
118,237,161828,5,0,0:0:0:0:
166,172,162203,1,0,0:0:0:0:
215,107,162578,2,0,B|315:80|315:80|384:118|368:245,1,270
298,265,164078,2,0,L|113:326,1,180
96,246,165203,1,0,0:0:0:0:
101,165,165578,2,0,L|142:71,2,90
108,245,166703,1,0,0:0:0:0:
169,297,167078,2,0,L|283:317,1,90
321,262,167828,5,0,0:0:0:0:
349,186,168203,2,0,L|433:255,2,90
302,119,169328,1,0,0:0:0:0:
373,81,169703,1,0,0:0:0:0:
423,144,170078,2,0,L|437:256,1,90
364,274,170828,1,0,0:0:0:0:
291,238,171203,1,0,0:0:0:0:
341,174,171578,2,0,B|389:61|230:14|204:137|204:137|122:185,1,360
122,265,173453,6,0,L|204:317,1,90
221,235,174203,2,0,L|310:290,1,90
268,70,186578,6,0,L|187:131,1,90
129,170,187328,1,0,0:0:0:0:
68,223,187703,1,0,0:0:0:0:
118,286,188078,2,0,L|211:210,1,90
253,181,188828,1,0,0:0:0:0:
317,132,189203,1,0,0:0:0:0:
388,169,189578,6,0,L|295:242,1,90
253,274,190328,1,0,0:0:0:0:
189,323,190703,1,0,0:0:0:0:
134,263,191078,2,0,L|80:146,1,90
175,166,191828,1,0,0:0:0:0:
115,110,192203,1,0,0:0:0:0:
189,78,192578,2,0,P|283:69|333:164,1,180
258,165,193703,1,0,0:0:0:0:
187,204,194078,2,0,P|247:273|365:236,1,180
318,187,195203,1,0,0:0:0:0:
294,109,195578,2,0,P|210:96|149:198,1,180
149,241,196703,1,0,0:0:0:0:
222,205,197078,1,0,0:0:0:0:
293,166,197453,2,0,B|370:119|370:119|426:188|426:188|345:240,1,270
256,192,198953,12,0,201578,0:0:0:0:
143,101,203078,6,0,L|237:63,1,90
287,120,203828,2,0,L|209:208,1,90
148,205,204578,2,0,B|174:298|174:298|263:309|346:236,1,270
350,166,206078,2,0,B|271:176|230:218|230:218|159:203,1,180
108,178,207203,1,0,0:0:0:0:
94,98,207578,2,0,B|158:35|158:35|211:28,2,135
106,178,209078,2,0,P|112:254|273:336,1,270
315,271,210578,2,0,B|210:233|172:168|172:168|213:82,1,270
285,54,212078,2,0,B|340:88|340:88|336:107|336:107|368:151,1,135
173,84,213578,6,0,L|250:163,1,90
177,205,214328,2,0,L|249:278,1,90
320,256,215078,1,0,0:0:0:0:
289,331,215453,1,0,0:0:0:0:
369,325,215828,1,0,0:0:0:0:
404,252,216203,1,0,0:0:0:0:
379,174,216578,2,0,B|331:135|331:135|319:75|420:31,2,180
402,251,218453,5,0,0:0:0:0:
373,326,218828,2,0,L|176:351,1,180
125,306,219953,1,0,0:0:0:0:
127,225,220328,2,0,L|276:221,1,90
192,145,221078,2,0,B|298:143,1,90
363,138,221828,1,0,0:0:0:0:
443,139,222203,2,0,P|428:230|299:296,1,180
284,279,223328,1,0,0:0:0:0:
313,203,223703,2,0,L|366:128,1,90
224,48,224828,6,0,L|162:141,1,90
135,193,225578,2,0,B|177:227|177:227|207:306|207:306|273:332|341:281,1,270
385,227,227078,2,0,B|353:162|353:162|388:82|309:54,1,180
254,76,228203,1,0,0:0:0:0:
197,134,228578,2,0,L|281:246,1,90
176,238,229328,2,0,L|232:314,2,90
113,88,230828,6,0,L|225:76,1,90
283,72,231578,2,0,L|410:54,1,90
362,139,232328,1,0,0:0:0:0:
425,188,232703,1,0,0:0:0:0:
347,212,233078,2,0,L|223:266,1,90
183,250,233828,1,0,0:0:0:0:
103,264,234203,1,0,0:0:0:0:
93,183,234578,2,0,L|80:90,2,90
108,262,235703,1,0,0:0:0:0:
177,304,236078,2,0,L|392:350,1,180
390,269,237203,5,0,0:0:0:0:
313,250,237578,2,0,B|185:229|185:229|145:153|73:125,1,270
88,212,239078,2,0,B|96:308|96:308|213:341|199:339,1,180
256,319,240203,1,0,0:0:0:0:
320,269,240578,2,0,L|313:152,1,90
395,182,241328,2,0,L|384:62,2,90
240,231,242828,6,0,B|234:166|234:166|251:154|251:154|246:93,2,135
194,299,244328,2,0,L|321:298,1,90
346,246,245078,1,0,0:0:0:0:
268,224,245453,1,0,0:0:0:0:
190,202,245828,2,0,L|94:162,1,90
134,91,246578,6,0,B|255:93|255:93|305:158,1,180
290,220,247703,2,0,L|212:287,1,90
293,316,248453,2,0,L|386:246,1,90
363,180,249203,1,0,0:0:0:0:
328,106,249578,2,0,L|245:183,1,90
256,192,250328,12,0,254078,0:0:0:0:
167,102,255578,6,0,L|139:202,1,90
135,269,256328,1,0,0:0:0:0:
206,230,256703,2,0,L|270:129,1,90
335,153,257453,2,0,L|337:256,1,90
280,302,258203,1,0,0:0:0:0:
209,342,258578,1,0,0:0:0:0:
