osu file format v14

[General]
AudioFilename: audio.mp3
AudioLeadIn: 0
PreviewTime: -1
Countdown: 0
SampleSet: Normal
StackLeniency: 0.7
Mode: 3
LetterboxInBreaks: 0
SpecialStyle: 0
WidescreenStoryboard: 0

[Editor]
DistanceSpacing: 1
BeatDivisor: 8
GridSize: 16
TimelineZoom: 2.749998

[Metadata]
Title:Gate of Atlantis
TitleUnicode:Gate of Atlantis
Artist:MasKaleido
ArtistUnicode:MasKaleido
Creator:AscensionDTWhen
Version:008-888
Source:SOUND VOLTEX IV HEAVENLY HAVEN
Tags:sdvx 4
BeatmapID:1731735
BeatmapSetID:826286

[Difficulty]
HPDrainRate:8
CircleSize:7
OverallDifficulty:8
ApproachRate:5
SliderMultiplier:1.4
SliderTickRate:1

[Events]
//Background and Video events
0,0,"ab.jpg",0,0
//Break Periods
//Storyboard Layer 0 (Background)
//Storyboard Layer 1 (Fail)
//Storyboard Layer 2 (Pass)
//Storyboard Layer 3 (Foreground)
//Storyboard Sound Samples

[TimingPoints]
1359,200,4,1,0,0,1,0
8959,200,4,1,0,0,1,0
18559,200,5,1,0,0,1,0
20559,200,3,1,0,0,1,0
56559,333.333333333333,4,1,0,0,1,0
56559,-60,4,1,0,0,0,0
77892,200,3,1,0,0,1,0
99492,2000,1,1,0,0,1,0
99492,-20,1,1,0,0,0,0
99992,540.540540540541,1,1,0,0,1,0
99992,-90.0900900900901,1,1,0,0,0,0
100802,270.27027027027,1,1,0,0,1,0
100802,-45.045045045045,1,1,0,0,0,0
101477,180.18018018018,1,1,0,0,1,0
101477,-30.03003003003,1,1,0,0,0,0
102152,135.135135135135,1,1,0,0,1,0
102152,-22.5225225225225,1,1,0,0,0,0
102827,108.108108108108,1,1,0,0,1,0
102827,-18.018018018018,1,1,0,0,0,0
103502,90.0900900900901,1,1,0,0,1,0
103502,-15.015015015015,1,1,0,0,0,0
104177,77.2200772200772,1,1,0,0,1,0
104177,-12.8700128700129,1,1,0,0,0,0
104852,67.5675675675676,1,1,0,0,1,0
104852,-11.2612612612613,1,1,0,0,0,0
107284,77.2200772200772,1,1,0,0,1,0
107284,-12.8700128700129,1,1,0,0,0,0
107689,90.0900900900901,1,1,0,0,1,0
107689,-15.015015015015,1,1,0,0,0,0
108094,108.108108108108,1,1,0,0,1,0
108094,-18.018018018018,1,1,0,0,0,0
108634,135.135135135135,1,1,0,0,1,0
108634,-22.5225225225225,1,1,0,0,0,0
109174,180.18018018018,1,1,0,0,1,0
109174,-30.03003003003,1,1,0,0,0,0
109714,270.27027027027,1,1,0,0,1,0
109714,-45.045045045045,1,1,0,0,0,0
110254,540.540540540541,1,1,0,0,1,0
110254,-90.0900900900901,1,1,0,0,0,0
111334,7500,1,1,0,0,1,0
112094,200,3,1,0,0,1,0

[HitObjects]
36,192,1359,5,0,0:0:0:0:
256,192,1359,1,0,0:0:0:0:
329,192,1359,1,0,0:0:0:0:
475,192,1359,128,0,2959:0:0:0:0:
182,192,1359,128,0,2959:0:0:0:0:
36,192,2159,128,0,3759:0:0:0:0:
329,192,2159,128,0,3759:0:0:0:0:
109,192,2959,128,0,4559:0:0:0:0:
402,192,2959,128,0,4559:0:0:0:0:
182,192,3759,128,0,5359:0:0:0:0:
475,192,3759,128,0,4559:0:0:0:0:
36,192,4559,128,0,5359:0:0:0:0:
256,192,4559,1,0,0:0:0:0:
329,192,4659,1,0,0:0:0:0:
402,192,4759,1,0,0:0:0:0:
475,192,4859,1,0,0:0:0:0:
109,192,4959,1,0,0:0:0:0:
256,192,5059,1,0,0:0:0:0:
329,192,5159,1,0,0:0:0:0:
402,192,5259,1,0,0:0:0:0:
475,192,5359,128,0,8559:0:0:0:0:
329,192,5359,128,0,6159:0:0:0:0:
109,192,5359,1,0,0:0:0:0:
182,192,5459,1,0,0:0:0:0:
256,192,5559,1,0,0:0:0:0:
402,192,5659,1,0,0:0:0:0:
36,192,5759,1,0,0:0:0:0:
109,192,5859,1,0,0:0:0:0:
182,192,5959,1,0,0:0:0:0:
256,192,6059,1,0,0:0:0:0:
402,192,6359,1,0,0:0:0:0:
329,192,6409,1,0,0:0:0:0:
256,192,6459,1,0,0:0:0:0:
182,192,6509,1,0,0:0:0:0:
329,192,6559,1,0,0:0:0:0:
256,192,6609,1,0,0:0:0:0:
182,192,6659,1,0,0:0:0:0:
109,192,6709,1,0,0:0:0:0:
256,192,6759,1,0,0:0:0:0:
182,192,6809,1,0,0:0:0:0:
109,192,6859,1,0,0:0:0:0:
36,192,6909,1,0,0:0:0:0:
402,192,6959,1,0,0:0:0:0:
329,192,7009,1,0,0:0:0:0:
182,192,7059,1,0,0:0:0:0:
109,192,7109,1,0,0:0:0:0:
329,192,7159,1,0,0:0:0:0:
256,192,7209,1,0,0:0:0:0:
109,192,7259,1,0,0:0:0:0:
36,192,7309,1,0,0:0:0:0:
402,192,7359,1,0,0:0:0:0:
256,192,7409,1,0,0:0:0:0:
182,192,7459,1,0,0:0:0:0:
36,192,7509,1,0,0:0:0:0:
402,192,7559,1,0,0:0:0:0:
329,192,7609,1,0,0:0:0:0:
182,192,7659,1,0,0:0:0:0:
109,192,7709,1,0,0:0:0:0:
256,192,8559,128,0,8959:0:0:0:0:
329,192,8959,1,0,0:0:0:0:
402,192,8959,1,0,0:0:0:0:
475,192,8959,1,0,0:0:0:0:
109,192,8959,128,0,9159:0:0:0:0:
36,192,8959,128,0,9159:0:0:0:0:
182,192,8959,1,0,0:0:0:0:
256,192,9159,1,0,0:0:0:0:
402,192,9159,1,0,0:0:0:0:
475,192,9159,1,0,0:0:0:0:
182,192,9259,128,0,9359:0:0:0:0:
109,192,9259,128,0,9359:0:0:0:0:
329,192,9359,1,0,0:0:0:0:
402,192,9359,1,0,0:0:0:0:
475,192,9359,1,0,0:0:0:0:
109,192,9459,128,0,9559:0:0:0:0:
36,192,9459,128,0,9559:0:0:0:0:
256,192,9559,1,0,0:0:0:0:
402,192,9559,1,0,0:0:0:0:
475,192,9559,1,0,0:0:0:0:
36,192,9659,128,0,9859:0:0:0:0:
109,192,9659,128,0,9859:0:0:0:0:
329,192,9759,1,0,0:0:0:0:
402,192,9759,1,0,0:0:0:0:
475,192,9759,1,0,0:0:0:0:
182,192,9859,1,0,0:0:0:0:
36,192,9959,128,0,10059:0:0:0:0:
256,192,9959,1,0,0:0:0:0:
402,192,9959,1,0,0:0:0:0:
475,192,9959,1,0,0:0:0:0:
109,192,10059,128,0,10159:0:0:0:0:
182,192,10159,128,0,10259:0:0:0:0:
329,192,10159,1,0,0:0:0:0:
402,192,10159,1,0,0:0:0:0:
475,192,10159,1,0,0:0:0:0:
256,192,10259,128,0,10359:0:0:0:0:
329,192,10359,128,0,10459:0:0:0:0:
475,192,10359,1,0,0:0:0:0:
109,192,10359,1,0,0:0:0:0:
36,192,10359,1,0,0:0:0:0:
402,192,10459,128,0,10559:0:0:0:0:
182,192,10459,1,0,0:0:0:0:
256,192,10459,1,0,0:0:0:0:
475,192,10559,128,0,10759:0:0:0:0:
329,192,10559,128,0,10759:0:0:0:0:
36,192,10559,1,0,0:0:0:0:
109,192,10559,1,0,0:0:0:0:
182,192,10559,1,0,0:0:0:0:
109,192,10759,1,0,0:0:0:0:
36,192,10759,1,0,0:0:0:0:
256,192,10759,1,0,0:0:0:0:
402,192,10859,128,0,10959:0:0:0:0:
475,192,10859,128,0,10959:0:0:0:0:
182,192,10959,1,0,0:0:0:0:
109,192,10959,1,0,0:0:0:0:
36,192,10959,1,0,0:0:0:0:
402,192,11059,128,0,11159:0:0:0:0:
329,192,11059,128,0,11159:0:0:0:0:
36,192,11159,1,0,0:0:0:0:
109,192,11159,1,0,0:0:0:0:
256,192,11159,1,0,0:0:0:0:
402,192,11259,128,0,11359:0:0:0:0:
475,192,11259,128,0,11359:0:0:0:0:
182,192,11359,1,0,0:0:0:0:
109,192,11359,1,0,0:0:0:0:
36,192,11359,1,0,0:0:0:0:
402,192,11459,128,0,11559:0:0:0:0:
329,192,11559,128,0,11659:0:0:0:0:
256,192,11559,1,0,0:0:0:0:
109,192,11559,1,0,0:0:0:0:
36,192,11559,1,0,0:0:0:0:
402,192,11659,128,0,11759:0:0:0:0:
475,192,11759,128,0,11859:0:0:0:0:
109,192,11759,1,0,0:0:0:0:
36,192,11759,1,0,0:0:0:0:
329,192,11759,1,0,0:0:0:0:
402,192,11859,128,0,11959:0:0:0:0:
182,192,11859,1,0,0:0:0:0:
256,192,11859,1,0,0:0:0:0:
329,192,11959,128,0,12059:0:0:0:0:
109,192,11959,1,0,0:0:0:0:
36,192,11959,1,0,0:0:0:0:
182,192,11959,1,0,0:0:0:0:
256,192,12059,128,0,12159:0:0:0:0:
329,192,12159,1,0,0:0:0:0:
402,192,12159,1,0,0:0:0:0:
475,192,12159,1,0,0:0:0:0:
182,192,12159,128,0,12259:0:0:0:0:
36,192,12159,128,0,12259:0:0:0:0:
109,192,12259,128,0,12359:0:0:0:0:
256,192,12259,128,0,12359:0:0:0:0:
402,192,12359,1,0,0:0:0:0:
475,192,12359,1,0,0:0:0:0:
36,192,12359,1,0,0:0:0:0:
182,192,12459,128,0,12559:0:0:0:0:
329,192,12459,128,0,12559:0:0:0:0:
109,192,12559,1,0,0:0:0:0:
36,192,12559,1,0,0:0:0:0:
475,192,12559,1,0,0:0:0:0:
256,192,12659,128,0,12759:0:0:0:0:
402,192,12659,128,0,12759:0:0:0:0:
109,192,12759,1,0,0:0:0:0:
36,192,12759,1,0,0:0:0:0:
475,192,12759,1,0,0:0:0:0:
329,192,12859,128,0,12959:0:0:0:0:
182,192,12859,128,0,12959:0:0:0:0:
36,192,12959,1,0,0:0:0:0:
256,192,12959,1,0,0:0:0:0:
475,192,12959,1,0,0:0:0:0:
402,192,13059,128,0,13159:0:0:0:0:
329,192,13159,128,0,13259:0:0:0:0:
109,192,13159,1,0,0:0:0:0:
36,192,13159,1,0,0:0:0:0:
182,192,13159,1,0,0:0:0:0:
256,192,13259,128,0,13359:0:0:0:0:
182,192,13359,128,0,13459:0:0:0:0:
329,192,13359,1,0,0:0:0:0:
402,192,13359,1,0,0:0:0:0:
475,192,13359,1,0,0:0:0:0:
109,192,13459,128,0,13559:0:0:0:0:
36,192,13559,128,0,13759:0:0:0:0:
256,192,13559,1,0,0:0:0:0:
475,192,13559,1,0,0:0:0:0:
329,192,13559,1,0,0:0:0:0:
402,192,13659,1,0,0:0:0:0:
182,192,13659,1,0,0:0:0:0:
109,192,13759,1,0,0:0:0:0:
329,192,13759,1,0,0:0:0:0:
256,192,13759,128,0,13859:0:0:0:0:
475,192,13759,128,0,13859:0:0:0:0:
182,192,13859,128,0,13959:0:0:0:0:
402,192,13859,128,0,13959:0:0:0:0:
36,192,13959,1,0,0:0:0:0:
109,192,13959,128,0,14059:0:0:0:0:
329,192,13959,128,0,14059:0:0:0:0:
256,192,14059,128,0,14159:0:0:0:0:
475,192,14059,128,0,14159:0:0:0:0:
36,192,14159,1,0,0:0:0:0:
182,192,14159,128,0,14259:0:0:0:0:
402,192,14159,128,0,14259:0:0:0:0:
109,192,14259,128,0,14359:0:0:0:0:
329,192,14259,128,0,14359:0:0:0:0:
256,192,14359,128,0,14459:0:0:0:0:
36,192,14359,128,0,14459:0:0:0:0:
475,192,14359,1,0,0:0:0:0:
329,192,14459,128,0,14559:0:0:0:0:
109,192,14459,128,0,14559:0:0:0:0:
402,192,14559,128,0,14659:0:0:0:0:
182,192,14559,128,0,14659:0:0:0:0:
475,192,14559,1,0,0:0:0:0:
256,192,14659,128,0,14759:0:0:0:0:
36,192,14659,128,0,14759:0:0:0:0:
109,192,14759,128,0,14859:0:0:0:0:
329,192,14759,128,0,14859:0:0:0:0:
402,192,14859,128,0,14959:0:0:0:0:
182,192,14859,128,0,14959:0:0:0:0:
475,192,14859,1,0,0:0:0:0:
36,192,14959,128,0,15059:0:0:0:0:
329,192,14959,1,0,0:0:0:0:
256,192,14959,1,0,0:0:0:0:
109,192,15059,128,0,15159:0:0:0:0:
182,192,15159,128,0,15259:0:0:0:0:
475,192,15159,1,0,0:0:0:0:
402,192,15159,1,0,0:0:0:0:
329,192,15159,1,0,0:0:0:0:
256,192,15259,128,0,15359:0:0:0:0:
109,192,15259,1,0,0:0:0:0:
36,192,15259,1,0,0:0:0:0:
402,192,15359,128,0,15559:0:0:0:0:
475,192,15359,128,0,15559:0:0:0:0:
329,192,15359,1,0,0:0:0:0:
182,192,15359,1,0,0:0:0:0:
109,192,15359,1,0,0:0:0:0:
36,192,15359,1,0,0:0:0:0:
36,192,15559,1,0,0:0:0:0:
109,192,15559,1,0,0:0:0:0:
256,192,15559,1,0,0:0:0:0:
402,192,15659,128,0,15759:0:0:0:0:
329,192,15659,128,0,15759:0:0:0:0:
36,192,15759,1,0,0:0:0:0:
109,192,15759,1,0,0:0:0:0:
182,192,15759,1,0,0:0:0:0:
475,192,15859,128,0,15959:0:0:0:0:
402,192,15859,128,0,15959:0:0:0:0:
36,192,15959,1,0,0:0:0:0:
109,192,15959,1,0,0:0:0:0:
256,192,15959,1,0,0:0:0:0:
402,192,16059,128,0,16259:0:0:0:0:
475,192,16059,128,0,16259:0:0:0:0:
36,192,16159,1,0,0:0:0:0:
109,192,16159,1,0,0:0:0:0:
182,192,16159,1,0,0:0:0:0:
329,192,16259,1,0,0:0:0:0:
109,192,16359,1,0,0:0:0:0:
36,192,16359,1,0,0:0:0:0:
475,192,16359,128,0,16459:0:0:0:0:
256,192,16359,1,0,0:0:0:0:
402,192,16459,128,0,16559:0:0:0:0:
109,192,16559,1,0,0:0:0:0:
36,192,16559,1,0,0:0:0:0:
329,192,16559,128,0,16659:0:0:0:0:
182,192,16559,1,0,0:0:0:0:
256,192,16659,128,0,16759:0:0:0:0:
402,192,16759,1,0,0:0:0:0:
475,192,16759,1,0,0:0:0:0:
182,192,16759,128,0,16859:0:0:0:0:
36,192,16759,1,0,0:0:0:0:
256,192,16859,1,0,0:0:0:0:
329,192,16859,1,0,0:0:0:0:
109,192,16859,128,0,16959:0:0:0:0:
402,192,16959,1,0,0:0:0:0:
329,192,16959,1,0,0:0:0:0:
475,192,16959,1,0,0:0:0:0:
36,192,16959,128,0,17059:0:0:0:0:
182,192,16959,128,0,17059:0:0:0:0:
329,192,17159,1,0,0:0:0:0:
475,192,17159,1,0,0:0:0:0:
402,192,17159,1,0,0:0:0:0:
182,192,17159,128,0,17259:0:0:0:0:
256,192,17159,128,0,17259:0:0:0:0:
36,192,17259,128,0,17359:0:0:0:0:
109,192,17259,128,0,17359:0:0:0:0:
475,192,17359,1,0,0:0:0:0:
402,192,17359,1,0,0:0:0:0:
329,192,17359,1,0,0:0:0:0:
182,192,17459,128,0,17559:0:0:0:0:
109,192,17459,128,0,17559:0:0:0:0:
256,192,17559,1,0,0:0:0:0:
402,192,17559,1,0,0:0:0:0:
475,192,17559,1,0,0:0:0:0:
36,192,17659,128,0,17759:0:0:0:0:
109,192,17659,128,0,17759:0:0:0:0:
475,192,17759,1,0,0:0:0:0:
402,192,17759,1,0,0:0:0:0:
329,192,17759,1,0,0:0:0:0:
109,192,17859,128,0,17959:0:0:0:0:
402,192,17959,1,0,0:0:0:0:
475,192,17959,1,0,0:0:0:0:
182,192,17959,128,0,18059:0:0:0:0:
256,192,17959,1,0,0:0:0:0:
109,192,18059,128,0,18159:0:0:0:0:
475,192,18159,1,0,0:0:0:0:
182,192,18159,1,0,0:0:0:0:
36,192,18159,128,0,18259:0:0:0:0:
402,192,18159,1,0,0:0:0:0:
256,192,18259,1,0,0:0:0:0:
329,192,18259,1,0,0:0:0:0:
109,192,18259,128,0,18359:0:0:0:0:
475,192,18359,1,0,0:0:0:0:
182,192,18359,128,0,18459:0:0:0:0:
402,192,18359,1,0,0:0:0:0:
256,192,18459,128,0,18559:0:0:0:0:
109,192,18459,1,0,0:0:0:0:
36,192,18459,1,0,0:0:0:0:
182,192,18559,1,0,0:0:0:0:
109,192,18559,1,0,0:0:0:0:
36,192,18559,1,0,0:0:0:0:
402,192,18559,128,0,18759:0:0:0:0:
475,192,18559,128,0,18759:0:0:0:0:
329,192,18559,1,0,0:0:0:0:
109,192,18759,128,0,18859:0:0:0:0:
256,192,18759,128,0,18859:0:0:0:0:
182,192,18859,1,0,0:0:0:0:
36,192,18859,1,0,0:0:0:0:
329,192,18859,1,0,0:0:0:0:
402,192,18859,1,0,0:0:0:0:
475,192,18859,1,0,0:0:0:0:
109,192,18959,1,0,0:0:0:0:
256,192,18959,1,0,0:0:0:0:
475,192,18959,1,0,0:0:0:0:
402,192,18959,1,0,0:0:0:0:
475,192,19059,1,0,0:0:0:0:
36,192,19059,128,0,19259:0:0:0:0:
402,192,19059,1,0,0:0:0:0:
329,192,19059,1,0,0:0:0:0:
109,192,19059,128,0,19259:0:0:0:0:
182,192,19059,1,0,0:0:0:0:
402,192,19259,128,0,19359:0:0:0:0:
256,192,19259,128,0,19359:0:0:0:0:
329,192,19359,1,0,0:0:0:0:
36,192,19359,1,0,0:0:0:0:
475,192,19359,1,0,0:0:0:0:
109,192,19359,1,0,0:0:0:0:
182,192,19359,1,0,0:0:0:0:
109,192,19559,128,0,19659:0:0:0:0:
36,192,19559,128,0,19659:0:0:0:0:
329,192,19559,1,0,0:0:0:0:
402,192,19559,1,0,0:0:0:0:
475,192,19559,1,0,0:0:0:0:
182,192,19559,1,0,0:0:0:0:
402,192,19659,128,0,19859:0:0:0:0:
256,192,19659,128,0,19859:0:0:0:0:
475,192,19859,1,0,0:0:0:0:
109,192,19859,1,0,0:0:0:0:
36,192,19859,1,0,0:0:0:0:
182,192,19859,1,0,0:0:0:0:
329,192,19859,1,0,0:0:0:0:
109,192,19959,1,0,0:0:0:0:
36,192,19959,1,0,0:0:0:0:
402,192,19959,1,0,0:0:0:0:
256,192,19959,1,0,0:0:0:0:
109,192,20059,1,0,0:0:0:0:
36,192,20059,1,0,0:0:0:0:
402,192,20059,128,0,20159:0:0:0:0:
475,192,20059,128,0,20159:0:0:0:0:
182,192,20059,1,0,0:0:0:0:
329,192,20059,1,0,0:0:0:0:
256,192,20159,128,0,20359:0:0:0:0:
109,192,20159,128,0,20359:0:0:0:0:
182,192,20359,1,0,0:0:0:0:
36,192,20359,1,0,0:0:0:0:
329,192,20359,1,0,0:0:0:0:
402,192,20359,1,0,0:0:0:0:
475,192,20359,1,0,0:0:0:0:
36,192,20559,128,0,20659:0:0:0:0:
475,192,20559,128,0,20659:0:0:0:0:
182,192,20559,1,0,0:0:0:0:
256,192,20559,1,0,0:0:0:0:
329,192,20559,1,0,0:0:0:0:
109,192,20659,128,0,20759:0:0:0:0:
402,192,20659,128,0,20759:0:0:0:0:
182,192,20759,128,0,20859:0:0:0:0:
329,192,20759,128,0,20859:0:0:0:0:
36,192,20759,1,0,0:0:0:0:
475,192,20759,1,0,0:0:0:0:
109,192,20859,128,0,20959:0:0:0:0:
402,192,20859,128,0,20959:0:0:0:0:
182,192,20959,128,0,21059:0:0:0:0:
329,192,20959,128,0,21059:0:0:0:0:
475,192,20959,1,0,0:0:0:0:
36,192,20959,1,0,0:0:0:0:
256,192,21059,128,0,21159:0:0:0:0:
36,192,21159,128,0,21259:0:0:0:0:
475,192,21159,128,0,21259:0:0:0:0:
402,192,21159,1,0,0:0:0:0:
329,192,21159,1,0,0:0:0:0:
182,192,21159,1,0,0:0:0:0:
109,192,21159,1,0,0:0:0:0:
36,192,21359,128,0,21459:0:0:0:0:
109,192,21359,128,0,21459:0:0:0:0:
402,192,21359,128,0,21459:0:0:0:0:
475,192,21359,128,0,21459:0:0:0:0:
182,192,21359,1,0,0:0:0:0:
329,192,21359,1,0,0:0:0:0:
36,192,21559,128,0,21659:0:0:0:0:
109,192,21559,128,0,21659:0:0:0:0:
182,192,21559,128,0,21659:0:0:0:0:
329,192,21559,128,0,21659:0:0:0:0:
402,192,21559,128,0,21659:0:0:0:0:
475,192,21559,128,0,21659:0:0:0:0:
36,192,21759,1,0,0:0:0:0:
109,192,21759,1,0,0:0:0:0:
182,192,21759,1,0,0:0:0:0:
329,192,21759,1,0,0:0:0:0:
402,192,21759,1,0,0:0:0:0:
475,192,21759,1,0,0:0:0:0:
402,192,21946,1,0,0:0:0:0:
475,192,21959,1,0,0:0:0:0:
256,192,22046,1,0,0:0:0:0:
182,192,22059,1,0,0:0:0:0:
329,192,22146,1,0,0:0:0:0:
402,192,22159,1,0,0:0:0:0:
182,192,22246,1,0,0:0:0:0:
109,192,22259,1,0,0:0:0:0:
256,192,22346,1,0,0:0:0:0:
329,192,22359,1,0,0:0:0:0:
109,192,22446,1,0,0:0:0:0:
36,192,22459,1,0,0:0:0:0:
182,192,22546,1,0,0:0:0:0:
256,192,22559,1,0,0:0:0:0:
475,192,22646,1,0,0:0:0:0:
402,192,22659,1,0,0:0:0:0:
109,192,22746,1,0,0:0:0:0:
182,192,22759,1,0,0:0:0:0:
402,192,22846,1,0,0:0:0:0:
329,192,22859,1,0,0:0:0:0:
256,192,22959,1,0,0:0:0:0:
182,192,22959,1,0,0:0:0:0:
109,192,22959,1,0,0:0:0:0:
475,192,22959,1,0,0:0:0:0:
36,192,22959,128,0,23559:0:0:0:0:
402,192,22959,128,0,23559:0:0:0:0:
182,192,23359,128,0,23559:0:0:0:0:
109,192,23559,128,0,24159:0:0:0:0:
256,192,23559,128,0,24159:0:0:0:0:
475,192,23959,128,0,24159:0:0:0:0:
182,192,24159,128,0,24759:0:0:0:0:
402,192,24159,128,0,24759:0:0:0:0:
329,192,24559,128,0,24659:0:0:0:0:
256,192,24659,128,0,24759:0:0:0:0:
109,192,24759,128,0,25359:0:0:0:0:
329,192,24759,128,0,25359:0:0:0:0:
475,192,25359,128,0,25959:0:0:0:0:
36,192,25359,128,0,25959:0:0:0:0:
182,192,25759,128,0,25859:0:0:0:0:
402,192,25959,128,0,26559:0:0:0:0:
182,192,25959,128,0,26559:0:0:0:0:
256,192,26359,128,0,26559:0:0:0:0:
329,192,26559,128,0,27159:0:0:0:0:
109,192,26559,128,0,27159:0:0:0:0:
182,192,26959,128,0,27059:0:0:0:0:
36,192,27059,128,0,27159:0:0:0:0:
402,192,27159,128,0,27759:0:0:0:0:
182,192,27159,128,0,27759:0:0:0:0:
329,192,27759,128,0,28159:0:0:0:0:
256,192,27759,1,0,0:0:0:0:
109,192,27759,1,0,0:0:0:0:
36,192,27759,1,0,0:0:0:0:
182,192,27959,1,0,0:0:0:0:
475,192,27959,1,0,0:0:0:0:
36,192,28159,128,0,28359:0:0:0:0:
182,192,28159,1,0,0:0:0:0:
475,192,28159,1,0,0:0:0:0:
109,192,28359,128,0,28759:0:0:0:0:
256,192,28359,1,0,0:0:0:0:
402,192,28359,1,0,0:0:0:0:
329,192,28359,1,0,0:0:0:0:
329,192,28559,1,0,0:0:0:0:
475,192,28559,1,0,0:0:0:0:
256,192,28759,128,0,28959:0:0:0:0:
329,192,28759,1,0,0:0:0:0:
475,192,28759,1,0,0:0:0:0:
182,192,28959,128,0,29359:0:0:0:0:
36,192,28959,1,0,0:0:0:0:
402,192,28959,1,0,0:0:0:0:
109,192,28959,1,0,0:0:0:0:
329,192,29159,1,0,0:0:0:0:
256,192,29159,1,0,0:0:0:0:
402,192,29259,1,0,0:0:0:0:
475,192,29259,1,0,0:0:0:0:
109,192,29359,128,0,29459:0:0:0:0:
256,192,29359,1,0,0:0:0:0:
402,192,29359,1,0,0:0:0:0:
475,192,29359,1,0,0:0:0:0:
36,192,29459,128,0,29559:0:0:0:0:
109,192,29559,128,0,29959:0:0:0:0:
182,192,29559,1,0,0:0:0:0:
329,192,29559,1,0,0:0:0:0:
475,192,29559,1,0,0:0:0:0:
256,192,29759,1,0,0:0:0:0:
329,192,29759,1,0,0:0:0:0:
475,192,29759,1,0,0:0:0:0:
329,192,29959,1,0,0:0:0:0:
475,192,29959,1,0,0:0:0:0:
256,192,30059,1,0,0:0:0:0:
402,192,30059,1,0,0:0:0:0:
182,192,30109,1,0,0:0:0:0:
329,192,30109,1,0,0:0:0:0:
36,192,30159,128,0,30559:0:0:0:0:
109,192,30159,1,0,0:0:0:0:
256,192,30159,1,0,0:0:0:0:
475,192,30159,1,0,0:0:0:0:
109,192,30359,1,0,0:0:0:0:
329,192,30359,1,0,0:0:0:0:
475,192,30359,1,0,0:0:0:0:
329,192,30559,128,0,30659:0:0:0:0:
256,192,30559,1,0,0:0:0:0:
109,192,30559,1,0,0:0:0:0:
475,192,30559,1,0,0:0:0:0:
329,192,30759,128,0,31159:0:0:0:0:
402,192,30759,1,0,0:0:0:0:
182,192,30759,1,0,0:0:0:0:
36,192,30759,1,0,0:0:0:0:
402,192,30959,1,0,0:0:0:0:
256,192,30959,1,0,0:0:0:0:
36,192,30959,1,0,0:0:0:0:
475,192,31159,128,0,31359:0:0:0:0:
402,192,31159,1,0,0:0:0:0:
182,192,31159,1,0,0:0:0:0:
36,192,31159,1,0,0:0:0:0:
402,192,31359,128,0,31759:0:0:0:0:
182,192,31359,1,0,0:0:0:0:
36,192,31359,1,0,0:0:0:0:
256,192,31359,1,0,0:0:0:0:
36,192,31459,1,0,0:0:0:0:
182,192,31459,1,0,0:0:0:0:
475,192,31459,1,0,0:0:0:0:
329,192,31559,1,0,0:0:0:0:
256,192,31559,1,0,0:0:0:0:
109,192,31559,1,0,0:0:0:0:
109,192,31659,1,0,0:0:0:0:
256,192,31659,1,0,0:0:0:0:
475,192,31659,1,0,0:0:0:0:
329,192,31759,128,0,31859:0:0:0:0:
182,192,31759,1,0,0:0:0:0:
36,192,31759,1,0,0:0:0:0:
182,192,31859,128,0,31959:0:0:0:0:
475,192,31859,1,0,0:0:0:0:
36,192,31859,1,0,0:0:0:0:
256,192,31959,128,0,32559:0:0:0:0:
329,192,31959,1,0,0:0:0:0:
109,192,31959,128,0,32359:0:0:0:0:
402,192,31959,128,0,32359:0:0:0:0:
329,192,32559,1,0,0:0:0:0:
402,192,32559,1,0,0:0:0:0:
475,192,32559,1,0,0:0:0:0:
36,192,32559,128,0,33059:0:0:0:0:
182,192,32559,128,0,33059:0:0:0:0:
329,192,32759,128,0,32809:0:0:0:0:
402,192,32759,128,0,32809:0:0:0:0:
109,192,32959,128,0,33059:0:0:0:0:
402,192,32959,1,0,0:0:0:0:
475,192,32959,1,0,0:0:0:0:
256,192,32959,1,0,0:0:0:0:
109,192,33159,1,0,0:0:0:0:
36,192,33159,1,0,0:0:0:0:
329,192,33159,128,0,33559:0:0:0:0:
475,192,33159,128,0,33759:0:0:0:0:
109,192,33359,128,0,33409:0:0:0:0:
36,192,33359,128,0,33409:0:0:0:0:
182,192,33359,1,0,0:0:0:0:
256,192,33359,1,0,0:0:0:0:
402,192,33559,128,0,33659:0:0:0:0:
182,192,33559,1,0,0:0:0:0:
109,192,33559,1,0,0:0:0:0:
36,192,33559,1,0,0:0:0:0:
329,192,33659,128,0,33759:0:0:0:0:
256,192,33759,128,0,33959:0:0:0:0:
36,192,33759,1,0,0:0:0:0:
402,192,33759,1,0,0:0:0:0:
109,192,33759,1,0,0:0:0:0:
329,192,33959,128,0,34159:0:0:0:0:
182,192,33959,128,0,34009:0:0:0:0:
109,192,33959,128,0,34009:0:0:0:0:
475,192,33959,1,0,0:0:0:0:
402,192,34159,128,0,34359:0:0:0:0:
182,192,34159,1,0,0:0:0:0:
256,192,34159,1,0,0:0:0:0:
36,192,34159,1,0,0:0:0:0:
329,192,34359,128,0,34859:0:0:0:0:
182,192,34359,128,0,34859:0:0:0:0:
109,192,34359,1,0,0:0:0:0:
475,192,34359,1,0,0:0:0:0:
402,192,34559,128,0,34609:0:0:0:0:
475,192,34559,128,0,34609:0:0:0:0:
256,192,34759,128,0,34859:0:0:0:0:
36,192,34759,1,0,0:0:0:0:
402,192,34759,1,0,0:0:0:0:
475,192,34759,1,0,0:0:0:0:
36,192,34959,128,0,35159:0:0:0:0:
109,192,34959,1,0,0:0:0:0:
256,192,34959,1,0,0:0:0:0:
402,192,34959,1,0,0:0:0:0:
109,192,35159,128,0,35359:0:0:0:0:
182,192,35159,1,0,0:0:0:0:
475,192,35159,128,0,35209:0:0:0:0:
329,192,35159,128,0,35209:0:0:0:0:
182,192,35359,128,0,35559:0:0:0:0:
256,192,35359,1,0,0:0:0:0:
36,192,35359,1,0,0:0:0:0:
402,192,35359,1,0,0:0:0:0:
256,192,35559,128,0,35759:0:0:0:0:
329,192,35559,1,0,0:0:0:0:
109,192,35559,1,0,0:0:0:0:
475,192,35559,1,0,0:0:0:0:
329,192,35759,128,0,35959:0:0:0:0:
402,192,35759,1,0,0:0:0:0:
182,192,35759,128,0,35809:0:0:0:0:
36,192,35759,128,0,35809:0:0:0:0:
402,192,35959,128,0,36159:0:0:0:0:
475,192,35959,1,0,0:0:0:0:
256,192,35959,1,0,0:0:0:0:
109,192,35959,1,0,0:0:0:0:
475,192,36159,128,0,36459:0:0:0:0:
329,192,36159,128,0,36459:0:0:0:0:
36,192,36159,1,0,0:0:0:0:
182,192,36159,1,0,0:0:0:0:
109,192,36159,1,0,0:0:0:0:
256,192,36359,128,0,36459:0:0:0:0:
36,192,36359,128,0,36409:0:0:0:0:
109,192,36359,128,0,36409:0:0:0:0:
182,192,36659,1,0,0:0:0:0:
109,192,36659,128,0,36709:0:0:0:0:
402,192,36659,128,0,36709:0:0:0:0:
329,192,36659,1,0,0:0:0:0:
109,192,36759,128,0,37159:0:0:0:0:
402,192,36759,128,0,37159:0:0:0:0:
329,192,36759,1,0,0:0:0:0:
182,192,36759,1,0,0:0:0:0:
36,192,36959,1,0,0:0:0:0:
475,192,36959,1,0,0:0:0:0:
182,192,36959,128,0,37009:0:0:0:0:
329,192,36959,128,0,37009:0:0:0:0:
36,192,37159,1,0,0:0:0:0:
475,192,37159,1,0,0:0:0:0:
109,192,37209,1,0,0:0:0:0:
402,192,37209,1,0,0:0:0:0:
182,192,37259,1,0,0:0:0:0:
329,192,37259,1,0,0:0:0:0:
256,192,37309,1,0,0:0:0:0:
36,192,37359,1,0,0:0:0:0:
109,192,37359,1,0,0:0:0:0:
475,192,37359,1,0,0:0:0:0:
402,192,37359,1,0,0:0:0:0:
182,192,37409,1,0,0:0:0:0:
256,192,37459,1,0,0:0:0:0:
36,192,37559,1,0,0:0:0:0:
475,192,37559,128,0,37609:0:0:0:0:
329,192,37559,128,0,37609:0:0:0:0:
182,192,37659,1,0,0:0:0:0:
402,192,37759,1,0,0:0:0:0:
475,192,37759,1,0,0:0:0:0:
36,192,37759,1,0,0:0:0:0:
256,192,37759,1,0,0:0:0:0:
182,192,37859,1,0,0:0:0:0:
475,192,37959,1,0,0:0:0:0:
256,192,37959,1,0,0:0:0:0:
109,192,37959,1,0,0:0:0:0:
329,192,38059,1,0,0:0:0:0:
475,192,38159,1,0,0:0:0:0:
182,192,38159,128,0,38209:0:0:0:0:
36,192,38159,128,0,38209:0:0:0:0:
256,192,38159,1,0,0:0:0:0:
329,192,38259,1,0,0:0:0:0:
475,192,38359,1,0,0:0:0:0:
109,192,38359,1,0,0:0:0:0:
36,192,38359,1,0,0:0:0:0:
182,192,38359,1,0,0:0:0:0:
402,192,38409,1,0,0:0:0:0:
329,192,38459,1,0,0:0:0:0:
256,192,38509,1,0,0:0:0:0:
182,192,38559,1,0,0:0:0:0:
402,192,38559,1,0,0:0:0:0:
475,192,38559,1,0,0:0:0:0:
109,192,38559,1,0,0:0:0:0:
36,192,38659,1,0,0:0:0:0:
256,192,38759,1,0,0:0:0:0:
182,192,38759,1,0,0:0:0:0:
402,192,38759,128,0,38809:0:0:0:0:
475,192,38759,128,0,38809:0:0:0:0:
109,192,38859,1,0,0:0:0:0:
329,192,38959,1,0,0:0:0:0:
402,192,38959,1,0,0:0:0:0:
475,192,38959,1,0,0:0:0:0:
256,192,38959,1,0,0:0:0:0:
182,192,39059,1,0,0:0:0:0:
329,192,39159,1,0,0:0:0:0:
109,192,39159,1,0,0:0:0:0:
36,192,39159,1,0,0:0:0:0:
475,192,39159,1,0,0:0:0:0:
256,192,39209,1,0,0:0:0:0:
182,192,39259,1,0,0:0:0:0:
402,192,39359,1,0,0:0:0:0:
109,192,39359,128,0,39409:0:0:0:0:
36,192,39359,128,0,39409:0:0:0:0:
256,192,39459,1,0,0:0:0:0:
402,192,39559,1,0,0:0:0:0:
36,192,39559,1,0,0:0:0:0:
475,192,39559,1,0,0:0:0:0:
329,192,39559,1,0,0:0:0:0:
109,192,39592,1,0,0:0:0:0:
182,192,39625,1,0,0:0:0:0:
256,192,39659,1,0,0:0:0:0:
329,192,39692,1,0,0:0:0:0:
402,192,39725,1,0,0:0:0:0:
475,192,39759,1,0,0:0:0:0:
182,192,39759,1,0,0:0:0:0:
109,192,39759,1,0,0:0:0:0:
36,192,39759,1,0,0:0:0:0:
329,192,39859,1,0,0:0:0:0:
36,192,39959,1,0,0:0:0:0:
402,192,39959,1,0,0:0:0:0:
182,192,39959,128,0,40009:0:0:0:0:
109,192,39959,128,0,40009:0:0:0:0:
256,192,40059,1,0,0:0:0:0:
182,192,40159,1,0,0:0:0:0:
109,192,40159,1,0,0:0:0:0:
36,192,40159,1,0,0:0:0:0:
475,192,40159,1,0,0:0:0:0:
256,192,40259,1,0,0:0:0:0:
329,192,40359,1,0,0:0:0:0:
402,192,40359,1,0,0:0:0:0:
475,192,40359,1,0,0:0:0:0:
36,192,40359,1,0,0:0:0:0:
109,192,40409,1,0,0:0:0:0:
182,192,40459,1,0,0:0:0:0:
475,192,40559,1,0,0:0:0:0:
329,192,40559,128,0,40609:0:0:0:0:
402,192,40559,128,0,40609:0:0:0:0:
36,192,40559,1,0,0:0:0:0:
256,192,40659,1,0,0:0:0:0:
475,192,40759,1,0,0:0:0:0:
402,192,40759,1,0,0:0:0:0:
329,192,40759,1,0,0:0:0:0:
109,192,40759,1,0,0:0:0:0:
256,192,40859,1,0,0:0:0:0:
182,192,40959,1,0,0:0:0:0:
36,192,40959,1,0,0:0:0:0:
109,192,40959,1,0,0:0:0:0:
475,192,40959,1,0,0:0:0:0:
402,192,41009,1,0,0:0:0:0:
329,192,41059,1,0,0:0:0:0:
256,192,41159,1,0,0:0:0:0:
475,192,41159,1,0,0:0:0:0:
109,192,41159,128,0,41209:0:0:0:0:
36,192,41159,128,0,41209:0:0:0:0:
182,192,41259,1,0,0:0:0:0:
109,192,41359,1,0,0:0:0:0:
256,192,41459,1,0,0:0:0:0:
402,192,41459,1,0,0:0:0:0:
475,192,41459,1,0,0:0:0:0:
329,192,41459,1,0,0:0:0:0:
182,192,41509,1,0,0:0:0:0:
36,192,41559,1,0,0:0:0:0:
475,192,41559,128,0,41959:0:0:0:0:
109,192,41559,1,0,0:0:0:0:
402,192,41559,1,0,0:0:0:0:
329,192,41659,1,0,0:0:0:0:
256,192,41709,1,0,0:0:0:0:
109,192,41759,1,0,0:0:0:0:
182,192,41759,1,0,0:0:0:0:
36,192,41759,1,0,0:0:0:0:
402,192,41809,1,0,0:0:0:0:
329,192,41859,1,0,0:0:0:0:
256,192,41909,1,0,0:0:0:0:
109,192,41959,1,0,0:0:0:0:
36,192,41959,1,0,0:0:0:0:
182,192,41959,1,0,0:0:0:0:
402,192,42009,1,0,0:0:0:0:
475,192,42009,1,0,0:0:0:0:
329,192,42009,1,0,0:0:0:0:
36,192,42059,1,0,0:0:0:0:
109,192,42059,1,0,0:0:0:0:
182,192,42059,1,0,0:0:0:0:
402,192,42109,1,0,0:0:0:0:
475,192,42109,1,0,0:0:0:0:
329,192,42109,1,0,0:0:0:0:
256,192,42159,128,0,42559:0:0:0:0:
182,192,42159,1,0,0:0:0:0:
109,192,42159,1,0,0:0:0:0:
36,192,42159,1,0,0:0:0:0:
182,192,42359,1,0,0:0:0:0:
109,192,42359,1,0,0:0:0:0:
329,192,42359,1,0,0:0:0:0:
402,192,42359,1,0,0:0:0:0:
475,192,42359,1,0,0:0:0:0:
109,192,42559,128,0,42759:0:0:0:0:
402,192,42559,1,0,0:0:0:0:
329,192,42559,1,0,0:0:0:0:
182,192,42559,1,0,0:0:0:0:
475,192,42559,1,0,0:0:0:0:
329,192,42759,128,0,43159:0:0:0:0:
256,192,42759,1,0,0:0:0:0:
182,192,42759,1,0,0:0:0:0:
402,192,42759,1,0,0:0:0:0:
475,192,42759,1,0,0:0:0:0:
256,192,42959,1,0,0:0:0:0:
182,192,42959,1,0,0:0:0:0:
109,192,42959,1,0,0:0:0:0:
402,192,42959,1,0,0:0:0:0:
475,192,42959,1,0,0:0:0:0:
256,192,43159,128,0,43259:0:0:0:0:
402,192,43159,1,0,0:0:0:0:
182,192,43159,1,0,0:0:0:0:
109,192,43159,1,0,0:0:0:0:
475,192,43159,1,0,0:0:0:0:
182,192,43259,128,0,43359:0:0:0:0:
329,192,43359,128,0,43559:0:0:0:0:
109,192,43359,1,0,0:0:0:0:
402,192,43359,1,0,0:0:0:0:
475,192,43359,1,0,0:0:0:0:
256,192,43359,1,0,0:0:0:0:
402,192,43559,128,0,43759:0:0:0:0:
475,192,43559,1,0,0:0:0:0:
182,192,43559,1,0,0:0:0:0:
109,192,43559,1,0,0:0:0:0:
256,192,43559,1,0,0:0:0:0:
475,192,43759,128,0,43959:0:0:0:0:
329,192,43759,1,0,0:0:0:0:
182,192,43759,1,0,0:0:0:0:
109,192,43759,1,0,0:0:0:0:
256,192,43759,1,0,0:0:0:0:
182,192,43959,128,0,44359:0:0:0:0:
109,192,43959,1,0,0:0:0:0:
329,192,43959,1,0,0:0:0:0:
256,192,43959,1,0,0:0:0:0:
402,192,43959,1,0,0:0:0:0:
475,192,44159,1,0,0:0:0:0:
402,192,44159,1,0,0:0:0:0:
329,192,44159,1,0,0:0:0:0:
256,192,44159,1,0,0:0:0:0:
109,192,44159,1,0,0:0:0:0:
109,192,44359,128,0,44559:0:0:0:0:
402,192,44359,1,0,0:0:0:0:
475,192,44359,1,0,0:0:0:0:
329,192,44359,1,0,0:0:0:0:
256,192,44359,1,0,0:0:0:0:
402,192,44459,1,0,0:0:0:0:
475,192,44459,1,0,0:0:0:0:
329,192,44509,1,0,0:0:0:0:
256,192,44509,1,0,0:0:0:0:
36,192,44559,128,0,44759:0:0:0:0:
475,192,44559,1,0,0:0:0:0:
402,192,44559,1,0,0:0:0:0:
182,192,44559,1,0,0:0:0:0:
109,192,44759,128,0,44959:0:0:0:0:
182,192,44759,1,0,0:0:0:0:
256,192,44759,1,0,0:0:0:0:
329,192,44759,1,0,0:0:0:0:
402,192,44759,1,0,0:0:0:0:
182,192,44959,128,0,45159:0:0:0:0:
402,192,44959,1,0,0:0:0:0:
329,192,44959,1,0,0:0:0:0:
256,192,44959,1,0,0:0:0:0:
36,192,44959,1,0,0:0:0:0:
256,192,45159,128,0,45359:0:0:0:0:
109,192,45159,1,0,0:0:0:0:
36,192,45159,1,0,0:0:0:0:
329,192,45159,1,0,0:0:0:0:
402,192,45159,1,0,0:0:0:0:
329,192,45359,128,0,45559:0:0:0:0:
402,192,45359,1,0,0:0:0:0:
182,192,45359,1,0,0:0:0:0:
109,192,45359,1,0,0:0:0:0:
36,192,45359,1,0,0:0:0:0:
402,192,45559,128,0,45759:0:0:0:0:
109,192,45559,1,0,0:0:0:0:
36,192,45559,1,0,0:0:0:0:
182,192,45559,1,0,0:0:0:0:
256,192,45559,1,0,0:0:0:0:
329,192,45759,128,0,46159:0:0:0:0:
256,192,45759,1,0,0:0:0:0:
182,192,45759,1,0,0:0:0:0:
109,192,45759,1,0,0:0:0:0:
36,192,45759,1,0,0:0:0:0:
256,192,45959,1,0,0:0:0:0:
182,192,45959,1,0,0:0:0:0:
109,192,45959,1,0,0:0:0:0:
36,192,45959,1,0,0:0:0:0:
402,192,45959,1,0,0:0:0:0:
182,192,46159,128,0,46359:0:0:0:0:
256,192,46159,1,0,0:0:0:0:
109,192,46159,1,0,0:0:0:0:
36,192,46159,1,0,0:0:0:0:
402,192,46159,1,0,0:0:0:0:
402,192,46359,128,0,46759:0:0:0:0:
329,192,46359,1,0,0:0:0:0:
256,192,46359,1,0,0:0:0:0:
109,192,46359,1,0,0:0:0:0:
36,192,46359,1,0,0:0:0:0:
36,192,46559,1,0,0:0:0:0:
109,192,46559,1,0,0:0:0:0:
182,192,46559,1,0,0:0:0:0:
256,192,46559,1,0,0:0:0:0:
329,192,46559,1,0,0:0:0:0:
36,192,46759,1,0,0:0:0:0:
256,192,46759,1,0,0:0:0:0:
475,192,46759,1,0,0:0:0:0:
109,192,46809,1,0,0:0:0:0:
329,192,46809,1,0,0:0:0:0:
182,192,46859,1,0,0:0:0:0:
402,192,46859,1,0,0:0:0:0:
256,192,46909,1,0,0:0:0:0:
475,192,46909,1,0,0:0:0:0:
329,192,46959,128,0,47359:0:0:0:0:
109,192,46959,1,0,0:0:0:0:
36,192,46959,1,0,0:0:0:0:
402,192,47059,1,0,0:0:0:0:
256,192,47059,1,0,0:0:0:0:
109,192,47159,1,0,0:0:0:0:
36,192,47159,1,0,0:0:0:0:
182,192,47159,1,0,0:0:0:0:
475,192,47259,1,0,0:0:0:0:
402,192,47259,1,0,0:0:0:0:
109,192,47359,128,0,47559:0:0:0:0:
182,192,47359,1,0,0:0:0:0:
256,192,47359,1,0,0:0:0:0:
329,192,47459,1,0,0:0:0:0:
475,192,47459,1,0,0:0:0:0:
402,192,47559,128,0,47959:0:0:0:0:
182,192,47559,1,0,0:0:0:0:
36,192,47559,1,0,0:0:0:0:
329,192,47659,1,0,0:0:0:0:
256,192,47659,1,0,0:0:0:0:
182,192,47759,1,0,0:0:0:0:
109,192,47759,1,0,0:0:0:0:
36,192,47759,1,0,0:0:0:0:
256,192,47859,1,0,0:0:0:0:
329,192,47859,1,0,0:0:0:0:
182,192,47959,128,0,48059:0:0:0:0:
475,192,47959,1,0,0:0:0:0:
36,192,47959,1,0,0:0:0:0:
109,192,48059,128,0,48159:0:0:0:0:
329,192,48059,1,0,0:0:0:0:
256,192,48059,1,0,0:0:0:0:
36,192,48159,128,0,48359:0:0:0:0:
402,192,48159,1,0,0:0:0:0:
475,192,48159,1,0,0:0:0:0:
182,192,48259,1,0,0:0:0:0:
256,192,48259,1,0,0:0:0:0:
109,192,48359,128,0,48559:0:0:0:0:
402,192,48359,1,0,0:0:0:0:
475,192,48359,1,0,0:0:0:0:
329,192,48459,1,0,0:0:0:0:
256,192,48459,1,0,0:0:0:0:
182,192,48559,128,0,48759:0:0:0:0:
402,192,48559,1,0,0:0:0:0:
475,192,48559,1,0,0:0:0:0:
109,192,48659,1,0,0:0:0:0:
36,192,48659,1,0,0:0:0:0:
329,192,48759,128,0,49159:0:0:0:0:
475,192,48759,1,0,0:0:0:0:
402,192,48759,1,0,0:0:0:0:
182,192,48859,1,0,0:0:0:0:
256,192,48859,1,0,0:0:0:0:
109,192,48959,1,0,0:0:0:0:
36,192,48959,1,0,0:0:0:0:
402,192,48959,1,0,0:0:0:0:
256,192,49059,1,0,0:0:0:0:
182,192,49059,1,0,0:0:0:0:
475,192,49159,128,0,49359:0:0:0:0:
109,192,49159,1,0,0:0:0:0:
36,192,49159,1,0,0:0:0:0:
182,192,49259,1,0,0:0:0:0:
256,192,49259,1,0,0:0:0:0:
329,192,49359,1,0,0:0:0:0:
109,192,49359,1,0,0:0:0:0:
36,192,49359,128,0,49959:0:0:0:0:
256,192,49425,1,0,0:0:0:0:
475,192,49425,1,0,0:0:0:0:
182,192,49492,1,0,0:0:0:0:
402,192,49492,1,0,0:0:0:0:
109,192,49559,1,0,0:0:0:0:
329,192,49559,1,0,0:0:0:0:
256,192,49625,1,0,0:0:0:0:
475,192,49625,1,0,0:0:0:0:
402,192,49692,1,0,0:0:0:0:
182,192,49692,1,0,0:0:0:0:
109,192,49759,1,0,0:0:0:0:
329,192,49759,1,0,0:0:0:0:
256,192,49825,1,0,0:0:0:0:
475,192,49825,1,0,0:0:0:0:
402,192,49892,1,0,0:0:0:0:
182,192,49892,1,0,0:0:0:0:
109,192,49959,1,0,0:0:0:0:
329,192,49959,1,0,0:0:0:0:
475,192,49959,128,0,50559:0:0:0:0:
36,192,50025,1,0,0:0:0:0:
256,192,50025,1,0,0:0:0:0:
182,192,50092,1,0,0:0:0:0:
402,192,50092,1,0,0:0:0:0:
329,192,50159,1,0,0:0:0:0:
109,192,50159,1,0,0:0:0:0:
36,192,50225,1,0,0:0:0:0:
256,192,50225,1,0,0:0:0:0:
182,192,50292,1,0,0:0:0:0:
402,192,50292,1,0,0:0:0:0:
329,192,50359,1,0,0:0:0:0:
109,192,50359,1,0,0:0:0:0:
36,192,50425,1,0,0:0:0:0:
256,192,50425,1,0,0:0:0:0:
182,192,50492,1,0,0:0:0:0:
402,192,50492,1,0,0:0:0:0:
109,192,50559,1,0,0:0:0:0:
36,192,50559,1,0,0:0:0:0:
256,192,50559,128,0,51759:0:0:0:0:
182,192,50609,1,0,0:0:0:0:
402,192,50659,1,0,0:0:0:0:
475,192,50659,1,0,0:0:0:0:
329,192,50709,1,0,0:0:0:0:
36,192,50759,1,0,0:0:0:0:
109,192,50759,1,0,0:0:0:0:
182,192,50809,1,0,0:0:0:0:
475,192,50859,1,0,0:0:0:0:
402,192,50859,1,0,0:0:0:0:
329,192,50909,1,0,0:0:0:0:
36,192,50959,1,0,0:0:0:0:
109,192,50959,1,0,0:0:0:0:
182,192,51009,1,0,0:0:0:0:
475,192,51059,1,0,0:0:0:0:
402,192,51059,1,0,0:0:0:0:
329,192,51109,1,0,0:0:0:0:
182,192,51159,1,0,0:0:0:0:
109,192,51159,1,0,0:0:0:0:
329,192,51209,1,0,0:0:0:0:
402,192,51209,1,0,0:0:0:0:
182,192,51259,1,0,0:0:0:0:
109,192,51259,1,0,0:0:0:0:
329,192,51309,1,0,0:0:0:0:
402,192,51309,1,0,0:0:0:0:
182,192,51359,1,0,0:0:0:0:
109,192,51359,1,0,0:0:0:0:
329,192,51409,1,0,0:0:0:0:
402,192,51409,1,0,0:0:0:0:
109,192,51459,1,0,0:0:0:0:
182,192,51459,1,0,0:0:0:0:
329,192,51509,1,0,0:0:0:0:
402,192,51509,1,0,0:0:0:0:
182,192,51559,1,0,0:0:0:0:
109,192,51559,1,0,0:0:0:0:
329,192,51609,1,0,0:0:0:0:
402,192,51609,1,0,0:0:0:0:
182,192,51659,1,0,0:0:0:0:
109,192,51659,1,0,0:0:0:0:
329,192,51709,1,0,0:0:0:0:
402,192,51709,1,0,0:0:0:0:
182,192,51759,1,0,0:0:0:0:
109,192,51759,1,0,0:0:0:0:
475,192,51759,128,0,54159:0:0:0:0:
36,192,51759,1,0,0:0:0:0:
36,192,52559,128,0,52759:0:0:0:0:
109,192,52659,128,0,52859:0:0:0:0:
182,192,52759,128,0,52959:0:0:0:0:
256,192,52859,128,0,53059:0:0:0:0:
402,192,52959,128,0,53159:0:0:0:0:
329,192,53059,128,0,53259:0:0:0:0:
256,192,53159,128,0,53359:0:0:0:0:
182,192,53259,128,0,53459:0:0:0:0:
109,192,53359,128,0,53559:0:0:0:0:
36,192,53459,128,0,53659:0:0:0:0:
329,192,53559,128,0,53759:0:0:0:0:
402,192,53559,128,0,54159:0:0:0:0:
256,192,53659,128,0,53859:0:0:0:0:
182,192,53759,128,0,53959:0:0:0:0:
109,192,53859,128,0,54059:0:0:0:0:
329,192,53959,128,0,54159:0:0:0:0:
256,192,54059,128,0,54159:0:0:0:0:
36,192,54159,128,0,55359:0:0:0:0:
182,192,54159,1,0,0:0:0:0:
109,192,54159,1,0,0:0:0:0:
109,192,54859,128,0,55059:0:0:0:0:
182,192,54959,128,0,55159:0:0:0:0:
256,192,55059,128,0,55259:0:0:0:0:
329,192,55159,128,0,55359:0:0:0:0:
402,192,55259,128,0,55459:0:0:0:0:
256,192,55359,128,0,56559:0:0:0:0:
182,192,55359,1,0,0:0:0:0:
109,192,55359,1,0,0:0:0:0:
475,192,55359,128,0,55559:0:0:0:0:
329,192,55459,128,0,55659:0:0:0:0:
182,192,55559,128,0,55759:0:0:0:0:
36,192,55659,128,0,55859:0:0:0:0:
475,192,55759,128,0,55959:0:0:0:0:
402,192,55859,128,0,56059:0:0:0:0:
182,192,55959,128,0,56159:0:0:0:0:
109,192,56059,128,0,56259:0:0:0:0:
402,192,56159,128,0,56359:0:0:0:0:
329,192,56259,128,0,56459:0:0:0:0:
109,192,56359,128,0,56559:0:0:0:0:
36,192,56459,128,0,56559:0:0:0:0:
402,192,56559,128,0,56809:0:0:0:0:
475,192,56559,128,0,56809:0:0:0:0:
182,192,56559,1,0,0:0:0:0:
329,192,56559,128,0,56809:0:0:0:0:
109,192,56892,128,0,56975:0:0:0:0:
256,192,56892,128,0,56975:0:0:0:0:
36,192,56892,1,0,0:0:0:0:
475,192,56892,1,0,0:0:0:0:
182,192,57059,1,0,0:0:0:0:
329,192,57059,1,0,0:0:0:0:
182,192,57142,1,0,0:0:0:0:
329,192,57142,1,0,0:0:0:0:
256,192,57225,128,0,57309:0:0:0:0:
109,192,57225,128,0,57309:0:0:0:0:
36,192,57225,1,0,0:0:0:0:
475,192,57225,1,0,0:0:0:0:
329,192,57392,1,0,0:0:0:0:
182,192,57392,1,0,0:0:0:0:
329,192,57475,1,0,0:0:0:0:
182,192,57475,1,0,0:0:0:0:
256,192,57559,1,0,0:0:0:0:
109,192,57559,1,0,0:0:0:0:
36,192,57559,1,0,0:0:0:0:
402,192,57559,1,0,0:0:0:0:
329,192,57642,1,0,0:0:0:0:
475,192,57642,1,0,0:0:0:0:
36,192,57725,1,0,0:0:0:0:
182,192,57725,1,0,0:0:0:0:
182,192,57809,1,0,0:0:0:0:
36,192,57809,1,0,0:0:0:0:
475,192,57892,128,0,58017:0:0:0:0:
256,192,57892,1,0,0:0:0:0:
109,192,57892,1,0,0:0:0:0:
402,192,57934,128,0,58017:0:0:0:0:
329,192,57975,128,0,58017:0:0:0:0:
475,192,58059,1,0,0:0:0:0:
402,192,58059,1,0,0:0:0:0:
402,192,58142,1,0,0:0:0:0:
475,192,58142,1,0,0:0:0:0:
36,192,58225,1,0,0:0:0:0:
109,192,58225,1,0,0:0:0:0:
329,192,58225,1,0,0:0:0:0:
256,192,58225,1,0,0:0:0:0:
109,192,58309,1,0,0:0:0:0:
36,192,58309,1,0,0:0:0:0:
36,192,58392,1,0,0:0:0:0:
109,192,58392,1,0,0:0:0:0:
109,192,58475,1,0,0:0:0:0:
36,192,58475,1,0,0:0:0:0:
329,192,58559,1,0,0:0:0:0:
402,192,58559,1,0,0:0:0:0:
475,192,58559,1,0,0:0:0:0:
36,192,58642,128,0,58809:0:0:0:0:
109,192,58684,128,0,58809:0:0:0:0:
182,192,58725,128,0,58809:0:0:0:0:
402,192,58725,1,0,0:0:0:0:
182,192,58892,1,0,0:0:0:0:
109,192,58892,1,0,0:0:0:0:
36,192,58892,1,0,0:0:0:0:
256,192,58892,128,0,59225:0:0:0:0:
475,192,59059,1,0,0:0:0:0:
182,192,59225,128,0,59309:0:0:0:0:
329,192,59225,128,0,59559:0:0:0:0:
36,192,59225,1,0,0:0:0:0:
402,192,59225,1,0,0:0:0:0:
182,192,59392,128,0,59559:0:0:0:0:
109,192,59392,1,0,0:0:0:0:
402,192,59559,128,0,59642:0:0:0:0:
256,192,59559,128,0,59642:0:0:0:0:
475,192,59559,1,0,0:0:0:0:
36,192,59559,1,0,0:0:0:0:
329,192,59725,1,0,0:0:0:0:
182,192,59725,1,0,0:0:0:0:
329,192,59809,1,0,0:0:0:0:
182,192,59809,1,0,0:0:0:0:
256,192,59892,128,0,59975:0:0:0:0:
402,192,59892,128,0,59975:0:0:0:0:
475,192,59892,1,0,0:0:0:0:
36,192,59892,1,0,0:0:0:0:
182,192,60059,1,0,0:0:0:0:
329,192,60059,1,0,0:0:0:0:
182,192,60142,1,0,0:0:0:0:
329,192,60142,1,0,0:0:0:0:
256,192,60225,1,0,0:0:0:0:
402,192,60225,1,0,0:0:0:0:
475,192,60225,1,0,0:0:0:0:
109,192,60225,1,0,0:0:0:0:
182,192,60308,1,0,0:0:0:0:
36,192,60308,1,0,0:0:0:0:
475,192,60392,1,0,0:0:0:0:
329,192,60392,1,0,0:0:0:0:
329,192,60475,1,0,0:0:0:0:
475,192,60475,1,0,0:0:0:0:
36,192,60558,128,0,60683:0:0:0:0:
256,192,60558,1,0,0:0:0:0:
402,192,60558,1,0,0:0:0:0:
109,192,60600,128,0,60683:0:0:0:0:
182,192,60642,128,0,60683:0:0:0:0:
36,192,60725,1,0,0:0:0:0:
109,192,60725,1,0,0:0:0:0:
109,192,60808,1,0,0:0:0:0:
36,192,60808,1,0,0:0:0:0:
475,192,60892,1,0,0:0:0:0:
402,192,60892,1,0,0:0:0:0:
182,192,60892,1,0,0:0:0:0:
256,192,60892,1,0,0:0:0:0:
402,192,60975,1,0,0:0:0:0:
475,192,60975,1,0,0:0:0:0:
402,192,61058,128,0,61225:0:0:0:0:
475,192,61058,128,0,61225:0:0:0:0:
109,192,61225,1,0,0:0:0:0:
329,192,61225,128,0,61392:0:0:0:0:
36,192,61225,128,0,61392:0:0:0:0:
256,192,61225,1,0,0:0:0:0:
182,192,61392,128,0,61558:0:0:0:0:
475,192,61392,128,0,61558:0:0:0:0:
109,192,61558,128,0,61892:0:0:0:0:
402,192,61558,128,0,61892:0:0:0:0:
256,192,61558,1,0,0:0:0:0:
36,192,61558,1,0,0:0:0:0:
329,192,61725,1,0,0:0:0:0:
256,192,61892,1,0,0:0:0:0:
182,192,61892,1,0,0:0:0:0:
36,192,61892,1,0,0:0:0:0:
475,192,61892,1,0,0:0:0:0:
329,192,62058,1,0,0:0:0:0:
475,192,62058,1,0,0:0:0:0:
109,192,62058,1,0,0:0:0:0:
36,192,62058,1,0,0:0:0:0:
182,192,62225,128,0,62308:0:0:0:0:
36,192,62225,128,0,62308:0:0:0:0:
256,192,62225,1,0,0:0:0:0:
402,192,62225,1,0,0:0:0:0:
36,192,62392,1,0,0:0:0:0:
182,192,62392,1,0,0:0:0:0:
329,192,62392,1,0,0:0:0:0:
475,192,62392,1,0,0:0:0:0:
182,192,62475,1,0,0:0:0:0:
36,192,62475,1,0,0:0:0:0:
329,192,62558,128,0,62642:0:0:0:0:
475,192,62558,128,0,62642:0:0:0:0:
256,192,62558,1,0,0:0:0:0:
109,192,62558,1,0,0:0:0:0:
36,192,62725,1,0,0:0:0:0:
475,192,62725,1,0,0:0:0:0:
329,192,62725,1,0,0:0:0:0:
182,192,62725,1,0,0:0:0:0:
329,192,62808,1,0,0:0:0:0:
475,192,62808,1,0,0:0:0:0:
329,192,62892,1,0,0:0:0:0:
475,192,62892,1,0,0:0:0:0:
109,192,62892,1,0,0:0:0:0:
256,192,62892,1,0,0:0:0:0:
36,192,62975,1,0,0:0:0:0:
182,192,62975,1,0,0:0:0:0:
329,192,63058,1,0,0:0:0:0:
182,192,63058,1,0,0:0:0:0:
475,192,63058,1,0,0:0:0:0:
36,192,63058,1,0,0:0:0:0:
36,192,63142,1,0,0:0:0:0:
182,192,63142,1,0,0:0:0:0:
36,192,63225,128,0,63350:0:0:0:0:
402,192,63225,1,0,0:0:0:0:
475,192,63225,1,0,0:0:0:0:
109,192,63267,128,0,63350:0:0:0:0:
182,192,63308,128,0,63350:0:0:0:0:
109,192,63392,1,0,0:0:0:0:
36,192,63392,1,0,0:0:0:0:
329,192,63392,1,0,0:0:0:0:
402,192,63392,1,0,0:0:0:0:
36,192,63475,1,0,0:0:0:0:
109,192,63475,1,0,0:0:0:0:
402,192,63558,1,0,0:0:0:0:
475,192,63558,1,0,0:0:0:0:
256,192,63558,1,0,0:0:0:0:
182,192,63558,1,0,0:0:0:0:
475,192,63642,1,0,0:0:0:0:
402,192,63642,1,0,0:0:0:0:
402,192,63725,1,0,0:0:0:0:
475,192,63725,1,0,0:0:0:0:
182,192,63725,1,0,0:0:0:0:
109,192,63725,1,0,0:0:0:0:
475,192,63808,1,0,0:0:0:0:
402,192,63808,1,0,0:0:0:0:
109,192,63892,1,0,0:0:0:0:
36,192,63892,1,0,0:0:0:0:
329,192,63892,1,0,0:0:0:0:
256,192,63892,1,0,0:0:0:0:
475,192,63975,128,0,64142:0:0:0:0:
402,192,64017,128,0,64142:0:0:0:0:
329,192,64058,128,0,64142:0:0:0:0:
182,192,64058,1,0,0:0:0:0:
109,192,64058,1,0,0:0:0:0:
36,192,64058,1,0,0:0:0:0:
182,192,64225,128,0,64558:0:0:0:0:
36,192,64225,128,0,64558:0:0:0:0:
329,192,64225,1,0,0:0:0:0:
475,192,64225,1,0,0:0:0:0:
475,192,64392,1,0,0:0:0:0:
402,192,64392,1,0,0:0:0:0:
329,192,64392,1,0,0:0:0:0:
256,192,64558,1,0,0:0:0:0:
402,192,64558,1,0,0:0:0:0:
475,192,64558,1,0,0:0:0:0:
329,192,64558,1,0,0:0:0:0:
182,192,64642,1,0,0:0:0:0:
36,192,64642,1,0,0:0:0:0:
109,192,64642,1,0,0:0:0:0:
329,192,64725,1,0,0:0:0:0:
402,192,64725,1,0,0:0:0:0:
475,192,64725,1,0,0:0:0:0:
256,192,64808,1,0,0:0:0:0:
182,192,64808,1,0,0:0:0:0:
109,192,64808,1,0,0:0:0:0:
36,192,64892,1,0,0:0:0:0:
329,192,64892,1,0,0:0:0:0:
402,192,64892,1,0,0:0:0:0:
475,192,64892,1,0,0:0:0:0:
256,192,64975,1,0,0:0:0:0:
182,192,64975,1,0,0:0:0:0:
109,192,64975,1,0,0:0:0:0:
36,192,65058,1,0,0:0:0:0:
402,192,65058,1,0,0:0:0:0:
475,192,65058,1,0,0:0:0:0:
329,192,65142,1,0,0:0:0:0:
256,192,65142,1,0,0:0:0:0:
182,192,65142,1,0,0:0:0:0:
109,192,65225,1,0,0:0:0:0:
36,192,65225,1,0,0:0:0:0:
402,192,65225,1,0,0:0:0:0:
475,192,65225,1,0,0:0:0:0:
329,192,65308,1,0,0:0:0:0:
256,192,65308,1,0,0:0:0:0:
182,192,65308,1,0,0:0:0:0:
109,192,65392,1,0,0:0:0:0:
36,192,65392,1,0,0:0:0:0:
475,192,65392,1,0,0:0:0:0:
329,192,65475,1,0,0:0:0:0:
402,192,65475,1,0,0:0:0:0:
256,192,65475,1,0,0:0:0:0:
182,192,65558,1,0,0:0:0:0:
109,192,65558,1,0,0:0:0:0:
36,192,65558,1,0,0:0:0:0:
475,192,65558,1,0,0:0:0:0:
402,192,65642,1,0,0:0:0:0:
329,192,65642,1,0,0:0:0:0:
256,192,65642,1,0,0:0:0:0:
182,192,65725,1,0,0:0:0:0:
109,192,65725,1,0,0:0:0:0:
36,192,65725,1,0,0:0:0:0:
329,192,65808,1,0,0:0:0:0:
402,192,65808,1,0,0:0:0:0:
475,192,65808,1,0,0:0:0:0:
256,192,65892,1,0,0:0:0:0:
109,192,65892,1,0,0:0:0:0:
182,192,65892,128,0,66058:0:0:0:0:
36,192,65892,128,0,66058:0:0:0:0:
329,192,66058,1,0,0:0:0:0:
475,192,66058,1,0,0:0:0:0:
475,192,66142,1,0,0:0:0:0:
329,192,66142,1,0,0:0:0:0:
182,192,66225,1,0,0:0:0:0:
36,192,66225,1,0,0:0:0:0:
36,192,66308,1,0,0:0:0:0:
182,192,66308,1,0,0:0:0:0:
329,192,66392,128,0,66558:0:0:0:0:
475,192,66392,128,0,66558:0:0:0:0:
36,192,66558,1,0,0:0:0:0:
256,192,66558,1,0,0:0:0:0:
109,192,66614,1,0,0:0:0:0:
329,192,66614,1,0,0:0:0:0:
182,192,66670,1,0,0:0:0:0:
402,192,66670,1,0,0:0:0:0:
36,192,66725,1,0,0:0:0:0:
256,192,66725,1,0,0:0:0:0:
109,192,66781,1,0,0:0:0:0:
329,192,66781,1,0,0:0:0:0:
182,192,66836,1,0,0:0:0:0:
402,192,66836,1,0,0:0:0:0:
475,192,66892,1,0,0:0:0:0:
256,192,66892,1,0,0:0:0:0:
182,192,66947,1,0,0:0:0:0:
402,192,66947,1,0,0:0:0:0:
109,192,67003,1,0,0:0:0:0:
329,192,67003,1,0,0:0:0:0:
475,192,67058,1,0,0:0:0:0:
256,192,67058,1,0,0:0:0:0:
182,192,67114,1,0,0:0:0:0:
402,192,67114,1,0,0:0:0:0:
329,192,67170,1,0,0:0:0:0:
109,192,67170,1,0,0:0:0:0:
36,192,67225,1,0,0:0:0:0:
256,192,67225,1,0,0:0:0:0:
475,192,67225,1,0,0:0:0:0:
402,192,67225,1,0,0:0:0:0:
182,192,67308,1,0,0:0:0:0:
36,192,67392,128,0,68392:0:0:0:0:
329,192,67392,1,0,0:0:0:0:
256,192,67558,1,0,0:0:0:0:
475,192,67558,1,0,0:0:0:0:
109,192,67558,1,0,0:0:0:0:
329,192,67558,1,0,0:0:0:0:
182,192,67725,1,0,0:0:0:0:
182,192,67892,1,0,0:0:0:0:
109,192,67892,1,0,0:0:0:0:
329,192,67892,1,0,0:0:0:0:
475,192,67892,1,0,0:0:0:0:
256,192,68058,1,0,0:0:0:0:
256,192,68225,1,0,0:0:0:0:
109,192,68225,1,0,0:0:0:0:
402,192,68225,1,0,0:0:0:0:
329,192,68225,1,0,0:0:0:0:
182,192,68392,1,0,0:0:0:0:
475,192,68392,1,0,0:0:0:0:
109,192,68475,1,0,0:0:0:0:
36,192,68558,128,0,69058:0:0:0:0:
475,192,68558,1,0,0:0:0:0:
402,192,68558,1,0,0:0:0:0:
329,192,68558,1,0,0:0:0:0:
256,192,68558,1,0,0:0:0:0:
182,192,68725,1,0,0:0:0:0:
182,192,68892,1,0,0:0:0:0:
109,192,68892,1,0,0:0:0:0:
256,192,68892,1,0,0:0:0:0:
402,192,68892,1,0,0:0:0:0:
475,192,69058,128,0,69725:0:0:0:0:
329,192,69058,1,0,0:0:0:0:
329,192,69225,1,0,0:0:0:0:
182,192,69225,1,0,0:0:0:0:
109,192,69225,1,0,0:0:0:0:
402,192,69225,1,0,0:0:0:0:
36,192,69392,1,0,0:0:0:0:
36,192,69558,1,0,0:0:0:0:
182,192,69558,1,0,0:0:0:0:
256,192,69558,1,0,0:0:0:0:
402,192,69558,1,0,0:0:0:0:
109,192,69725,1,0,0:0:0:0:
402,192,69725,1,0,0:0:0:0:
329,192,69781,1,0,0:0:0:0:
256,192,69836,1,0,0:0:0:0:
402,192,69892,128,0,70225:0:0:0:0:
182,192,69892,1,0,0:0:0:0:
109,192,69892,1,0,0:0:0:0:
36,192,69892,1,0,0:0:0:0:
475,192,69892,1,0,0:0:0:0:
256,192,70058,1,0,0:0:0:0:
36,192,70225,1,0,0:0:0:0:
256,192,70225,1,0,0:0:0:0:
329,192,70225,1,0,0:0:0:0:
475,192,70225,1,0,0:0:0:0:
182,192,70308,1,0,0:0:0:0:
402,192,70308,1,0,0:0:0:0:
329,192,70392,1,0,0:0:0:0:
109,192,70392,1,0,0:0:0:0:
256,192,70475,1,0,0:0:0:0:
36,192,70475,1,0,0:0:0:0:
182,192,70558,1,0,0:0:0:0:
329,192,70558,1,0,0:0:0:0:
475,192,70558,1,0,0:0:0:0:
402,192,70558,1,0,0:0:0:0:
256,192,70642,1,0,0:0:0:0:
109,192,70642,1,0,0:0:0:0:
475,192,70725,1,0,0:0:0:0:
329,192,70725,1,0,0:0:0:0:
256,192,70808,1,0,0:0:0:0:
402,192,70808,1,0,0:0:0:0:
36,192,70892,1,0,0:0:0:0:
329,192,70892,1,0,0:0:0:0:
182,192,70892,1,0,0:0:0:0:
109,192,70892,1,0,0:0:0:0:
256,192,70975,1,0,0:0:0:0:
402,192,70975,1,0,0:0:0:0:
329,192,71058,1,0,0:0:0:0:
182,192,71058,1,0,0:0:0:0:
109,192,71142,1,0,0:0:0:0:
256,192,71142,1,0,0:0:0:0:
182,192,71225,1,0,0:0:0:0:
36,192,71225,1,0,0:0:0:0:
402,192,71225,1,0,0:0:0:0:
475,192,71225,1,0,0:0:0:0:
109,192,71308,1,0,0:0:0:0:
256,192,71308,1,0,0:0:0:0:
182,192,71392,1,0,0:0:0:0:
329,192,71392,1,0,0:0:0:0:
256,192,71475,1,0,0:0:0:0:
36,192,71475,1,0,0:0:0:0:
109,192,71558,1,0,0:0:0:0:
329,192,71558,1,0,0:0:0:0:
475,192,71558,1,0,0:0:0:0:
402,192,71558,1,0,0:0:0:0:
182,192,71642,1,0,0:0:0:0:
256,192,71642,1,0,0:0:0:0:
402,192,71725,1,0,0:0:0:0:
475,192,71725,1,0,0:0:0:0:
329,192,71808,1,0,0:0:0:0:
256,192,71808,1,0,0:0:0:0:
182,192,71892,1,0,0:0:0:0:
36,192,71892,1,0,0:0:0:0:
475,192,71892,1,0,0:0:0:0:
109,192,71892,1,0,0:0:0:0:
402,192,71975,1,0,0:0:0:0:
256,192,71975,1,0,0:0:0:0:
329,192,72058,1,0,0:0:0:0:
182,192,72058,1,0,0:0:0:0:
256,192,72142,1,0,0:0:0:0:
109,192,72142,1,0,0:0:0:0:
182,192,72225,1,0,0:0:0:0:
36,192,72225,1,0,0:0:0:0:
402,192,72225,1,0,0:0:0:0:
475,192,72225,1,0,0:0:0:0:
256,192,72308,1,0,0:0:0:0:
109,192,72308,1,0,0:0:0:0:
182,192,72392,1,0,0:0:0:0:
329,192,72392,1,0,0:0:0:0:
256,192,72475,1,0,0:0:0:0:
402,192,72475,1,0,0:0:0:0:
182,192,72558,1,0,0:0:0:0:
109,192,72558,1,0,0:0:0:0:
36,192,72558,1,0,0:0:0:0:
329,192,72558,1,0,0:0:0:0:
475,192,72558,1,0,0:0:0:0:
182,192,72725,1,0,0:0:0:0:
329,192,72725,1,0,0:0:0:0:
475,192,72725,1,0,0:0:0:0:
36,192,72892,1,0,0:0:0:0:
329,192,72892,1,0,0:0:0:0:
475,192,72892,1,0,0:0:0:0:
109,192,72947,1,0,0:0:0:0:
182,192,73003,1,0,0:0:0:0:
256,192,73058,1,0,0:0:0:0:
475,192,73058,1,0,0:0:0:0:
36,192,73058,1,0,0:0:0:0:
329,192,73114,1,0,0:0:0:0:
402,192,73170,1,0,0:0:0:0:
475,192,73225,1,0,0:0:0:0:
182,192,73225,1,0,0:0:0:0:
109,192,73225,1,0,0:0:0:0:
402,192,73281,1,0,0:0:0:0:
329,192,73336,1,0,0:0:0:0:
256,192,73392,1,0,0:0:0:0:
182,192,73392,1,0,0:0:0:0:
475,192,73392,1,0,0:0:0:0:
36,192,73447,1,0,0:0:0:0:
109,192,73503,1,0,0:0:0:0:
182,192,73558,1,0,0:0:0:0:
475,192,73558,1,0,0:0:0:0:
402,192,73558,1,0,0:0:0:0:
256,192,73614,1,0,0:0:0:0:
329,192,73670,1,0,0:0:0:0:
402,192,73725,1,0,0:0:0:0:
109,192,73725,1,0,0:0:0:0:
36,192,73725,1,0,0:0:0:0:
475,192,73781,1,0,0:0:0:0:
329,192,73836,1,0,0:0:0:0:
256,192,73892,1,0,0:0:0:0:
109,192,73892,1,0,0:0:0:0:
402,192,73892,1,0,0:0:0:0:
182,192,73947,1,0,0:0:0:0:
36,192,74003,1,0,0:0:0:0:
109,192,74058,1,0,0:0:0:0:
475,192,74058,1,0,0:0:0:0:
402,192,74058,1,0,0:0:0:0:
182,192,74114,1,0,0:0:0:0:
256,192,74170,1,0,0:0:0:0:
329,192,74225,1,0,0:0:0:0:
109,192,74225,1,0,0:0:0:0:
36,192,74225,1,0,0:0:0:0:
402,192,74281,1,0,0:0:0:0:
475,192,74336,1,0,0:0:0:0:
256,192,74392,1,0,0:0:0:0:
402,192,74392,1,0,0:0:0:0:
329,192,74392,1,0,0:0:0:0:
182,192,74447,1,0,0:0:0:0:
109,192,74503,1,0,0:0:0:0:
36,192,74558,1,0,0:0:0:0:
402,192,74558,1,0,0:0:0:0:
475,192,74558,1,0,0:0:0:0:
109,192,74614,1,0,0:0:0:0:
182,192,74670,1,0,0:0:0:0:
256,192,74725,1,0,0:0:0:0:
36,192,74725,1,0,0:0:0:0:
475,192,74725,1,0,0:0:0:0:
329,192,74781,1,0,0:0:0:0:
402,192,74836,1,0,0:0:0:0:
475,192,74892,1,0,0:0:0:0:
182,192,74892,1,0,0:0:0:0:
109,192,74892,1,0,0:0:0:0:
402,192,74947,1,0,0:0:0:0:
329,192,75003,1,0,0:0:0:0:
256,192,75058,1,0,0:0:0:0:
109,192,75058,1,0,0:0:0:0:
36,192,75058,1,0,0:0:0:0:
182,192,75142,1,0,0:0:0:0:
36,192,75225,1,0,0:0:0:0:
475,192,75225,1,0,0:0:0:0:
402,192,75225,1,0,0:0:0:0:
109,192,75281,1,0,0:0:0:0:
329,192,75308,1,0,0:0:0:0:
256,192,75308,1,0,0:0:0:0:
182,192,75336,1,0,0:0:0:0:
475,192,75392,1,0,0:0:0:0:
402,192,75392,1,0,0:0:0:0:
36,192,75392,1,0,0:0:0:0:
109,192,75447,1,0,0:0:0:0:
256,192,75475,1,0,0:0:0:0:
329,192,75475,1,0,0:0:0:0:
182,192,75503,1,0,0:0:0:0:
36,192,75558,1,0,0:0:0:0:
402,192,75558,1,0,0:0:0:0:
475,192,75558,1,0,0:0:0:0:
109,192,75614,1,0,0:0:0:0:
329,192,75642,1,0,0:0:0:0:
256,192,75642,1,0,0:0:0:0:
182,192,75670,1,0,0:0:0:0:
475,192,75725,1,0,0:0:0:0:
402,192,75725,1,0,0:0:0:0:
36,192,75725,1,0,0:0:0:0:
109,192,75781,1,0,0:0:0:0:
256,192,75808,1,0,0:0:0:0:
329,192,75808,1,0,0:0:0:0:
182,192,75836,1,0,0:0:0:0:
475,192,75892,1,0,0:0:0:0:
109,192,75892,1,0,0:0:0:0:
36,192,75892,1,0,0:0:0:0:
402,192,75947,1,0,0:0:0:0:
182,192,75975,1,0,0:0:0:0:
256,192,75975,1,0,0:0:0:0:
329,192,76003,1,0,0:0:0:0:
475,192,76058,1,0,0:0:0:0:
36,192,76058,1,0,0:0:0:0:
109,192,76058,1,0,0:0:0:0:
402,192,76114,1,0,0:0:0:0:
182,192,76142,1,0,0:0:0:0:
256,192,76142,1,0,0:0:0:0:
329,192,76170,1,0,0:0:0:0:
109,192,76225,1,0,0:0:0:0:
36,192,76225,1,0,0:0:0:0:
475,192,76225,1,0,0:0:0:0:
402,192,76281,1,0,0:0:0:0:
256,192,76308,1,0,0:0:0:0:
182,192,76308,1,0,0:0:0:0:
329,192,76336,1,0,0:0:0:0:
475,192,76392,1,0,0:0:0:0:
36,192,76392,1,0,0:0:0:0:
109,192,76392,1,0,0:0:0:0:
402,192,76447,1,0,0:0:0:0:
182,192,76475,1,0,0:0:0:0:
256,192,76475,1,0,0:0:0:0:
329,192,76503,1,0,0:0:0:0:
109,192,76558,1,0,0:0:0:0:
36,192,76558,1,0,0:0:0:0:
402,192,76558,1,0,0:0:0:0:
475,192,76558,1,0,0:0:0:0:
182,192,76614,1,0,0:0:0:0:
256,192,76670,1,0,0:0:0:0:
329,192,76725,1,0,0:0:0:0:
475,192,76725,1,0,0:0:0:0:
256,192,76781,1,0,0:0:0:0:
182,192,76836,1,0,0:0:0:0:
109,192,76892,1,0,0:0:0:0:
402,192,76892,1,0,0:0:0:0:
329,192,76947,1,0,0:0:0:0:
256,192,77003,1,0,0:0:0:0:
182,192,77058,1,0,0:0:0:0:
36,192,77058,1,0,0:0:0:0:
256,192,77114,1,0,0:0:0:0:
329,192,77170,1,0,0:0:0:0:
402,192,77225,128,0,77558:0:0:0:0:
182,192,77392,1,0,0:0:0:0:
329,192,77558,128,0,77642:0:0:0:0:
36,192,77558,1,0,0:0:0:0:
256,192,77642,128,0,77725:0:0:0:0:
182,192,77725,128,0,77808:0:0:0:0:
109,192,77808,128,0,77892:0:0:0:0:
475,192,77892,128,0,78392:0:0:0:0:
329,192,77892,128,0,78392:0:0:0:0:
36,192,77892,1,0,0:0:0:0:
182,192,77892,1,0,0:0:0:0:
256,192,77892,1,0,0:0:0:0:
109,192,78092,128,0,78142:0:0:0:0:
182,192,78092,128,0,78142:0:0:0:0:
36,192,78292,1,0,0:0:0:0:
256,192,78292,1,0,0:0:0:0:
402,192,78292,128,0,78392:0:0:0:0:
109,192,78292,1,0,0:0:0:0:
182,192,78492,128,0,78892:0:0:0:0:
36,192,78492,128,0,79092:0:0:0:0:
402,192,78492,1,0,0:0:0:0:
475,192,78492,1,0,0:0:0:0:
329,192,78692,1,0,0:0:0:0:
256,192,78692,1,0,0:0:0:0:
402,192,78692,128,0,78742:0:0:0:0:
475,192,78692,128,0,78742:0:0:0:0:
402,192,78892,1,0,0:0:0:0:
475,192,78892,1,0,0:0:0:0:
109,192,78892,128,0,78992:0:0:0:0:
329,192,78892,1,0,0:0:0:0:
182,192,78992,128,0,79092:0:0:0:0:
109,192,79092,1,0,0:0:0:0:
402,192,79092,1,0,0:0:0:0:
256,192,79092,128,0,79292:0:0:0:0:
475,192,79092,1,0,0:0:0:0:
402,192,79292,128,0,79342:0:0:0:0:
36,192,79292,1,0,0:0:0:0:
182,192,79292,128,0,79492:0:0:0:0:
329,192,79292,128,0,79342:0:0:0:0:
256,192,79492,1,0,0:0:0:0:
475,192,79492,1,0,0:0:0:0:
109,192,79492,128,0,79692:0:0:0:0:
329,192,79492,1,0,0:0:0:0:
402,192,79692,1,0,0:0:0:0:
36,192,79692,1,0,0:0:0:0:
182,192,79692,128,0,80192:0:0:0:0:
329,192,79692,128,0,80192:0:0:0:0:
36,192,79892,128,0,79942:0:0:0:0:
109,192,79892,128,0,79942:0:0:0:0:
109,192,80092,1,0,0:0:0:0:
36,192,80092,1,0,0:0:0:0:
256,192,80092,128,0,80192:0:0:0:0:
475,192,80092,1,0,0:0:0:0:
256,192,80292,1,0,0:0:0:0:
109,192,80292,1,0,0:0:0:0:
475,192,80292,128,0,80492:0:0:0:0:
402,192,80292,1,0,0:0:0:0:
36,192,80492,128,0,80542:0:0:0:0:
182,192,80492,128,0,80542:0:0:0:0:
402,192,80492,128,0,80692:0:0:0:0:
329,192,80492,1,0,0:0:0:0:
475,192,80692,1,0,0:0:0:0:
109,192,80692,1,0,0:0:0:0:
329,192,80692,128,0,80892:0:0:0:0:
256,192,80692,1,0,0:0:0:0:
402,192,80892,1,0,0:0:0:0:
36,192,80892,1,0,0:0:0:0:
256,192,80892,128,0,81092:0:0:0:0:
182,192,80892,1,0,0:0:0:0:
329,192,81092,128,0,81142:0:0:0:0:
402,192,81092,128,0,81142:0:0:0:0:
182,192,81092,128,0,81292:0:0:0:0:
109,192,81092,1,0,0:0:0:0:
256,192,81292,1,0,0:0:0:0:
329,192,81292,1,0,0:0:0:0:
109,192,81292,128,0,81492:0:0:0:0:
36,192,81292,1,0,0:0:0:0:
329,192,81492,1,0,0:0:0:0:
402,192,81492,1,0,0:0:0:0:
475,192,81492,1,0,0:0:0:0:
36,192,81492,128,0,81792:0:0:0:0:
182,192,81492,128,0,81792:0:0:0:0:
402,192,81692,128,0,81742:0:0:0:0:
475,192,81692,128,0,81742:0:0:0:0:
256,192,81692,128,0,81792:0:0:0:0:
109,192,81992,128,0,82042:0:0:0:0:
182,192,81992,1,0,0:0:0:0:
329,192,81992,1,0,0:0:0:0:
402,192,81992,128,0,82042:0:0:0:0:
182,192,82092,1,0,0:0:0:0:
329,192,82092,1,0,0:0:0:0:
402,192,82092,128,0,82492:0:0:0:0:
109,192,82092,128,0,82492:0:0:0:0:
329,192,82292,128,0,82342:0:0:0:0:
182,192,82292,128,0,82342:0:0:0:0:
475,192,82292,1,0,0:0:0:0:
36,192,82292,1,0,0:0:0:0:
36,192,82492,1,0,0:0:0:0:
475,192,82492,1,0,0:0:0:0:
109,192,82542,1,0,0:0:0:0:
402,192,82542,1,0,0:0:0:0:
182,192,82592,1,0,0:0:0:0:
329,192,82592,1,0,0:0:0:0:
256,192,82642,1,0,0:0:0:0:
36,192,82692,1,0,0:0:0:0:
109,192,82692,1,0,0:0:0:0:
475,192,82692,1,0,0:0:0:0:
402,192,82692,1,0,0:0:0:0:
329,192,82742,1,0,0:0:0:0:
256,192,82792,1,0,0:0:0:0:
182,192,82892,128,0,82942:0:0:0:0:
36,192,82892,128,0,82942:0:0:0:0:
475,192,82892,1,0,0:0:0:0:
329,192,82992,1,0,0:0:0:0:
475,192,83092,1,0,0:0:0:0:
256,192,83092,1,0,0:0:0:0:
109,192,83092,1,0,0:0:0:0:
36,192,83092,1,0,0:0:0:0:
329,192,83192,1,0,0:0:0:0:
402,192,83292,1,0,0:0:0:0:
256,192,83292,1,0,0:0:0:0:
36,192,83292,1,0,0:0:0:0:
182,192,83392,1,0,0:0:0:0:
475,192,83492,128,0,83542:0:0:0:0:
256,192,83492,1,0,0:0:0:0:
36,192,83492,1,0,0:0:0:0:
329,192,83492,128,0,83542:0:0:0:0:
182,192,83592,1,0,0:0:0:0:
475,192,83692,1,0,0:0:0:0:
329,192,83692,1,0,0:0:0:0:
36,192,83692,1,0,0:0:0:0:
402,192,83692,1,0,0:0:0:0:
109,192,83742,1,0,0:0:0:0:
182,192,83792,1,0,0:0:0:0:
256,192,83842,1,0,0:0:0:0:
36,192,83892,1,0,0:0:0:0:
402,192,83892,1,0,0:0:0:0:
329,192,83892,1,0,0:0:0:0:
109,192,83892,1,0,0:0:0:0:
475,192,83992,1,0,0:0:0:0:
109,192,84092,128,0,84142:0:0:0:0:
36,192,84092,128,0,84142:0:0:0:0:
256,192,84092,1,0,0:0:0:0:
329,192,84092,1,0,0:0:0:0:
402,192,84192,1,0,0:0:0:0:
36,192,84292,1,0,0:0:0:0:
256,192,84292,1,0,0:0:0:0:
182,192,84292,1,0,0:0:0:0:
109,192,84292,1,0,0:0:0:0:
329,192,84392,1,0,0:0:0:0:
475,192,84492,1,0,0:0:0:0:
36,192,84492,1,0,0:0:0:0:
182,192,84492,1,0,0:0:0:0:
402,192,84492,1,0,0:0:0:0:
256,192,84542,1,0,0:0:0:0:
329,192,84592,1,0,0:0:0:0:
475,192,84692,128,0,84742:0:0:0:0:
402,192,84692,128,0,84742:0:0:0:0:
109,192,84692,1,0,0:0:0:0:
256,192,84792,1,0,0:0:0:0:
36,192,84892,1,0,0:0:0:0:
182,192,84892,1,0,0:0:0:0:
109,192,84892,1,0,0:0:0:0:
475,192,84892,1,0,0:0:0:0:
402,192,84925,1,0,0:0:0:0:
329,192,84958,1,0,0:0:0:0:
256,192,84992,1,0,0:0:0:0:
182,192,85025,1,0,0:0:0:0:
109,192,85058,1,0,0:0:0:0:
402,192,85092,1,0,0:0:0:0:
475,192,85092,1,0,0:0:0:0:
36,192,85092,1,0,0:0:0:0:
329,192,85092,1,0,0:0:0:0:
182,192,85192,1,0,0:0:0:0:
329,192,85292,128,0,85342:0:0:0:0:
402,192,85292,128,0,85342:0:0:0:0:
475,192,85292,1,0,0:0:0:0:
109,192,85292,1,0,0:0:0:0:
256,192,85392,1,0,0:0:0:0:
475,192,85492,1,0,0:0:0:0:
36,192,85492,1,0,0:0:0:0:
329,192,85492,1,0,0:0:0:0:
402,192,85492,1,0,0:0:0:0:
256,192,85592,1,0,0:0:0:0:
36,192,85692,1,0,0:0:0:0:
475,192,85692,1,0,0:0:0:0:
182,192,85692,1,0,0:0:0:0:
109,192,85692,1,0,0:0:0:0:
402,192,85742,1,0,0:0:0:0:
329,192,85792,1,0,0:0:0:0:
109,192,85892,128,0,85942:0:0:0:0:
475,192,85892,1,0,0:0:0:0:
36,192,85892,1,0,0:0:0:0:
182,192,85892,128,0,85942:0:0:0:0:
256,192,85992,1,0,0:0:0:0:
182,192,86092,1,0,0:0:0:0:
402,192,86092,1,0,0:0:0:0:
36,192,86092,1,0,0:0:0:0:
109,192,86092,1,0,0:0:0:0:
256,192,86192,1,0,0:0:0:0:
402,192,86292,1,0,0:0:0:0:
36,192,86292,1,0,0:0:0:0:
329,192,86292,1,0,0:0:0:0:
475,192,86292,1,0,0:0:0:0:
109,192,86342,1,0,0:0:0:0:
182,192,86392,1,0,0:0:0:0:
402,192,86492,128,0,86542:0:0:0:0:
475,192,86492,128,0,86542:0:0:0:0:
256,192,86492,1,0,0:0:0:0:
36,192,86492,1,0,0:0:0:0:
329,192,86592,1,0,0:0:0:0:
402,192,86692,1,0,0:0:0:0:
36,192,86792,1,0,0:0:0:0:
182,192,86792,1,0,0:0:0:0:
256,192,86792,1,0,0:0:0:0:
109,192,86792,1,0,0:0:0:0:
329,192,86842,1,0,0:0:0:0:
402,192,86892,1,0,0:0:0:0:
109,192,86892,1,0,0:0:0:0:
475,192,86892,1,0,0:0:0:0:
36,192,86892,128,0,87292:0:0:0:0:
182,192,86992,1,0,0:0:0:0:
256,192,87042,1,0,0:0:0:0:
475,192,87092,1,0,0:0:0:0:
329,192,87092,1,0,0:0:0:0:
402,192,87092,1,0,0:0:0:0:
109,192,87142,1,0,0:0:0:0:
182,192,87192,1,0,0:0:0:0:
256,192,87242,1,0,0:0:0:0:
329,192,87292,1,0,0:0:0:0:
475,192,87292,1,0,0:0:0:0:
402,192,87292,1,0,0:0:0:0:
182,192,87342,1,0,0:0:0:0:
36,192,87342,1,0,0:0:0:0:
109,192,87342,1,0,0:0:0:0:
329,192,87392,1,0,0:0:0:0:
402,192,87392,1,0,0:0:0:0:
475,192,87392,1,0,0:0:0:0:
182,192,87442,1,0,0:0:0:0:
36,192,87442,1,0,0:0:0:0:
109,192,87442,1,0,0:0:0:0:
402,192,87492,1,0,0:0:0:0:
475,192,87492,1,0,0:0:0:0:
329,192,87492,1,0,0:0:0:0:
256,192,87492,1,0,0:0:0:0:
182,192,87592,1,0,0:0:0:0:
109,192,87592,1,0,0:0:0:0:
36,192,87592,1,0,0:0:0:0:
36,192,87692,1,0,0:0:0:0:
256,192,87692,1,0,0:0:0:0:
402,192,87692,1,0,0:0:0:0:
475,192,87692,1,0,0:0:0:0:
329,192,87792,1,0,0:0:0:0:
182,192,87792,1,0,0:0:0:0:
109,192,87792,1,0,0:0:0:0:
329,192,87892,1,0,0:0:0:0:
475,192,87892,1,0,0:0:0:0:
256,192,87892,1,0,0:0:0:0:
36,192,87892,1,0,0:0:0:0:
182,192,87992,1,0,0:0:0:0:
109,192,87992,1,0,0:0:0:0:
402,192,87992,1,0,0:0:0:0:
182,192,88092,1,0,0:0:0:0:
256,192,88092,1,0,0:0:0:0:
329,192,88092,1,0,0:0:0:0:
475,192,88092,1,0,0:0:0:0:
109,192,88192,1,0,0:0:0:0:
36,192,88192,1,0,0:0:0:0:
402,192,88192,1,0,0:0:0:0:
402,192,88292,1,0,0:0:0:0:
475,192,88292,1,0,0:0:0:0:
329,192,88292,1,0,0:0:0:0:
182,192,88292,1,0,0:0:0:0:
256,192,88392,1,0,0:0:0:0:
109,192,88392,1,0,0:0:0:0:
36,192,88392,1,0,0:0:0:0:
182,192,88492,1,0,0:0:0:0:
402,192,88492,1,0,0:0:0:0:
475,192,88492,1,0,0:0:0:0:
256,192,88492,1,0,0:0:0:0:
109,192,88592,1,0,0:0:0:0:
36,192,88592,1,0,0:0:0:0:
329,192,88592,1,0,0:0:0:0:
109,192,88692,1,0,0:0:0:0:
36,192,88692,1,0,0:0:0:0:
182,192,88692,1,0,0:0:0:0:
256,192,88692,1,0,0:0:0:0:
329,192,88792,1,0,0:0:0:0:
402,192,88792,1,0,0:0:0:0:
475,192,88792,1,0,0:0:0:0:
475,192,88892,1,0,0:0:0:0:
256,192,88892,1,0,0:0:0:0:
109,192,88892,1,0,0:0:0:0:
36,192,88892,1,0,0:0:0:0:
182,192,88992,1,0,0:0:0:0:
329,192,88992,1,0,0:0:0:0:
402,192,88992,1,0,0:0:0:0:
182,192,89092,1,0,0:0:0:0:
36,192,89092,1,0,0:0:0:0:
256,192,89092,1,0,0:0:0:0:
475,192,89092,1,0,0:0:0:0:
329,192,89192,1,0,0:0:0:0:
402,192,89192,1,0,0:0:0:0:
109,192,89192,1,0,0:0:0:0:
329,192,89292,1,0,0:0:0:0:
256,192,89292,1,0,0:0:0:0:
182,192,89292,1,0,0:0:0:0:
36,192,89292,1,0,0:0:0:0:
402,192,89392,1,0,0:0:0:0:
475,192,89392,1,0,0:0:0:0:
109,192,89392,1,0,0:0:0:0:
109,192,89492,1,0,0:0:0:0:
36,192,89492,1,0,0:0:0:0:
182,192,89492,1,0,0:0:0:0:
329,192,89492,1,0,0:0:0:0:
256,192,89592,1,0,0:0:0:0:
402,192,89592,1,0,0:0:0:0:
475,192,89592,1,0,0:0:0:0:
329,192,89692,1,0,0:0:0:0:
109,192,89692,1,0,0:0:0:0:
36,192,89692,1,0,0:0:0:0:
256,192,89692,1,0,0:0:0:0:
402,192,89792,1,0,0:0:0:0:
475,192,89792,1,0,0:0:0:0:
182,192,89792,1,0,0:0:0:0:
402,192,89892,1,0,0:0:0:0:
475,192,89892,1,0,0:0:0:0:
329,192,89892,1,0,0:0:0:0:
256,192,89892,1,0,0:0:0:0:
182,192,89992,1,0,0:0:0:0:
109,192,89992,1,0,0:0:0:0:
36,192,89992,1,0,0:0:0:0:
36,192,90092,1,0,0:0:0:0:
329,192,90092,1,0,0:0:0:0:
402,192,90092,1,0,0:0:0:0:
475,192,90092,1,0,0:0:0:0:
256,192,90192,1,0,0:0:0:0:
182,192,90192,1,0,0:0:0:0:
109,192,90192,1,0,0:0:0:0:
109,192,90292,1,0,0:0:0:0:
36,192,90292,1,0,0:0:0:0:
402,192,90292,1,0,0:0:0:0:
475,192,90292,1,0,0:0:0:0:
329,192,90392,1,0,0:0:0:0:
256,192,90392,1,0,0:0:0:0:
182,192,90392,1,0,0:0:0:0:
182,192,90492,1,0,0:0:0:0:
109,192,90492,1,0,0:0:0:0:
36,192,90492,1,0,0:0:0:0:
475,192,90492,1,0,0:0:0:0:
402,192,90592,1,0,0:0:0:0:
329,192,90592,1,0,0:0:0:0:
256,192,90592,1,0,0:0:0:0:
256,192,90692,1,0,0:0:0:0:
182,192,90692,1,0,0:0:0:0:
109,192,90692,1,0,0:0:0:0:
36,192,90692,1,0,0:0:0:0:
329,192,90792,1,0,0:0:0:0:
402,192,90792,1,0,0:0:0:0:
475,192,90792,1,0,0:0:0:0:
475,192,90892,128,0,92092:0:0:0:0:
182,192,90892,1,0,0:0:0:0:
109,192,90892,1,0,0:0:0:0:
36,192,90892,1,0,0:0:0:0:
329,192,90992,1,0,0:0:0:0:
402,192,90992,1,0,0:0:0:0:
109,192,91092,1,0,0:0:0:0:
256,192,91092,1,0,0:0:0:0:
182,192,91092,1,0,0:0:0:0:
36,192,91092,1,0,0:0:0:0:
329,192,91192,1,0,0:0:0:0:
402,192,91192,1,0,0:0:0:0:
182,192,91292,1,0,0:0:0:0:
109,192,91292,1,0,0:0:0:0:
36,192,91292,1,0,0:0:0:0:
256,192,91392,1,0,0:0:0:0:
329,192,91392,1,0,0:0:0:0:
109,192,91492,1,0,0:0:0:0:
36,192,91492,1,0,0:0:0:0:
402,192,91492,1,0,0:0:0:0:
256,192,91592,1,0,0:0:0:0:
182,192,91592,1,0,0:0:0:0:
109,192,91692,1,0,0:0:0:0:
36,192,91692,1,0,0:0:0:0:
329,192,91692,1,0,0:0:0:0:
402,192,91692,1,0,0:0:0:0:
256,192,91792,1,0,0:0:0:0:
182,192,91792,1,0,0:0:0:0:
36,192,91892,1,0,0:0:0:0:
329,192,91892,1,0,0:0:0:0:
402,192,91892,1,0,0:0:0:0:
182,192,91992,1,0,0:0:0:0:
109,192,91992,1,0,0:0:0:0:
256,192,92092,1,0,0:0:0:0:
329,192,92092,1,0,0:0:0:0:
402,192,92092,1,0,0:0:0:0:
109,192,92192,1,0,0:0:0:0:
182,192,92192,1,0,0:0:0:0:
475,192,92292,1,0,0:0:0:0:
256,192,92292,1,0,0:0:0:0:
36,192,92292,1,0,0:0:0:0:
182,192,92342,1,0,0:0:0:0:
402,192,92342,1,0,0:0:0:0:
109,192,92392,1,0,0:0:0:0:
329,192,92392,1,0,0:0:0:0:
36,192,92442,1,0,0:0:0:0:
256,192,92442,1,0,0:0:0:0:
182,192,92492,1,0,0:0:0:0:
475,192,92492,1,0,0:0:0:0:
402,192,92492,1,0,0:0:0:0:
109,192,92592,1,0,0:0:0:0:
36,192,92592,1,0,0:0:0:0:
329,192,92592,1,0,0:0:0:0:
182,192,92692,1,0,0:0:0:0:
256,192,92692,1,0,0:0:0:0:
402,192,92692,1,0,0:0:0:0:
475,192,92692,1,0,0:0:0:0:
182,192,92792,1,0,0:0:0:0:
109,192,92792,1,0,0:0:0:0:
36,192,92792,1,0,0:0:0:0:
329,192,92892,1,0,0:0:0:0:
256,192,92892,1,0,0:0:0:0:
402,192,92892,1,0,0:0:0:0:
475,192,92892,1,0,0:0:0:0:
329,192,92992,1,0,0:0:0:0:
182,192,92992,1,0,0:0:0:0:
109,192,92992,1,0,0:0:0:0:
36,192,93092,1,0,0:0:0:0:
256,192,93092,1,0,0:0:0:0:
402,192,93092,1,0,0:0:0:0:
475,192,93092,1,0,0:0:0:0:
475,192,93192,1,0,0:0:0:0:
182,192,93192,1,0,0:0:0:0:
109,192,93192,1,0,0:0:0:0:
36,192,93292,128,0,94492:0:0:0:0:
329,192,93292,1,0,0:0:0:0:
402,192,93292,1,0,0:0:0:0:
256,192,93292,1,0,0:0:0:0:
182,192,93392,1,0,0:0:0:0:
109,192,93392,1,0,0:0:0:0:
475,192,93492,1,0,0:0:0:0:
402,192,93492,1,0,0:0:0:0:
329,192,93542,1,0,0:0:0:0:
256,192,93542,1,0,0:0:0:0:
182,192,93592,1,0,0:0:0:0:
109,192,93592,1,0,0:0:0:0:
475,192,93642,1,0,0:0:0:0:
402,192,93642,1,0,0:0:0:0:
329,192,93692,1,0,0:0:0:0:
256,192,93692,1,0,0:0:0:0:
402,192,93792,1,0,0:0:0:0:
475,192,93792,1,0,0:0:0:0:
182,192,93892,1,0,0:0:0:0:
109,192,93892,1,0,0:0:0:0:
256,192,93942,1,0,0:0:0:0:
329,192,93942,1,0,0:0:0:0:
475,192,93992,1,0,0:0:0:0:
402,192,93992,1,0,0:0:0:0:
182,192,94092,1,0,0:0:0:0:
109,192,94092,1,0,0:0:0:0:
256,192,94142,1,0,0:0:0:0:
329,192,94142,1,0,0:0:0:0:
402,192,94192,1,0,0:0:0:0:
475,192,94192,1,0,0:0:0:0:
182,192,94242,1,0,0:0:0:0:
109,192,94242,1,0,0:0:0:0:
256,192,94292,1,0,0:0:0:0:
329,192,94292,1,0,0:0:0:0:
109,192,94392,1,0,0:0:0:0:
182,192,94392,1,0,0:0:0:0:
475,192,94492,1,0,0:0:0:0:
402,192,94492,1,0,0:0:0:0:
329,192,94492,1,0,0:0:0:0:
182,192,94592,1,0,0:0:0:0:
109,192,94592,1,0,0:0:0:0:
36,192,94592,1,0,0:0:0:0:
475,192,94692,1,0,0:0:0:0:
329,192,94692,1,0,0:0:0:0:
402,192,94692,1,0,0:0:0:0:
109,192,94742,1,0,0:0:0:0:
36,192,94742,1,0,0:0:0:0:
256,192,94792,1,0,0:0:0:0:
182,192,94792,1,0,0:0:0:0:
329,192,94842,1,0,0:0:0:0:
402,192,94842,1,0,0:0:0:0:
475,192,94892,1,0,0:0:0:0:
109,192,94892,1,0,0:0:0:0:
36,192,94892,1,0,0:0:0:0:
256,192,94992,1,0,0:0:0:0:
182,192,94992,1,0,0:0:0:0:
329,192,94992,1,0,0:0:0:0:
109,192,95092,1,0,0:0:0:0:
36,192,95092,1,0,0:0:0:0:
402,192,95092,1,0,0:0:0:0:
475,192,95092,1,0,0:0:0:0:
329,192,95192,1,0,0:0:0:0:
256,192,95192,1,0,0:0:0:0:
182,192,95192,1,0,0:0:0:0:
182,192,95292,1,0,0:0:0:0:
109,192,95292,1,0,0:0:0:0:
36,192,95292,1,0,0:0:0:0:
402,192,95342,1,0,0:0:0:0:
475,192,95342,1,0,0:0:0:0:
329,192,95392,1,0,0:0:0:0:
256,192,95392,1,0,0:0:0:0:
182,192,95442,1,0,0:0:0:0:
109,192,95442,1,0,0:0:0:0:
475,192,95492,1,0,0:0:0:0:
36,192,95492,1,0,0:0:0:0:
402,192,95492,1,0,0:0:0:0:
329,192,95592,1,0,0:0:0:0:
182,192,95592,1,0,0:0:0:0:
256,192,95592,1,0,0:0:0:0:
36,192,95692,1,0,0:0:0:0:
475,192,95692,1,0,0:0:0:0:
402,192,95692,1,0,0:0:0:0:
109,192,95692,1,0,0:0:0:0:
256,192,95692,128,0,97092:0:0:0:0:
182,192,95792,1,0,0:0:0:0:
329,192,95792,1,0,0:0:0:0:
36,192,95892,1,0,0:0:0:0:
475,192,95892,1,0,0:0:0:0:
109,192,95942,1,0,0:0:0:0:
402,192,95942,1,0,0:0:0:0:
182,192,95992,1,0,0:0:0:0:
329,192,95992,1,0,0:0:0:0:
36,192,96042,1,0,0:0:0:0:
475,192,96042,1,0,0:0:0:0:
109,192,96092,1,0,0:0:0:0:
402,192,96092,1,0,0:0:0:0:
182,192,96192,1,0,0:0:0:0:
329,192,96192,1,0,0:0:0:0:
36,192,96292,1,0,0:0:0:0:
475,192,96292,1,0,0:0:0:0:
109,192,96342,1,0,0:0:0:0:
402,192,96342,1,0,0:0:0:0:
182,192,96392,1,0,0:0:0:0:
329,192,96392,1,0,0:0:0:0:
329,192,96492,1,0,0:0:0:0:
182,192,96492,1,0,0:0:0:0:
402,192,96542,1,0,0:0:0:0:
109,192,96542,1,0,0:0:0:0:
475,192,96592,1,0,0:0:0:0:
36,192,96592,1,0,0:0:0:0:
329,192,96642,1,0,0:0:0:0:
182,192,96642,1,0,0:0:0:0:
402,192,96692,1,0,0:0:0:0:
109,192,96692,1,0,0:0:0:0:
475,192,96792,1,0,0:0:0:0:
36,192,96792,1,0,0:0:0:0:
329,192,96892,1,0,0:0:0:0:
182,192,96892,1,0,0:0:0:0:
402,192,96892,1,0,0:0:0:0:
109,192,96892,1,0,0:0:0:0:
475,192,96992,1,0,0:0:0:0:
36,192,96992,1,0,0:0:0:0:
329,192,97092,1,0,0:0:0:0:
402,192,97092,1,0,0:0:0:0:
475,192,97092,1,0,0:0:0:0:
109,192,97142,1,0,0:0:0:0:
182,192,97142,1,0,0:0:0:0:
36,192,97142,1,0,0:0:0:0:
256,192,97192,1,0,0:0:0:0:
475,192,97192,1,0,0:0:0:0:
402,192,97192,1,0,0:0:0:0:
182,192,97242,1,0,0:0:0:0:
109,192,97242,1,0,0:0:0:0:
36,192,97242,1,0,0:0:0:0:
329,192,97292,1,0,0:0:0:0:
402,192,97292,1,0,0:0:0:0:
475,192,97292,1,0,0:0:0:0:
256,192,97342,1,0,0:0:0:0:
182,192,97342,1,0,0:0:0:0:
109,192,97392,1,0,0:0:0:0:
36,192,97392,1,0,0:0:0:0:
475,192,97442,1,0,0:0:0:0:
402,192,97442,1,0,0:0:0:0:
329,192,97492,1,0,0:0:0:0:
256,192,97492,1,0,0:0:0:0:
182,192,97492,1,0,0:0:0:0:
109,192,97542,1,0,0:0:0:0:
36,192,97542,1,0,0:0:0:0:
475,192,97592,1,0,0:0:0:0:
402,192,97592,1,0,0:0:0:0:
329,192,97642,1,0,0:0:0:0:
256,192,97642,1,0,0:0:0:0:
182,192,97692,1,0,0:0:0:0:
109,192,97692,1,0,0:0:0:0:
36,192,97692,1,0,0:0:0:0:
329,192,97742,1,0,0:0:0:0:
402,192,97742,1,0,0:0:0:0:
475,192,97742,1,0,0:0:0:0:
256,192,97792,1,0,0:0:0:0:
36,192,97792,1,0,0:0:0:0:
109,192,97792,1,0,0:0:0:0:
329,192,97842,1,0,0:0:0:0:
402,192,97842,1,0,0:0:0:0:
475,192,97842,1,0,0:0:0:0:
109,192,97892,1,0,0:0:0:0:
36,192,97892,1,0,0:0:0:0:
182,192,97892,1,0,0:0:0:0:
329,192,97942,1,0,0:0:0:0:
256,192,97942,1,0,0:0:0:0:
402,192,97992,1,0,0:0:0:0:
475,192,97992,1,0,0:0:0:0:
36,192,98042,1,0,0:0:0:0:
109,192,98042,1,0,0:0:0:0:
329,192,98092,1,0,0:0:0:0:
256,192,98092,1,0,0:0:0:0:
182,192,98092,1,0,0:0:0:0:
475,192,98142,1,0,0:0:0:0:
402,192,98142,1,0,0:0:0:0:
109,192,98192,1,0,0:0:0:0:
36,192,98192,1,0,0:0:0:0:
182,192,98242,1,0,0:0:0:0:
256,192,98242,1,0,0:0:0:0:
329,192,98292,1,0,0:0:0:0:
402,192,98292,1,0,0:0:0:0:
475,192,98292,1,0,0:0:0:0:
182,192,98342,1,0,0:0:0:0:
109,192,98342,1,0,0:0:0:0:
36,192,98342,1,0,0:0:0:0:
329,192,98392,1,0,0:0:0:0:
402,192,98392,1,0,0:0:0:0:
475,192,98392,1,0,0:0:0:0:
182,192,98442,1,0,0:0:0:0:
109,192,98442,1,0,0:0:0:0:
36,192,98442,1,0,0:0:0:0:
329,192,98492,1,0,0:0:0:0:
402,192,98492,1,0,0:0:0:0:
475,192,98492,1,0,0:0:0:0:
256,192,98542,1,0,0:0:0:0:
182,192,98542,1,0,0:0:0:0:
109,192,98542,1,0,0:0:0:0:
402,192,98592,1,0,0:0:0:0:
475,192,98592,1,0,0:0:0:0:
329,192,98592,1,0,0:0:0:0:
256,192,98642,1,0,0:0:0:0:
182,192,98642,1,0,0:0:0:0:
109,192,98642,1,0,0:0:0:0:
329,192,98692,1,0,0:0:0:0:
402,192,98692,1,0,0:0:0:0:
475,192,98692,1,0,0:0:0:0:
182,192,98742,1,0,0:0:0:0:
109,192,98742,1,0,0:0:0:0:
36,192,98742,1,0,0:0:0:0:
329,192,98792,1,0,0:0:0:0:
402,192,98792,1,0,0:0:0:0:
475,192,98792,1,0,0:0:0:0:
182,192,98842,1,0,0:0:0:0:
109,192,98842,1,0,0:0:0:0:
36,192,98842,1,0,0:0:0:0:
256,192,98892,1,0,0:0:0:0:
329,192,98892,1,0,0:0:0:0:
402,192,98892,1,0,0:0:0:0:
182,192,98942,1,0,0:0:0:0:
109,192,98942,1,0,0:0:0:0:
36,192,98942,1,0,0:0:0:0:
329,192,98992,1,0,0:0:0:0:
256,192,98992,1,0,0:0:0:0:
402,192,98992,1,0,0:0:0:0:
182,192,99042,1,0,0:0:0:0:
109,192,99042,1,0,0:0:0:0:
36,192,99042,1,0,0:0:0:0:
329,192,99092,1,0,0:0:0:0:
402,192,99092,1,0,0:0:0:0:
475,192,99092,1,0,0:0:0:0:
182,192,99142,1,0,0:0:0:0:
109,192,99142,1,0,0:0:0:0:
36,192,99142,1,0,0:0:0:0:
329,192,99192,1,0,0:0:0:0:
402,192,99192,1,0,0:0:0:0:
475,192,99192,1,0,0:0:0:0:
182,192,99242,1,0,0:0:0:0:
109,192,99242,1,0,0:0:0:0:
36,192,99242,1,0,0:0:0:0:
329,192,99292,1,0,0:0:0:0:
256,192,99292,1,0,0:0:0:0:
402,192,99292,1,0,0:0:0:0:
475,192,99292,1,0,0:0:0:0:
182,192,99342,1,0,0:0:0:0:
109,192,99342,1,0,0:0:0:0:
36,192,99342,1,0,0:0:0:0:
256,192,99392,1,0,0:0:0:0:
329,192,99392,1,0,0:0:0:0:
402,192,99392,1,0,0:0:0:0:
475,192,99392,1,0,0:0:0:0:
182,192,99442,1,0,0:0:0:0:
109,192,99442,1,0,0:0:0:0:
36,192,99442,1,0,0:0:0:0:
256,192,99492,1,0,0:0:0:0:
402,192,99492,1,0,0:0:0:0:
475,192,99492,1,0,0:0:0:0:
329,192,99492,1,0,0:0:0:0:
182,192,99992,128,0,111335:0:0:0:0:
329,192,99992,128,0,111335:0:0:0:0:
36,192,99992,128,0,111334:0:0:0:0:
475,192,99992,128,0,111334:0:0:0:0:
182,192,112094,5,0,0:0:0:0:
109,192,112094,1,0,0:0:0:0:
36,192,112094,1,0,0:0:0:0:
329,192,112094,1,0,0:0:0:0:
402,192,112094,1,0,0:0:0:0:
475,192,112094,1,0,0:0:0:0:
