osu file format v14

[General]
AudioFilename: audio.mp3
AudioLeadIn: 0
PreviewTime: 74351
Countdown: 1
SampleSet: None
StackLeniency: 0.2
Mode: 0
LetterboxInBreaks: 0
WidescreenStoryboard: 0

[Editor]
DistanceSpacing: 0.5
BeatDivisor: 8
GridSize: 32
TimelineZoom: 1

[Metadata]
Title:Shake You Off
TitleUnicode:Shake You Off
Artist:Maryn feat. Shel Bee
ArtistUnicode:Maryn feat. Shel Bee
Creator:DemoPlayer
Version:Normalize
Source:
Tags:
BeatmapID:2139727
BeatmapSetID:1022813

[Difficulty]
HPDrainRate:5
CircleSize:4.6
OverallDifficulty:8
ApproachRate:9.6
SliderMultiplier:1.4
SliderTickRate:1

[Events]
//Background and Video events
0,0,"Shakeyouoff1k.png",0,0
//Break Periods
//Storyboard Layer 0 (Background)
//Storyboard Layer 1 (Fail)
//Storyboard Layer 2 (Pass)
//Storyboard Layer 3 (Foreground)
//Storyboard Layer 4 (Overlay)
//Storyboard Sound Samples

[TimingPoints]
170,545.454545454546,4,2,0,100,1,0
170,-100,4,2,0,100,0,0
13124,-100,4,2,0,5,0,0
13260,-100,4,2,0,100,0,0
74351,-25,4,2,0,100,0,0
75988,-66.6666666666667,4,2,0,100,0,0
76533,-25,4,2,0,100,0,0
78170,-66.6666666666667,4,2,0,100,0,0
78715,-25,4,2,0,100,0,0
80351,-66.6666666666667,4,2,0,100,0,0
80897,-25,4,2,0,100,0,0
82533,-66.6666666666667,4,2,0,100,0,0
83079,-25,4,2,0,100,0,0
84715,-66.6666666666667,4,2,0,100,0,0
85260,-25,4,2,0,100,0,0
86897,-66.6666666666667,4,2,0,100,0,0
87442,-25,4,2,0,100,0,0
89079,-66.6666666666667,4,2,0,100,0,0
89624,-25,4,2,0,100,0,0

[HitObjects]
79,142,170,5,0,0:0:0:0:
252,135,715,1,0,0:0:0:0:
102,79,1260,5,0,0:0:0:0:
243,220,1806,1,0,0:0:0:0:
162,52,2352,5,0,0:0:0:0:
157,268,2897,1,0,0:0:0:0:
225,75,3443,5,0,0:0:0:0:
48,251,3988,5,0,0:0:0:0:
163,190,4124,1,0,0:0:0:0:
70,99,4260,5,0,0:0:0:0:
71,118,4329,1,0,0:0:0:0:
73,137,4397,1,0,0:0:0:0:
76,157,4465,1,0,0:0:0:0:
78,177,4533,5,0,0:0:0:0:
338,250,5079,1,0,0:0:0:0:
121,125,5624,5,0,0:0:0:0:
264,280,6170,1,0,0:0:0:0:
187,108,6715,5,0,0:0:0:0:
188,256,7260,1,0,0:0:0:0:
253,126,7806,5,0,0:0:0:0:
160,184,8351,1,0,0:0:0:0:
262,237,8897,5,0,0:0:0:0:
172,93,9442,1,0,0:0:0:0:
220,249,9988,5,0,0:0:0:0:
258,67,10533,1,0,0:0:0:0:
135,210,10806,5,0,0:0:0:0:
103,216,10942,1,0,0:0:0:0:
177,239,11079,5,0,0:0:0:0:
345,86,11624,1,0,0:0:0:0:
145,210,11897,5,0,0:0:0:0:
145,210,12170,2,0,P|184:199|229:190,1,70
411,148,12715,2,0,P|349:162|305:171,1,105
83,213,13260,5,0,0:0:0:0:
79,220,13533,1,0,0:0:0:0:
87,224,13806,1,0,0:0:0:0:
90,216,14079,1,0,0:0:0:0:
31,296,14351,5,0,0:0:0:0:
68,311,14624,1,0,0:0:0:0:
111,309,14897,1,0,0:0:0:0:
149,285,15170,1,0,0:0:0:0:
173,177,15442,5,0,0:0:0:0:
222,134,15715,1,0,0:0:0:0:
286,128,15988,1,0,0:0:0:0:
346,155,16261,1,0,0:0:0:0:
351,280,16533,5,0,0:0:0:0:
293,330,16806,1,0,0:0:0:0:
217,337,17079,1,0,0:0:0:0:
146,304,17352,1,0,0:0:0:0:
368,206,17624,5,0,0:0:0:0:
115,233,17897,1,0,0:0:0:0:
338,269,18170,5,0,0:0:0:0:
117,142,18443,1,0,0:0:0:0:
277,302,18715,5,0,0:0:0:0:
173,70,18988,1,0,0:0:0:0:
208,294,19260,5,0,0:0:0:0:
260,45,19533,1,0,0:0:0:0:
400,253,19806,5,0,0:0:0:0:
164,146,20079,1,0,0:0:0:0:
370,106,20351,1,0,0:0:0:0:
202,301,20624,1,0,0:0:0:0:
279,59,20897,5,0,0:0:0:0:
315,312,21170,1,0,0:0:0:0:
137,128,21442,1,0,0:0:0:0:
389,173,21715,1,0,0:0:0:0:
159,285,21988,5,0,0:0:0:0:
