osu file format v14

[General]
AudioFilename: audio.mp3
AudioLeadIn: 0
PreviewTime: 15093
Countdown: 0
SampleSet: Soft
StackLeniency: 0.7
Mode: 3
LetterboxInBreaks: 0
SpecialStyle: 0
WidescreenStoryboard: 1

[Editor]
Bookmarks: 96093,111093,112093,127343,128093
DistanceSpacing: 1.6
BeatDivisor: 4
GridSize: 16
TimelineZoom: 2.6

[Metadata]
Title:VZHYH 2.0
TitleUnicode:ВЖУХ 2.0
Artist:Maryana Ro
ArtistUnicode:Марьяна Ро
Creator:AndroxiumSans
Version:Veet Mania
Source:
Tags:maryana ro марьяна ро вжух 2.0 vzhyh two point zero
BeatmapID:1627363
BeatmapSetID:774262

[Difficulty]
HPDrainRate:5
CircleSize:5
OverallDifficulty:5
ApproachRate:6
SliderMultiplier:2
SliderTickRate:1

[Events]
//Background and Video events
0,0,"mania-bg.jpg",0,0
//Break Periods
2,32293,38543
2,80293,81543
2,84293,85543
2,88293,89543
2,92293,95043
//Storyboard Layer 0 (Background)
//Storyboard Layer 1 (Fail)
//Storyboard Layer 2 (Pass)
//Storyboard Layer 3 (Foreground)
//Storyboard Sound Samples

[TimingPoints]
93,500,4,2,0,40,1,0
93,-200,4,2,0,40,0,0
7093,-400,4,2,0,20,0,0
8093,-100,4,2,0,60,0,0
9843,-100,4,2,0,40,0,0
12093,-100,4,2,0,60,0,0
13843,-100,4,2,0,40,0,0
15093,-50,4,2,0,80,0,0
16093,-100,4,2,0,80,0,1
32093,-133.333333333333,4,2,0,60,0,0
40093,-100,4,2,0,60,0,0
48093,-80,4,2,0,60,0,0
56093,-66.6666666666667,4,2,0,60,0,0
60093,-133.333333333333,4,2,0,40,0,0
60343,-100,4,2,0,60,0,0
62093,-400,4,2,0,20,0,0
63093,-50,4,2,0,60,0,0
64093,-100,4,2,0,60,0,1
80093,-200,4,2,0,60,0,0
96093,-133.333333333333,4,2,0,60,0,0
111093,-66.6666666666667,4,2,0,80,0,0
112093,-100,4,2,0,80,0,1
116093,-80,4,2,0,80,0,1
116218,-100,4,2,0,80,0,1
128093,-133.333333333333,4,2,0,60,0,0
176093,-200,4,2,0,60,0,0

[HitObjects]
51,192,93,128,0,1968:0:0:0:0:
256,192,2093,128,0,3968:0:0:0:0:
358,192,4093,128,0,5968:0:0:0:0:
153,192,6093,128,0,7968:0:0:0:0:
256,192,7593,1,0,0:0:0:0:
51,192,8093,1,2,0:0:0:0:
51,192,8343,1,2,0:0:0:0:
51,192,8593,1,2,0:0:0:0:
51,192,8843,1,2,0:0:0:0:
460,192,8968,1,2,0:0:0:0:
460,192,9093,1,2,0:0:0:0:
51,192,9343,1,2,0:0:0:0:
460,192,9593,1,2,0:0:0:0:
460,192,12093,1,2,0:0:0:0:
51,192,12343,1,2,0:0:0:0:
460,192,12593,1,2,0:0:0:0:
51,192,12843,1,2,0:0:0:0:
460,192,12968,1,2,0:0:0:0:
51,192,12968,1,2,0:0:0:0:
460,192,13093,1,2,0:0:0:0:
51,192,13343,1,2,0:0:0:0:
460,192,13593,1,2,0:0:0:0:
358,192,15343,1,2,0:0:0:0:
358,192,15593,1,2,0:0:0:0:
358,192,15843,1,2,0:0:0:0:
256,192,16093,128,8,17593:0:0:0:0:
358,192,16093,1,4,0:0:0:0:
460,192,16593,1,8,0:0:0:0:
460,192,17093,1,0,0:0:0:0:
460,192,17593,1,8,0:0:0:0:
358,192,17843,1,0,0:0:0:0:
358,192,18093,1,0,0:0:0:0:
460,192,18343,1,0,0:0:0:0:
460,192,18593,1,8,0:0:0:0:
256,192,18843,1,0,0:0:0:0:
256,192,19093,1,0,0:0:0:0:
358,192,19343,1,0,0:0:0:0:
358,192,19593,1,8,0:0:0:0:
460,192,19843,1,0,0:0:0:0:
460,192,20093,128,0,21593:0:0:0:0:
51,192,20593,1,8,0:0:0:0:
51,192,21093,1,0,0:0:0:0:
153,192,21593,128,10,22093:0:0:0:0:
358,192,21593,128,10,22093:0:0:0:0:
51,192,22093,1,2,0:0:0:0:
460,192,22093,1,2,0:0:0:0:
51,192,22343,1,2,0:0:0:0:
460,192,22343,128,2,22593:0:0:0:0:
51,192,22593,1,2,0:0:0:0:
51,192,23093,1,2,0:0:0:0:
460,192,23093,1,2,0:0:0:0:
460,192,23343,1,2,0:0:0:0:
51,192,23343,1,2,0:0:0:0:
460,192,23593,1,2,0:0:0:0:
51,192,23593,1,2,0:0:0:0:
51,192,23843,1,2,0:0:0:0:
460,192,23843,1,2,0:0:0:0:
153,192,24093,128,4,24593:0:0:0:0:
358,192,24093,128,4,24593:0:0:0:0:
51,192,24593,1,8,0:0:0:0:
460,192,24593,1,8,0:0:0:0:
51,192,24843,1,0,0:0:0:0:
460,192,24843,1,0,0:0:0:0:
51,192,25093,1,0,0:0:0:0:
460,192,25093,1,0,0:0:0:0:
51,192,25343,1,0,0:0:0:0:
460,192,25343,1,0,0:0:0:0:
358,192,25593,1,10,0:0:0:0:
153,192,25593,1,10,0:0:0:0:
153,192,25843,1,0,0:0:0:0:
358,192,26093,1,0,0:0:0:0:
153,192,26343,1,0,0:0:0:0:
256,192,26593,1,8,0:0:0:0:
256,192,26843,1,0,0:0:0:0:
256,192,27093,1,0,0:0:0:0:
256,192,27343,1,0,0:0:0:0:
256,192,27593,1,8,0:0:0:0:
256,192,27843,1,0,0:0:0:0:
460,192,28093,128,0,28593:0:0:0:0:
256,192,28593,128,8,29093:0:0:0:0:
358,192,29093,128,0,29593:0:0:0:0:
460,192,29593,1,8,0:0:0:0:
358,192,29843,1,0,0:0:0:0:
460,192,30093,128,0,30593:0:0:0:0:
358,192,30593,1,8,0:0:0:0:
460,192,30843,1,0,0:0:0:0:
153,192,31093,128,0,31593:0:0:0:0:
51,192,31343,1,0,0:0:0:0:
51,192,31593,1,8,0:0:0:0:
51,192,32093,1,0,0:0:0:0:
256,192,32093,1,0,0:0:0:0:
460,192,32093,1,0,0:0:0:0:
256,192,39593,132,2,40093:0:0:0:0:
51,192,40093,128,0,42093:0:0:0:0:
153,192,40593,1,8,0:0:0:0:
256,192,41093,1,0,0:0:0:0:
358,192,41593,1,8,0:0:0:0:
153,192,42093,128,0,44093:0:0:0:0:
256,192,42593,1,0,0:0:0:0:
256,192,43093,1,0,0:0:0:0:
358,192,43343,1,0,0:0:0:0:
256,192,43593,1,8,0:0:0:0:
256,192,44093,128,0,46093:0:0:0:0:
153,192,44593,1,8,0:0:0:0:
460,192,45093,1,0,0:0:0:0:
51,192,45593,1,8,0:0:0:0:
358,192,46093,128,0,48093:0:0:0:0:
153,192,46593,128,8,47093:0:0:0:0:
460,192,47093,128,0,47593:0:0:0:0:
256,192,47343,128,0,47593:0:0:0:0:
153,192,47593,128,8,47843:0:0:0:0:
51,192,47843,128,0,48093:0:0:0:0:
153,192,48093,1,2,0:0:0:0:
460,192,48093,128,0,50093:0:0:0:0:
153,192,48593,1,8,0:0:0:0:
256,192,49093,1,0,0:0:0:0:
358,192,49593,1,8,0:0:0:0:
153,192,50093,128,0,52093:0:0:0:0:
256,192,50593,1,0,0:0:0:0:
256,192,51093,1,0,0:0:0:0:
358,192,51343,1,0,0:0:0:0:
256,192,51593,1,8,0:0:0:0:
256,192,52093,128,0,54093:0:0:0:0:
153,192,52593,1,8,0:0:0:0:
460,192,53093,1,0,0:0:0:0:
51,192,53593,1,8,0:0:0:0:
358,192,54093,128,0,56093:0:0:0:0:
153,192,54593,128,8,55093:0:0:0:0:
460,192,55093,128,0,55593:0:0:0:0:
256,192,55343,128,0,55593:0:0:0:0:
153,192,55593,128,8,55843:0:0:0:0:
51,192,55843,128,0,56093:0:0:0:0:
153,192,56093,1,2,0:0:0:0:
256,192,56093,128,0,59593:0:0:0:0:
153,192,56593,1,8,0:0:0:0:
358,192,57093,1,0,0:0:0:0:
153,192,57593,1,8,0:0:0:0:
153,192,58093,128,0,60093:0:0:0:0:
358,192,58593,1,8,0:0:0:0:
460,192,59093,1,0,0:0:0:0:
358,192,59593,1,8,0:0:0:0:
358,192,60093,128,0,63843:0:0:0:0:
153,192,60593,1,8,0:0:0:0:
256,192,61093,1,0,0:0:0:0:
153,192,61593,1,10,0:0:0:0:
153,192,61843,1,2,0:0:0:0:
153,192,62343,1,2,0:0:0:0:
153,192,62468,1,0,0:0:0:0:
153,192,62593,1,2,0:0:0:0:
153,192,62843,1,2,0:0:0:0:
460,192,63093,1,2,0:0:0:0:
256,192,63343,128,0,63843:0:0:0:0:
153,192,63593,128,0,63843:0:0:0:0:
51,192,63843,1,0,0:0:0:0:
256,192,64093,128,8,65593:0:0:0:0:
358,192,64093,1,4,0:0:0:0:
460,192,64593,1,8,0:0:0:0:
460,192,65093,1,0,0:0:0:0:
460,192,65593,1,8,0:0:0:0:
358,192,65843,1,0,0:0:0:0:
358,192,66093,1,0,0:0:0:0:
460,192,66343,1,0,0:0:0:0:
460,192,66593,1,8,0:0:0:0:
256,192,66843,1,0,0:0:0:0:
256,192,67093,1,0,0:0:0:0:
358,192,67343,1,0,0:0:0:0:
358,192,67593,1,8,0:0:0:0:
460,192,67843,1,0,0:0:0:0:
460,192,68093,128,0,69593:0:0:0:0:
51,192,68593,1,8,0:0:0:0:
51,192,69093,1,0,0:0:0:0:
153,192,69593,128,10,70093:0:0:0:0:
358,192,69593,128,10,70093:0:0:0:0:
51,192,70093,1,2,0:0:0:0:
460,192,70093,1,2,0:0:0:0:
51,192,70343,1,2,0:0:0:0:
460,192,70343,128,2,70593:0:0:0:0:
51,192,70593,1,2,0:0:0:0:
51,192,70843,1,2,0:0:0:0:
51,192,70968,1,2,0:0:0:0:
51,192,71093,1,2,0:0:0:0:
460,192,71093,1,2,0:0:0:0:
460,192,71343,1,2,0:0:0:0:
51,192,71343,1,2,0:0:0:0:
460,192,71593,1,2,0:0:0:0:
51,192,71593,1,2,0:0:0:0:
51,192,71843,1,2,0:0:0:0:
460,192,71843,1,2,0:0:0:0:
153,192,72093,128,4,72593:0:0:0:0:
358,192,72093,128,4,72593:0:0:0:0:
51,192,72593,1,8,0:0:0:0:
460,192,72593,1,8,0:0:0:0:
51,192,72843,1,0,0:0:0:0:
460,192,72843,1,0,0:0:0:0:
51,192,73093,1,0,0:0:0:0:
460,192,73093,1,0,0:0:0:0:
51,192,73343,1,0,0:0:0:0:
460,192,73343,1,0,0:0:0:0:
358,192,73593,1,10,0:0:0:0:
153,192,73593,1,10,0:0:0:0:
153,192,73843,1,0,0:0:0:0:
358,192,74093,1,0,0:0:0:0:
153,192,74343,1,0,0:0:0:0:
256,192,74593,1,8,0:0:0:0:
256,192,74843,1,0,0:0:0:0:
256,192,75093,1,0,0:0:0:0:
256,192,75343,1,0,0:0:0:0:
256,192,75593,1,8,0:0:0:0:
256,192,75843,1,0,0:0:0:0:
460,192,76093,128,0,76593:0:0:0:0:
256,192,76593,128,8,77093:0:0:0:0:
358,192,77093,128,0,77593:0:0:0:0:
460,192,77593,1,8,0:0:0:0:
358,192,77843,1,0,0:0:0:0:
460,192,78093,128,0,78593:0:0:0:0:
358,192,78593,1,8,0:0:0:0:
460,192,78843,1,0,0:0:0:0:
153,192,79093,128,0,79593:0:0:0:0:
51,192,79343,1,0,0:0:0:0:
51,192,79593,1,8,0:0:0:0:
51,192,80093,1,0,0:0:0:0:
256,192,80093,1,0,0:0:0:0:
460,192,80093,1,0,0:0:0:0:
256,192,82593,132,0,83093:0:0:0:0:
153,192,83093,128,0,83593:0:0:0:0:
358,192,83593,128,0,84093:0:0:0:0:
256,192,86593,132,0,87093:0:0:0:0:
153,192,87093,128,0,87593:0:0:0:0:
358,192,87593,128,0,88093:0:0:0:0:
256,192,90593,132,0,91093:0:0:0:0:
153,192,91093,128,0,91593:0:0:0:0:
358,192,91593,128,0,92093:0:0:0:0:
51,192,96093,5,0,0:0:0:0:
153,192,96343,1,0,0:0:0:0:
256,192,96593,1,8,0:0:0:0:
358,192,96843,1,0,0:0:0:0:
460,192,97093,1,0,0:0:0:0:
358,192,97343,1,0,0:0:0:0:
256,192,97593,1,8,0:0:0:0:
153,192,97843,1,0,0:0:0:0:
51,192,98093,128,0,98343:0:0:0:0:
153,192,98593,128,8,98843:0:0:0:0:
256,192,99093,128,0,99343:0:0:0:0:
358,192,99593,128,8,99843:0:0:0:0:
51,192,100093,1,0,0:0:0:0:
358,192,100093,1,0,0:0:0:0:
153,192,100343,1,0,0:0:0:0:
358,192,100343,1,0,0:0:0:0:
358,192,100593,1,8,0:0:0:0:
256,192,100593,1,8,0:0:0:0:
358,192,100843,1,0,0:0:0:0:
358,192,101093,128,0,101343:0:0:0:0:
256,192,101343,128,0,101593:0:0:0:0:
153,192,101593,128,10,101843:0:0:0:0:
460,192,101843,128,2,102093:0:0:0:0:
358,192,102093,1,2,0:0:0:0:
256,192,102843,128,0,103593:0:0:0:0:
460,192,104093,1,0,0:0:0:0:
358,192,104343,1,0,0:0:0:0:
256,192,104593,1,8,0:0:0:0:
153,192,104843,1,0,0:0:0:0:
51,192,105093,1,0,0:0:0:0:
153,192,105343,1,0,0:0:0:0:
256,192,105593,1,8,0:0:0:0:
358,192,105843,1,0,0:0:0:0:
460,192,106093,128,0,106343:0:0:0:0:
358,192,106593,128,8,106843:0:0:0:0:
256,192,107093,128,0,107343:0:0:0:0:
153,192,107593,128,8,107843:0:0:0:0:
460,192,108093,1,0,0:0:0:0:
153,192,108093,1,0,0:0:0:0:
358,192,108343,1,0,0:0:0:0:
153,192,108343,1,0,0:0:0:0:
153,192,108593,1,8,0:0:0:0:
256,192,108593,1,8,0:0:0:0:
153,192,108843,1,0,0:0:0:0:
153,192,109093,128,0,109343:0:0:0:0:
256,192,109343,128,0,109593:0:0:0:0:
358,192,109593,128,10,109843:0:0:0:0:
51,192,109843,128,2,110093:0:0:0:0:
153,192,110093,1,2,0:0:0:0:
256,192,111343,128,2,111843:0:0:0:0:
153,192,111593,128,2,111843:0:0:0:0:
358,192,111843,1,2,0:0:0:0:
256,192,112093,128,8,113593:0:0:0:0:
358,192,112093,1,4,0:0:0:0:
460,192,112593,1,8,0:0:0:0:
460,192,113093,1,0,0:0:0:0:
460,192,113593,1,8,0:0:0:0:
358,192,113843,1,0,0:0:0:0:
358,192,114093,1,0,0:0:0:0:
460,192,114343,1,0,0:0:0:0:
460,192,114593,1,8,0:0:0:0:
256,192,114843,1,0,0:0:0:0:
256,192,115093,1,0,0:0:0:0:
358,192,115343,1,0,0:0:0:0:
358,192,115593,1,8,0:0:0:0:
460,192,115843,1,0,0:0:0:0:
460,192,116093,128,0,117593:0:0:0:0:
51,192,116593,1,8,0:0:0:0:
51,192,117093,1,0,0:0:0:0:
153,192,117593,128,10,118093:0:0:0:0:
358,192,117593,128,10,118093:0:0:0:0:
51,192,118093,1,2,0:0:0:0:
460,192,118093,1,2,0:0:0:0:
51,192,118343,1,2,0:0:0:0:
460,192,118343,128,2,118593:0:0:0:0:
51,192,118593,1,2,0:0:0:0:
51,192,118843,1,2,0:0:0:0:
51,192,118968,1,2,0:0:0:0:
51,192,119093,1,2,0:0:0:0:
460,192,119093,1,2,0:0:0:0:
460,192,119343,1,2,0:0:0:0:
51,192,119343,1,2,0:0:0:0:
460,192,119593,1,2,0:0:0:0:
51,192,119593,1,2,0:0:0:0:
51,192,119843,1,2,0:0:0:0:
460,192,119843,1,2,0:0:0:0:
153,192,120093,128,4,120593:0:0:0:0:
358,192,120093,128,4,120593:0:0:0:0:
51,192,120593,1,8,0:0:0:0:
460,192,120593,1,8,0:0:0:0:
51,192,120843,1,0,0:0:0:0:
460,192,120843,1,0,0:0:0:0:
51,192,121093,1,0,0:0:0:0:
460,192,121093,1,0,0:0:0:0:
51,192,121343,1,0,0:0:0:0:
460,192,121343,1,0,0:0:0:0:
358,192,121593,1,10,0:0:0:0:
153,192,121593,1,10,0:0:0:0:
153,192,121843,1,0,0:0:0:0:
358,192,122093,1,0,0:0:0:0:
153,192,122343,1,0,0:0:0:0:
256,192,122593,1,8,0:0:0:0:
256,192,122843,1,0,0:0:0:0:
256,192,123093,1,0,0:0:0:0:
256,192,123343,1,0,0:0:0:0:
256,192,123593,1,8,0:0:0:0:
256,192,123843,1,0,0:0:0:0:
460,192,124093,128,0,124593:0:0:0:0:
256,192,124593,128,8,125093:0:0:0:0:
358,192,125093,128,0,125593:0:0:0:0:
460,192,125593,1,8,0:0:0:0:
358,192,125843,1,0,0:0:0:0:
460,192,126093,128,0,126593:0:0:0:0:
358,192,126593,1,8,0:0:0:0:
460,192,126843,1,0,0:0:0:0:
153,192,127093,128,0,127593:0:0:0:0:
51,192,127343,1,0,0:0:0:0:
51,192,127593,1,8,0:0:0:0:
153,192,127843,1,0,0:0:0:0:
358,192,127843,1,0,0:0:0:0:
51,192,128093,1,0,0:0:0:0:
256,192,128093,1,0,0:0:0:0:
460,192,128093,1,0,0:0:0:0:
153,192,128093,128,0,128593:0:0:0:0:
358,192,128093,128,0,128593:0:0:0:0:
256,192,128593,128,0,130093:0:0:0:0:
