osu file format v14

[General]
AudioFilename: audio.mp3
AudioLeadIn: 0
PreviewTime: 15093
Countdown: 0
SampleSet: Soft
StackLeniency: 0.7
Mode: 0
LetterboxInBreaks: 0
WidescreenStoryboard: 1

[Editor]
Bookmarks: 96093,111093,112093,127343,128093
DistanceSpacing: 1.6
BeatDivisor: 4
GridSize: 16
TimelineZoom: 1

[Metadata]
Title:VZHYH 2.0
TitleUnicode:ВЖУХ 2.0
Artist:Maryana Ro
ArtistUnicode:Марьяна Ро
Creator:AndroxiumSans
Version:Easy
Source:
Tags:maryana ro марьяна ро вжух 2.0 vzhyh two point zero
BeatmapID:1627360
BeatmapSetID:774262

[Difficulty]
HPDrainRate:2
CircleSize:2
OverallDifficulty:2
ApproachRate:2
SliderMultiplier:0.999999999999999
SliderTickRate:1

[Events]
//Background and Video events
0,0,"ez-bg.jpg",0,0
//Break Periods
2,32293,38533
2,56293,58533
2,80293,86533
//Storyboard Layer 0 (Background)
//Storyboard Layer 1 (Fail)
//Storyboard Layer 2 (Pass)
//Storyboard Layer 3 (Foreground)
//Storyboard Sound Samples

[TimingPoints]
93,500,4,2,0,40,1,0
93,-100,4,2,0,40,0,0
7093,-100,4,2,0,20,0,0
8093,-100,4,2,0,60,0,0
9843,-100,4,2,0,40,0,0
12093,-100,4,2,0,60,0,0
13843,-100,4,2,0,40,0,0
15093,-100,4,2,0,80,0,0
16093,-100,4,2,0,80,0,1
32093,-100,4,2,0,60,0,0
40093,-100,4,2,0,60,0,0
48093,-100,4,2,0,60,0,0
56093,-100,4,2,0,60,0,0
62093,-100,4,2,0,20,0,0
63093,-100,4,2,0,60,0,0
64093,-100,4,2,0,60,0,1
80093,-100,4,2,0,60,0,0
96093,-100,4,2,0,60,0,0
111093,-100,4,2,0,80,0,0
112093,-100,4,2,0,80,0,1
128093,-100,4,2,0,60,0,0
176093,-100,4,2,0,60,0,0

[Colours]
Combo1 : 0,255,255
Combo2 : 255,0,0
Combo3 : 255,255,0
Combo4 : 128,255,0

[HitObjects]
96,288,8093,6,0,B|96:80|96:80|288:80,1,400
288,208,11093,1,0,0:0:0:0:
416,208,12093,2,0,B|416:304|416:320|64:320,1,400
256,192,14593,12,4,16093,0:0:0:0:
112,272,18093,6,0,L|112:160,1,99.9999999999999,0|8,0:0|0:0,0:0:0:0:
112,48,19093,2,0,L|224:48,1,99.9999999999999,0|8,0:0|0:0,0:0:0:0:
320,48,20093,2,0,L|320:160,2,99.9999999999999,0|8|0,0:0|0:0|0:0,0:0:0:0:
208,48,21593,1,0,0:0:0:0:
64,48,22093,2,0,L|64:256,2,200,0|0|4,0:0|0:0|0:0,0:0:0:0:
160,48,24593,5,8,0:0:0:0:
256,48,25093,2,0,L|368:48,1,99.9999999999999,0|8,0:0|0:0,0:0:0:0:
464,48,26093,2,0,L|464:160,1,99.9999999999999,0|8,0:0|0:0,0:0:0:0:
464,240,27093,2,0,L|464:352,1,99.9999999999999,0|8,0:0|0:0,0:0:0:0:
256,192,28093,12,0,32093,0:0:0:0:
400,112,40093,6,0,B|416:125|416:125|400:224,1,99.9999999999999,4|8,0:0|0:0,0:0:0:0:
400,304,41093,2,0,B|384:320|384:320|288:304,1,99.9999999999999,0|8,0:0|0:0,0:0:0:0:
192,336,42093,2,0,B|176:240|176:240|192:224,2,99.9999999999999,0|8|0,0:0|0:0|0:0,0:0:0:0:
304,336,43593,1,0,0:0:0:0:
432,336,44093,2,0,B|448:240|448:240|432:128,2,200
320,336,46593,2,0,L|208:336,1,99.9999999999999,8|0,0:0|0:0,0:0:0:0:
128,336,47343,2,0,L|64:336,2,50,2|10|2,0:0|0:0|0:0,0:3:0:0:
128,240,48093,6,0,L|128:128,1,99.9999999999999,4|8,0:0|0:0,0:0:0:0:
128,48,49093,2,0,L|240:48,1,99.9999999999999,0|8,0:0|0:0,0:0:0:0:
320,48,50093,6,0,L|320:160,1,99.9999999999999,0|8,0:0|0:0,0:0:0:0:
320,240,51093,2,0,L|208:240,1,99.9999999999999,0|8,0:0|0:0,0:0:0:0:
112,240,52093,2,0,B|64:240|64:240|32:176,2,99.9999999999999,0|8|0,0:0|0:0|0:0,0:0:0:0:
224,240,53593,1,8,0:0:0:0:
256,192,54093,12,4,56093,0:0:0:0:
256,192,60093,12,0,61843,0:0:0:0:
96,192,64093,6,0,B|112:144|112:144|176:112,1,99.9999999999999,4|8,0:0|0:0,0:0:0:0:
224,48,65093,2,0,B|272:64|272:64|304:128,1,99.9999999999999,0|8,0:0|0:0,0:0:0:0:
368,160,66093,2,0,B|352:208|352:208|288:240,1,99.9999999999999,0|8,0:0|0:0,0:0:0:0:
256,304,67093,2,0,B|208:288|208:288|176:224,1,99.9999999999999,0|8,0:0|0:0,0:0:0:0:
160,160,68093,1,0,0:0:0:0:
256,160,68593,2,0,L|256:272,2,99.9999999999999,8|0|8,0:0|0:0|0:0,0:0:0:0:
256,64,70093,1,0,0:0:0:0:
352,64,70593,2,0,L|464:64,2,99.9999999999999,8|0|8,0:0|0:0|0:0,0:0:0:0:
256,64,72093,6,0,B|176:64|176:64|160:80,1,99.9999999999999,4|8,0:0|0:0,0:0:0:0:
128,176,73093,2,0,B|208:176|208:176|224:160,1,99.9999999999999,0|8,0:0|0:0,0:0:0:0:
288,80,74093,1,0,0:0:0:0:
384,80,75093,1,8,0:0:0:0:
480,80,76093,2,0,L|480:192,1,99.9999999999999,0|8,0:0|0:0,0:0:0:0:
480,272,77093,2,0,L|368:272,1,99.9999999999999,0|8,0:0|0:0,0:0:0:0:
256,192,78093,12,4,80093,0:0:0:0:
400,272,88093,6,0,B|416:258|416:258|400:160,1,99.9999999999999,4|8,0:0|0:0,0:0:0:0:
400,80,89093,2,0,B|384:64|384:64|288:80,1,99.9999999999999,0|8,0:0|0:0,0:0:0:0:
192,48,90093,2,0,B|176:144|176:144|192:160,2,99.9999999999999,0|8|0,0:0|0:0|0:0,0:0:0:0:
304,48,91593,1,0,0:0:0:0:
432,48,92093,2,0,B|416:144|416:144|432:256,2,200
320,48,94593,2,0,L|208:48,1,99.9999999999999,8|0,0:0|0:0,0:0:0:0:
128,48,95343,2,0,L|64:48,2,50,2|10|2,0:0|0:0|0:0,0:3:0:0:
128,144,96093,6,0,P|112:192|128:256,1,99.9999999999999,4|8,0:0|0:0,0:0:0:0:
128,336,97093,2,0,P|176:352|240:336,1,99.9999999999999,0|8,0:0|0:0,0:0:0:0:
320,336,98093,6,0,P|336:272|320:224,1,99.9999999999999,0|8,0:0|0:0,0:0:0:0:
320,144,99093,2,0,P|272:128|208:144,1,99.9999999999999,0|8,0:0|0:0,0:0:0:0:
112,144,100093,2,0,B|96:192|96:192|32:208,2,99.9999999999999,0|8|0,0:0|0:0|0:0,0:0:0:0:
224,144,101593,1,8,0:0:0:0:
256,192,102093,12,4,104093,0:0:0:0:
128,128,106093,6,0,L|240:128,1,99.9999999999999,0|8,0:0|0:0,0:0:0:0:
336,128,107093,2,0,L|336:240,2,99.9999999999999,0|8|0,0:0|0:0|0:0,0:0:0:0:
336,32,108593,2,0,L|224:32,1,99.9999999999999,8|0,0:0|0:0,0:0:0:0:
112,32,109593,1,8,0:0:0:0:
256,192,110093,12,4,112093,0:0:0:0:
400,112,114093,6,0,L|400:224,1,99.9999999999999,0|8,0:0|0:0,0:0:0:0:
400,336,115093,2,0,L|288:336,1,99.9999999999999,0|8,0:0|0:0,0:0:0:0:
192,336,116093,2,0,L|192:224,2,99.9999999999999,0|8|0,0:0|0:0|0:0,0:0:0:0:
304,336,117593,1,0,0:0:0:0:
448,336,118093,2,0,L|448:128,2,200,0|0|4,0:0|0:0|0:0,0:0:0:0:
336,336,120593,6,0,L|224:336,2,99.9999999999999,8|0|8,0:0|0:0|0:0,0:0:0:0:
432,336,122093,1,0,0:0:0:0:
432,240,123093,1,8,0:0:0:0:
432,160,124093,2,0,B|400:112|400:112|336:112,1,99.9999999999999,0|8,0:0|0:0,0:0:0:0:
256,112,125093,2,0,L|144:112,1,99.9999999999999,0|8,0:0|0:0,0:0:0:0:
256,192,126093,12,0,129961,0:0:0:0:
