osu file format v14

[General]
AudioFilename: audio.ogg
AudioLeadIn: 0
PreviewTime: 106468
Countdown: 0
SampleSet: Soft
StackLeniency: 0.7
Mode: 0
LetterboxInBreaks: 0
WidescreenStoryboard: 1

[Editor]
Bookmarks: 116323,135436,152906
DistanceSpacing: 1.2
BeatDivisor: 4
GridSize: 8
TimelineZoom: 1.7

[Metadata]
Title:Shackles (Praise You)
TitleUnicode:Shackles (Praise You)
Artist:Mary Mary
ArtistUnicode:Mary Mary
Creator:AJT
Version:Aranel's Hard
Source:
Tags:english r&b pop black gospel hip hop aranel fsjallink
BeatmapID:4046658
BeatmapSetID:1863282

[Difficulty]
HPDrainRate:5
CircleSize:3.8
OverallDifficulty:7
ApproachRate:8
SliderMultiplier:2.4
SliderTickRate:1

[Events]
//Background and Video events
0,0,"tBv14sp.jpeg",0,0
Video,-751,"video.mp4"
//Break Periods
2,106966,108405
2,109654,110794
2,112043,112885
//Storyboard Layer 0 (Background)
//Storyboard Layer 1 (Fail)
//Storyboard Layer 2 (Pass)
//Storyboard Layer 3 (Foreground)
//Storyboard Layer 4 (Overlay)
//Storyboard Sound Samples

[TimingPoints]
1645,597.282365238166,4,2,1,80,1,0
11201,-90.9090909090909,4,2,1,100,0,1
30314,-111.111111111111,4,2,1,80,0,0
49427,-90.9090909090909,4,2,1,100,0,1
62119,-90.9090909090909,4,2,1,80,0,1
62567,-90.9090909090909,4,2,1,100,0,1
66748,-111.111111111111,4,2,1,100,0,1
67346,-142.857142857143,4,2,1,100,0,1
68540,-111.111111111111,4,2,1,80,0,0
87653,-90.9090909090909,4,2,1,100,0,1
96612,-76.9230769230769,4,2,1,90,0,1
97210,-90.9090909090909,4,2,1,100,0,1
105572,-90.9090909090909,4,2,1,90,0,1
106169,-90.9090909090909,4,2,1,100,0,1
106766,-100,4,2,1,80,0,0
113934,-66.6666666666667,4,2,1,60,0,1
114531,-66.6666666666667,4,2,1,70,0,1
115128,-66.6666666666667,4,2,1,85,0,1
115725,-100,4,2,1,80,0,0
116323,-90.9090909090909,4,2,1,100,0,1
128119,-76.9230769230769,4,2,1,100,0,1
129762,-90.9090909090909,4,2,1,100,0,1
133644,-76.9230769230769,4,2,1,100,0,1
134838,-76.9230769230769,4,2,1,100,0,1
135436,-90.9090909090909,4,2,1,100,0,1
144395,-76.9230769230769,4,2,1,100,0,1
144992,-90.9090909090909,4,2,1,100,0,1
147381,-83.3333333333333,4,2,1,100,0,1
147829,-90.9090909090909,4,2,1,100,0,1
154549,-142.857142857143,4,2,1,80,0,0
159184,-111.111111111111,4,2,1,80,0,0
163657,-83.3333333333334,4,2,1,80,0,0
164105,-83.3333333333333,4,2,1,100,0,1
167241,-76.9230769230769,4,2,1,100,0,1
167689,-83.3333333333333,4,2,1,100,0,1
170078,-111.111111111111,4,2,1,80,0,0
170675,-83.3333333333333,4,2,1,100,0,1
171273,-125,4,2,1,80,0,0
171870,-83.3333333333333,4,2,1,100,0,1
172467,-125,4,2,1,80,0,0
173065,-76.9230769230769,4,2,1,100,0,1
173662,-100,4,2,1,80,0,0

[Colours]
Combo1 : 192,192,192
Combo2 : 255,128,64
Combo3 : 255,255,0
Combo4 : 0,128,192

[HitObjects]
366,36,8812,6,0,P|486:87|381:253,1,360,4|0,3:1|0:0,0:0:0:0:
402,252,10006,2,0,P|360:295|329:346,1,120,4|0,3:1|0:0,0:0:0:0:
203,252,10604,2,0,P|203:311|218:370,1,120,12|2,1:1|0:0,0:0:0:0:
218,370,11052,1,2,0:0:0:0:
218,370,11201,5,4,1:1:0:0:
66,323,11500,1,2,0:2:0:0:
203,252,11798,1,8,1:0:0:0:
51,205,12097,1,2,0:2:0:0:
188,134,12396,2,0,P|200:65|208:-3,1,132.00000402832,4|2,3:3|0:0,0:0:0:0:
70,74,12993,2,0,P|58:138|50:204,1,132.00000402832,8|2,1:0|0:0,0:0:0:0:
5,269,13441,1,2,0:3:0:0:
54,331,13590,6,0,L|135:318,1,66.0000020141602,4|0,3:3|0:0,0:0:0:0:
177,266,13889,2,0,B|254:267|235:307|305:312,1,132.00000402832,2|8,0:3|1:1,0:0:0:0:
308,231,14337,2,0,B|361:286|320:301|365:354,1,132.00000402832,2|0,0:3|0:0,0:0:0:0:
360,348,14785,1,2,3:2:0:0:
482,264,15083,5,2,0:0:0:0:
482,264,15233,2,0,P|492:237|501:167,1,66.0000020141602,2|8,0:0|1:0,0:0:0:0:
405,211,15531,2,0,P|440:277|456:345,1,132.00000402832,2|2,0:0|0:0,0:0:0:0:
512,384,15979,2,0,P|415:360|318:340,1,198.000006042481,6|2,0:3|0:0,0:0:0:0:
257,289,16577,1,8,1:0:0:0:
257,289,16726,1,0,3:2:0:0:
257,289,16875,1,2,0:3:0:0:
131,384,17174,1,2,3:2:0:0:
30,264,17472,5,2,0:0:0:0:
30,264,17622,2,0,P|20:237|11:167,1,66.0000020141602,2|8,0:0|1:0,0:0:0:0:
107,211,17920,2,0,P|72:277|56:345,1,132.00000402832,2|2,0:0|0:0,0:0:0:0:
0,384,18368,2,0,P|96:360|193:340,1,198.000006042481,4|2,2:3|0:0,0:0:0:0:
255,289,18966,1,8,1:0:0:0:
381,384,19264,5,2,3:0:0:0:
381,384,19414,1,0,3:0:0:0:
381,384,19563,1,4,3:2:0:0:
482,264,19862,1,2,3:0:0:0:
482,264,20011,1,0,3:2:0:0:
482,264,20160,2,0,P|487:234|500:183,1,66.0000020141602,8|4,1:0|3:0,0:0:0:0:
441,141,20459,2,0,P|409:149|376:152,1,66.0000020141602,8|2,3:0|3:2,0:0:0:0:
312,108,20758,5,4,1:1:0:0:
139,42,21056,1,2,0:2:0:0:
261,183,21355,1,8,1:1:0:0:
77,172,21653,1,2,0:2:0:0:
228,268,21952,2,0,P|162:293|100:321,2,132.00000402832,4|2|8,3:0|0:0|1:0,0:0:0:0:
354,363,22848,1,2,0:0:0:0:
431,379,22997,1,2,0:3:0:0:
471,305,23146,6,0,P|463:269|458:224,1,66.0000020141602,2|0,3:2|0:0,0:0:0:0:
395,192,23445,2,0,P|408:127|435:42,1,132.00000402832,2|8,0:3|1:1,0:0:0:0:
350,40,23893,2,0,P|331:103|318:167,1,132.00000402832,2|0,0:3|0:0,0:0:0:0:
250,209,24341,1,2,3:2:0:0:
145,97,24639,5,2,0:0:0:0:
145,97,24789,2,0,P|104:85|68:81,1,66.0000020141602,2|8,0:0|1:0,0:0:0:0:
15,38,25087,2,0,P|36:100|45:165,1,132.00000402832,2|2,0:0|0:0,0:0:0:0:
0,235,25535,2,0,B|77:178|124:247|202:195,1,198.000006042481,6|2,2:3|0:0,0:0:0:0:
256,160,26133,1,8,1:0:0:0:
256,160,26282,1,0,3:2:0:0:
256,160,26431,1,2,0:3:0:0:
256,320,26730,1,2,3:2:0:0:
367,97,27178,6,0,P|408:85|444:81,1,66.0000020141602,2|8,0:0|1:0,0:0:0:0:
497,38,27476,2,0,P|475:100|466:165,1,132.00000402832,2|2,0:0|0:0,0:0:0:0:
512,235,27925,2,0,B|435:178|388:247|310:195,1,198.000006042481,4|2,2:3|0:0,0:0:0:0:
256,160,28522,1,8,1:0:0:0:
172,295,28821,1,0,3:3:0:0:
172,295,28970,1,2,3:2:0:0:
172,295,29119,1,0,3:2:0:0:
340,295,29418,1,2,3:3:0:0:
172,295,29717,5,8,1:0:0:0:
208,224,29866,1,2,3:0:0:0:
256,160,30015,1,0,3:2:0:0:
304,224,30165,1,2,3:0:0:0:
340,295,30314,2,0,P|432:336|491:371,2,161.999995056153,6|0|0,0:0|3:0|3:0,0:0:0:0:
340,295,32106,1,8,0:0:0:0:
431,231,32405,6,0,P|440:198|448:151,1,53.9999983520508,0|2,3:0|3:2,0:0:0:0:
483,142,32703,2,0,P|472:97|466:34,1,107.999996704102,0|2,3:2|0:0,0:0:0:0:
422,12,33151,1,2,0:2:0:0:
422,12,33300,2,0,B|331:25|375:82|291:110,1,161.999995056153,8|2,0:0|0:0,0:0:0:0:
264,149,33898,1,2,3:2:0:0:
156,138,34196,2,0,P|148:84|145:30,1,107.999996704102,2|8,0:0|0:0,0:0:0:0:
145,30,34644,1,2,0:0:0:0:
145,30,34794,1,2,0:0:0:0:
38,43,35092,6,0,P|45:96|48:150,1,107.999996704102,0|2,3:2|0:0,0:0:0:0:
18,194,35540,1,2,0:0:0:0:
18,194,35690,2,0,P|12:225|4:253,1,53.9999983520508,8|2,0:0|0:0,0:0:0:0:
121,363,36287,6,0,P|162:330|225:292,1,107.999996704102,2|0,3:2|0:0,0:0:0:0:
258,275,36735,1,2,0:0:0:0:
258,275,36884,1,8,0:0:0:0:
360,239,37183,1,2,0:0:0:0:
281,165,37481,6,0,P|268:112|250:61,1,107.999996704102,2|0,3:2|0:0,3:0:0:0:
281,17,37929,1,2,0:0:0:0:
281,17,38079,2,0,P|332:32|385:42,1,107.999996704102,8|2,3:2|3:2,0:0:0:0:
409,91,38527,1,0,3:0:0:0:
409,91,38676,2,0,P|370:127|335:168,1,107.999996704102,6|0,3:2|3:2,0:0:0:0:
307,216,39124,1,2,3:3:0:0:
307,216,39273,2,0,P|318:254|324:283,3,53.9999983520508,8|2|2|0,0:0|0:3|0:2|0:0,0:0:0:0:
387,319,39871,6,0,P|343:349|290:346,1,107.999996704102,6|0,3:2|0:0,0:0:0:0:
240,367,40319,1,2,0:0:0:0:
240,367,40468,1,8,0:2:0:0:
163,291,40766,2,0,P|173:238|181:184,1,107.999996704102,2|0,0:0|3:0,0:0:0:0:
102,109,41364,2,0,P|96:78|88:50,2,53.9999983520508,2|2|8,0:0|0:0|0:0,0:0:0:0:
72,154,41812,1,2,0:0:0:0:
195,95,42110,5,0,3:2:0:0:
195,95,42260,2,0,P|249:88|315:69,1,107.999996704102,2|0,0:2|3:3,0:0:0:0:
347,44,42708,1,2,3:2:0:0:
347,44,42857,2,0,B|435:67|385:132|473:156,1,161.999995056153,8|2,0:0|0:0,0:0:0:0:
492,194,43454,2,0,P|478:252|476:319,1,107.999996704102,2|0,3:2|3:0,0:0:0:0:
427,325,43902,2,0,P|399:303|357:286,1,53.9999983520508,2|10,3:2|0:0,0:0:0:0:
338,273,44201,1,2,3:2:0:0:
338,273,44350,1,2,3:2:0:0:
237,231,44649,5,6,0:0:0:0:
172,317,44947,2,0,P|106:328|58:346,1,107.999996704102,2|8,0:0|0:0,0:0:0:0:
67,341,45395,1,2,0:0:0:0:
67,341,45545,1,2,0:0:0:0:
50,234,45843,2,0,P|116:223|164:205,1,107.999996704102,0|2,3:2|0:0,0:0:0:0:
154,209,46291,2,0,L|172:120,1,53.9999983520508,2|8,0:0|0:0,0:0:0:0:
202,115,46590,5,2,0:0:0:0:
176,11,46889,1,0,3:0:0:0:
176,11,47038,1,0,3:0:0:0:
284,0,47337,1,2,3:0:0:0:
307,114,47635,2,0,P|343:175|361:216,1,107.999996704102,10|2,0:0|3:0,0:0:0:0:
508,122,48233,2,0,P|472:183|454:224,1,107.999996704102,4|2,3:0|3:0,0:0:0:0:
407,285,48680,1,0,3:0:0:0:
407,285,48830,2,0,B|391:238|423:224|412:178,1,107.999996704102,8|2,1:0|0:0,0:0:0:0:
416,103,49278,1,2,0:0:0:0:
416,103,49427,5,4,1:1:0:0:
270,172,49726,1,2,0:2:0:0:
300,327,50024,1,8,1:0:0:0:
457,345,50323,1,2,0:2:0:0:
379,206,50622,2,0,P|308:207|227:231,1,132.00000402832,4|2,3:3|0:0,0:0:0:0:
287,71,51219,2,0,P|224:51|138:54,1,132.00000402832,8|2,1:0|0:0,0:0:0:0:
92,7,51667,1,2,0:2:0:0:
26,51,51816,6,0,B|27:124|57:113|64:179,1,132.00000402832,2|2,3:2|3:2,0:0:0:0:
112,238,52264,1,2,0:0:0:0:
53,291,52414,1,8,1:0:0:0:
96,356,52563,2,0,P|171:361|230:370,1,132.00000402832,2|0,3:2|3:0,0:0:0:0:
288,318,53011,1,2,3:2:0:0:
437,381,53309,5,2,0:0:0:0:
437,381,53459,2,0,P|447:354|456:284,1,66.0000020141602,2|8,0:0|1:0,0:0:0:0:
509,260,53757,2,0,P|458:185|399:217,1,132.00000402832,2|2,0:0|0:0,0:0:0:0:
366,141,54205,2,0,P|390:238|410:335,1,198.000006042481,6|2,2:3|0:0,0:0:0:0:
409,334,54803,1,8,1:0:0:0:
409,334,54952,1,2,0:3:0:0:
200,264,55400,1,4,3:3:0:0:
75,381,55699,5,2,0:0:0:0:
75,381,55849,2,0,P|65:354|56:284,1,66.0000020141602,2|8,0:0|1:0,0:0:0:0:
3,260,56147,2,0,P|54:185|113:217,1,132.00000402832,2|2,0:0|0:0,0:0:0:0:
146,141,56595,2,0,P|123:232|104:323,1,132.00000402832,4|2,2:3|0:0,0:0:0:0:
96,344,57042,1,2,0:0:0:0:
168,360,57192,2,0,P|190:268|209:177,1,132.00000402832,8|2,1:1|0:0,0:0:0:0:
224,160,57640,1,0,3:0:0:0:
224,160,57789,5,4,3:2:0:0:
131,31,58088,1,0,3:3:0:0:
131,31,58237,1,2,3:3:0:0:
131,31,58386,2,0,P|101:26|53:10,1,66.0000020141602,8|0,1:0|0:0,0:0:0:0:
11,71,58685,2,0,P|19:103|22:136,1,66.0000020141602,2|2,3:0|0:0,0:0:0:0:
5,215,58984,5,4,1:1:0:0:
181,264,59282,1,2,0:2:0:0:
226,84,59581,1,8,1:1:0:0:
46,40,59879,1,2,0:2:0:0:
5,215,60178,2,0,P|29:281|58:343,2,132.00000402832,4|2|8,3:0|0:0|1:0,0:0:0:0:
149,99,61074,2,0,P|187:108|223:120,1,66.0000020141602,2|0,0:3|0:0,0:0:0:0:
259,180,61373,6,0,B|326:167|303:131|373:118,1,132.00000402832,4|0,3:3|3:2,0:2:0:0:
428,173,61821,2,0,P|418:208|409:277,1,66.0000020141602,2|8,0:3|1:0,0:2:0:0:
478,279,62119,2,2,P|413:280|373:333,1,132.00000402832,2|0,3:2|0:2,0:1:0:0:
316,382,62567,1,2,1:3:0:0:
200,295,62865,5,2,0:0:0:0:
200,295,63015,2,0,L|123:279,1,66.0000020141602,2|8,0:0|1:0,0:0:0:0:
62,312,63313,2,0,P|102:251|119:184,1,132.00000402832,2|2,0:0|0:0,0:0:0:0:
66,133,63761,2,0,B|143:190|190:121|268:173,1,198.000006042481,6|2,2:3|0:0,0:0:0:0:
320,118,64359,2,0,P|300:82|294:19,1,66.0000020141602,8|0,1:1|0:0,0:0:0:0:
356,7,64658,1,2,3:2:0:0:
356,7,64807,1,2,0:3:0:0:
356,7,64956,1,6,3:2:0:0:
312,295,65404,6,0,L|389:279,1,66.0000020141602,2|8,0:0|1:0,0:0:0:0:
450,312,65702,2,0,P|410:251|393:184,1,132.00000402832,2|2,0:0|0:0,0:0:0:0:
446,133,66150,2,0,B|369:190|322:121|244:173,1,198.000006042481,6|2,2:2|0:0,0:0:0:0:
135,184,66748,2,0,B|194:227|230:174|290:214,1,161.999995056153,6|2,2:2|0:0,0:0:0:0:
362,252,67346,2,0,B|314:287|285:244|237:276,1,125.999996154785,6|2,2:2|0:0,0:0:0:0:
166,251,67943,5,2,0:0:0:0:
166,251,68092,1,2,0:0:0:0:
256,80,68391,1,0,3:2:0:0:
256,80,68540,2,0,P|181:48|105:24,2,161.999995056153,6|0|0,0:0|3:2|3:2,0:0:0:0:
256,80,70332,6,0,P|285:75|328:65,1,53.9999983520508,8|2,0:0|0:0,0:0:0:0:
430,19,70780,1,2,0:0:0:0:
430,19,70929,2,0,P|486:63|490:125,1,107.999996704102,0|0,3:0|0:0,0:0:0:0:
455,199,71527,1,8,0:0:0:0:
455,199,71676,2,0,B|357:206|399:252|305:265,1,161.999995056153,2|0,0:0|3:0,0:0:0:0:
123,368,72721,1,10,0:0:0:0:
123,368,72870,1,2,0:0:0:0:
28,314,73169,6,0,P|16:261|8:207,2,107.999996704102,2|2|2,0:0|0:0|0:0,0:0:0:0:
5,362,73916,1,8,0:0:0:0:
5,362,74065,1,2,0:0:0:0:
123,368,74364,1,2,0:0:0:0:
123,368,74513,2,0,P|171:333|219:285,1,107.999996704102,0|0,3:0|0:0,0:0:0:0:
284,225,75110,1,10,0:0:0:0:
284,225,75260,1,2,0:0:0:0:
215,142,75558,6,0,P|226:85|243:32,1,107.999996704102,2|2,0:0|0:0,0:0:0:0:
348,10,76155,1,2,0:0:0:0:
348,10,76305,2,0,P|363:61|373:114,1,107.999996704102,8|0,0:0|0:0,0:0:0:0:
418,145,76753,1,2,0:0:0:0:
418,145,76902,1,4,3:2:0:0:
364,241,77201,1,0,3:0:0:0:
364,241,77350,1,0,3:0:0:0:
364,241,77499,2,0,P|338:249|313:260,3,53.9999983520508,10|2|0|2,0:0|3:3|3:0|3:3,0:0:0:0:
265,327,78097,6,0,B|182:308|218:262|133:240,1,161.999995056153,4|2,3:2|0:0,0:0:0:0:
81,254,78694,1,10,0:0:0:0:
81,254,78843,1,2,0:0:0:0:
21,162,79142,1,2,0:0:0:0:
21,162,79291,2,0,P|29:96|52:24,1,107.999996704102,0|0,3:0|0:0,0:0:0:0:
90,32,79739,1,2,0:0:0:0:
90,32,79888,2,0,L|170:58,1,53.9999983520508,10|2,0:0|0:0,0:0:0:0:
244,81,80336,6,0,P|257:133|262:186,1,107.999996704102,2|2,0:0|0:0,0:0:0:0:
368,228,80934,1,2,0:0:0:0:
368,228,81083,2,0,P|406:190|450:158,1,107.999996704102,8|0,0:0|0:0,0:0:0:0:
497,132,81531,1,2,0:0:0:0:
497,132,81680,2,0,P|501:106|509:70,2,53.9999983520508,0|0|0,3:0|0:0|0:0,0:0:0:0:
512,243,82278,1,10,0:0:0:0:
512,243,82427,1,2,0:0:0:0:
408,257,82726,1,2,0:0:0:0:
408,257,82875,6,0,P|400:312|400:367,1,107.999996704102,0|0,3:0|0:0,0:0:0:0:
399,364,83323,1,2,0:0:0:0:
399,364,83472,1,10,0:0:0:0:
303,312,83771,1,2,0:0:0:0:
209,364,84069,2,0,P|208:310|200:256,1,107.999996704102,2|0,3:2|0:0,0:0:0:0:
109,206,84667,5,10,0:0:0:0:
109,206,84816,1,2,0:0:0:0:
50,102,85115,1,2,0:0:0:0:
131,15,85413,1,2,0:0:0:0:
233,75,85712,1,2,0:0:0:0:
233,75,85861,2,0,P|247:130|255:183,1,107.999996704102,8|0,0:0|0:0,0:0:0:0:
254,180,86309,1,2,0:0:0:0:
330,223,86459,2,0,P|338:169|351:117,1,107.999996704102,4|2,0:3|0:3,0:0:0:0:
351,117,86906,1,2,0:0:0:0:
422,71,87056,2,0,P|436:126|444:179,1,107.999996704102,8|2,1:0|3:0,0:0:0:0:
512,233,87504,1,0,3:0:0:0:
512,233,87653,5,4,1:1:0:0:
350,321,87952,1,2,0:2:0:0:
261,160,88250,1,8,1:0:0:0:
422,71,88549,1,2,0:2:0:0:
512,233,88848,2,0,P|455:219|380:213,1,132.00000402832,4|2,3:3|0:0,0:0:0:0:
257,310,89445,2,0,P|192:325|127:330,1,132.00000402832,8|2,1:0|0:0,0:0:0:0:
55,363,89893,2,0,P|48:327|26:265,1,66.0000020141602,2|0,0:2|3:2,0:0:0:0:
63,225,90192,6,0,P|127:209|192:204,1,132.00000402832,2|2,0:2|0:0,0:0:0:0:
273,229,90640,1,8,1:0:0:0:
324,169,90789,2,0,B|304:115|362:102|326:35,1,132.00000402832,2|2,0:2|0:0,0:0:0:0:
255,11,91237,1,0,3:2:0:0:
103,62,91535,5,2,0:0:0:0:
103,62,91685,2,0,P|70:48|23:38,1,66.0000020141602,2|8,0:0|1:0,0:0:0:0:
3,110,91983,2,0,P|54:185|113:153,1,132.00000402832,2|2,0:0|0:0,0:0:0:0:
153,133,92431,2,0,P|129:230|109:327,1,198.000006042481,6|2,0:3|0:0,0:0:0:0:
171,376,93029,1,8,1:0:0:0:
249,364,93178,2,0,P|273:267|293:170,1,198.000006042481,2|2,3:3|3:2,0:0:0:0:
409,62,93925,5,2,0:0:0:0:
409,62,94075,2,0,P|442:48|489:38,1,66.0000020141602,2|8,0:0|1:0,0:0:0:0:
509,110,94373,2,0,P|458:185|399:153,1,132.00000402832,2|2,0:0|0:0,0:0:0:0:
360,134,94821,2,0,P|381:219|398:304,1,132.00000402832,4|0,2:3|0:0,0:0:0:0:
416,341,95269,1,2,0:0:0:0:
416,341,95418,5,8,1:0:0:0:
262,327,95716,1,2,3:0:0:0:
262,327,95866,1,0,3:0:0:0:
262,327,96015,1,4,3:2:0:0:
292,170,96314,1,2,3:0:0:0:
134,279,96612,6,2,B|82:193|157:150|79:9,1,233.999989288331,10|2,1:0|0:0,0:1:0:0:
22,38,97210,5,4,1:1:0:0:
147,173,97508,1,2,0:2:0:0:
253,21,97807,1,8,1:1:0:0:
297,199,98105,1,2,0:2:0:0:
463,117,98404,2,0,P|439:183|407:246,2,132.00000402832,4|2|8,3:0|0:0|1:0,0:0:0:0:
360,7,99300,2,0,P|322:16|286:28,1,66.0000020141602,2|2,0:0|0:3,0:0:0:0:
236,80,99599,6,0,B|174:47|102:62|102:62,1,132.00000402832,2|2,3:2|0:3,0:0:0:0:
86,222,100196,1,8,1:1:0:0:
86,222,100345,2,0,B|148:255|219:239|219:239,1,132.00000402832,2|0,0:3|0:0,0:0:0:0:
275,290,100793,1,2,3:2:0:0:
426,236,101091,5,2,0:0:0:0:
426,236,101241,2,0,P|418:268|413:300,1,66.0000020141602,2|8,0:0|1:0,0:0:0:0:
376,370,101539,2,0,P|366:302|349:240,1,132.00000402832,2|2,0:0|0:0,0:0:0:0:
299,163,101987,2,0,B|376:220|423:151|501:203,1,198.000006042481,4|2,2:3|0:0,0:0:0:0:
512,270,102585,2,0,P|504:303|499:335,1,66.0000020141602,8|0,1:0|3:2,0:0:0:0:
367,103,103033,1,2,0:3:0:0:
367,103,103182,1,2,3:2:0:0:
86,236,103630,6,0,P|93:268|98:300,1,66.0000020141602,2|8,0:0|1:0,0:0:0:0:
136,370,103928,2,0,P|146:302|163:240,1,132.00000402832,2|2,0:0|0:0,0:0:0:0:
212,162,104376,2,0,B|135:219|88:150|10:202,1,198.000006042481,4|2,3:3|1:2,0:0:0:0:
36,353,105124,1,2,0:3:0:0:
193,335,105422,1,2,3:2:0:0:
259,379,105572,2,2,P|288:296|296:168,1,198.000006042481,2|0,1:2|0:0,0:1:0:0:
332,115,106169,5,10,1:2:0:0:
492,91,106468,1,2,3:2:0:0:
512,247,106766,1,4,3:2:0:0:
512,247,109155,5,0,3:2:0:0:
356,271,109454,1,2,3:2:0:0:
356,271,111544,5,0,3:2:0:0:
332,115,111843,1,2,3:2:0:0:
332,115,113635,5,0,3:2:0:0:
507,186,113934,2,0,P|328:210|155:258,3,360.000013732911,6|6|6|14,3:1|1:1|3:1|1:1,0:0:0:0:
0,331,116024,5,2,3:2:0:0:
0,331,116173,1,2,3:2:0:0:
0,331,116323,1,4,1:0:0:0:
166,369,116621,1,2,0:0:0:0:
74,223,116920,1,8,1:0:0:0:
229,150,117219,1,2,0:0:0:0:
111,25,117517,6,0,P|124:89|132:155,1,132.00000402832,4|2,3:3|3:2,0:0:0:0:
269,248,118115,2,0,P|276:182|290:117,1,132.00000402832,8|0,1:0|3:3,0:0:0:0:
329,48,118563,1,2,3:2:0:0:
398,85,118712,1,0,3:2:0:0:
469,51,118861,2,0,P|482:115|490:181,1,132.00000402832,2|2,0:2|3:2,0:0:0:0:
461,255,119309,1,8,1:0:0:0:
461,255,119458,1,2,3:2:0:0:
315,318,119757,6,2,B|236:256|222:381|133:324,1,198.000006042481,2|2,0:3|0:0,0:1:0:0:
55,313,120354,2,0,P|61:269|78:220,1,66.0000020141602,2|8,0:0|1:0,0:0:0:0:
22,181,120653,2,0,P|48:134|133:154,1,132.00000402832,2|2,0:0|0:0,0:0:0:0:
191,98,121101,2,0,P|162:192|141:288,1,198.000006042481,6|2,0:3|0:0,0:0:0:0:
198,358,121698,5,8,1:0:0:0:
198,358,121848,1,2,0:0:0:0:
198,358,121997,2,0,P|231:358|259:333,1,66.0000020141602,0|2,3:0|3:2,0:0:0:0:
297,270,122296,1,0,3:0:0:0:
457,313,122594,5,2,0:2:0:0:
457,313,122743,2,0,P|451:269|434:220,1,66.0000020141602,2|8,0:2|1:0,0:0:0:0:
490,181,123042,2,0,P|463:134|378:154,1,132.00000402832,2|2,0:2|0:2,0:0:0:0:
321,98,123490,2,0,P|350:192|370:288,1,198.000006042481,4|2,2:3|0:0,0:0:0:0:
321,352,124087,5,8,1:0:0:0:
248,319,124237,2,0,P|213:329|172:345,2,66.0000020141602,2|2|2,0:0|3:2|3:2,0:0:0:0:
279,245,124685,2,0,P|346:254|429:274,2,132.00000402832,6|0|8,3:2|3:2|1:0,0:0:0:0:
224,191,125431,1,2,0:2:0:0:
224,191,125581,1,2,0:2:0:0:
97,65,125879,5,4,1:0:0:0:
278,31,126178,1,2,0:0:0:0:
313,211,126476,1,8,1:0:0:0:
132,246,126775,1,2,0:0:0:0:
97,65,127074,2,0,P|171:78|231:96,1,132.00000402832,4|2,3:3|3:2,0:0:0:0:
291,49,127522,1,0,0:0:0:0:
357,6,127671,2,0,P|398:58|430:115,1,132.00000402832,8|2,1:0|0:0,0:0:0:0:
493,165,128119,6,2,B|488:194|476:216|476:216|490:256|490:256|469:285|462:320,1,155.999992858887,2|2,3:0|3:0,0:0:0:0:
300,381,128716,1,0,3:0:0:0:
300,381,128866,1,8,1:0:0:0:
300,381,129015,2,2,B|299:345|275:307|275:307|295:249|295:249|268:209|255:157,1,233.999989288331,2|2,0:2|3:2,0:1:0:0:
157,46,129762,5,2,0:0:0:0:
157,46,129911,2,0,P|132:85|126:128,1,66.0000020141602,2|8,0:0|1:0,0:0:0:0:
113,196,130210,2,0,P|75:112|43:83,1,132.00000402832,2|2,0:0|0:0,0:0:0:0:
83,0,130657,2,0,P|105:97|113:196,1,198.000006042481,6|2,2:3|0:0,0:0:0:0:
50,262,131255,6,0,B|127:270|98:312|174:320,1,132.00000402832,10|0,1:0|0:0,0:0:0:0:
238,351,131703,1,2,3:1:0:0:
292,294,131852,1,6,0:2:0:0:
355,46,132300,6,0,P|380:85|386:128,1,66.0000020141602,2|8,0:0|1:0,0:0:0:0:
399,196,132599,2,0,P|437:112|469:83,1,132.00000402832,2|2,0:0|0:0,0:0:0:0:
428,0,133046,2,0,P|406:97|399:196,1,198.000006042481,6|0,3:0|3:0,0:0:0:0:
421,288,133644,6,2,P|356:212|284:81,1,233.999989288331,10|2,1:1|3:2,0:1:0:0:
224,0,134241,6,0,P|237:98|96:138,1,233.999989288331,6|0,1:2|0:0,0:1:0:0:
102,244,134838,6,2,P|86:179|43:71,1,155.999992858887,8|2,1:0|3:0,0:1:0:0:
0,26,135286,1,0,3:0:0:0:
0,26,135436,5,4,1:1:0:0:
154,61,135734,1,2,0:2:0:0:
102,244,136033,1,8,1:0:0:0:
256,209,136331,1,2,0:2:0:0:
210,384,136630,2,0,P|276:379|347:364,1,132.00000402832,4|2,3:3|0:0,0:0:0:0:
386,190,137228,2,0,P|320:195|249:210,1,132.00000402832,8|0,1:0|3:0,0:0:0:0:
184,171,137676,1,2,0:2:0:0:
229,106,137825,6,0,P|233:76|239:41,1,66.0000020141602,4|0,3:3|0:0,0:0:0:0:
311,7,138124,2,0,B|386:24|355:61|433:78,1,132.00000402832,2|8,0:3|1:1,0:0:0:0:
448,0,138571,2,0,B|487:60|448:68|484:136,1,132.00000402832,2|2,0:3|0:0,0:0:0:0:
465,204,139019,1,0,3:3:0:0:
322,303,139318,5,2,0:0:0:0:
322,303,139468,2,0,P|313:339|309:375,1,66.0000020141602,2|8,0:0|1:0,0:0:0:0:
386,384,139766,2,0,P|401:319|409:254,1,132.00000402832,2|2,0:0|0:0,0:0:0:0:
465,204,140214,2,0,B|364:222|408:115|293:110,1,198.000006042481,6|2,0:3|0:0,0:0:0:0:
256,54,140811,5,8,1:0:0:0:
256,54,140961,2,0,P|271:118|279:183,1,132.00000402832,0|2,3:2|0:3,0:0:0:0:
334,241,141409,1,2,3:2:0:0:
190,303,141707,5,2,0:0:0:0:
190,303,141857,2,0,P|199:339|203:375,1,66.0000020141602,2|8,0:0|1:0,0:0:0:0:
126,384,142155,2,0,P|110:319|102:254,1,132.00000402832,2|2,0:0|0:0,0:0:0:0:
47,204,142603,2,0,B|148:222|104:115|219:110,1,198.000006042481,4|2,2:3|0:0,0:0:0:0:
261,53,143200,6,0,P|249:102|242:152,1,66.0000020141602,10|0,1:0|0:0,0:0:0:0:
215,198,143499,1,2,3:0:0:0:
215,198,143648,1,0,3:0:0:0:
215,198,143798,2,0,P|205:144|184:67,1,132.00000402832,4|2,3:2|3:0,0:0:0:0:
0,119,144395,2,2,P|23:238|55:356,1,233.999989288331,10|4,1:0|3:0,0:1:0:0:
127,373,144992,5,4,1:1:0:0:
293,319,145291,1,2,0:2:0:0:
146,223,145590,5,8,1:1:0:0:
302,309,145888,1,2,3:2:0:0:
276,100,146187,5,4,3:0:0:0:
318,303,146485,1,2,0:0:0:0:
470,181,146784,6,0,P|485:116|496:51,1,132.00000402832,10|2,1:0|0:0,0:0:0:0:
496,51,147232,1,2,0:0:0:0:
417,30,147381,2,0,P|401:100|390:172,1,143.999995605469,4|2,3:0|3:0,0:0:0:0:
390,171,147829,1,2,0:0:0:0:
323,214,147979,1,8,1:1:0:0:
261,164,148127,2,2,B|156:181|194:245|92:261,1,198.000006042481,2|2,0:3|1:2,0:1:0:0:
0,135,148875,5,2,0:0:0:0:
0,135,149024,2,0,P|24:104|40:67,1,66.0000020141602,2|8,0:0|1:0,0:0:0:0:
61,0,149323,2,0,P|88:70|106:133,1,132.00000402832,2|2,0:0|0:0,0:0:0:0:
184,134,149771,6,0,B|159:231|240:225|227:326,1,198.000006042481,6|2,2:3|0:0,0:0:0:0:
144,308,150368,2,0,B|161:209|233:247|262:149,1,198.000006042481,8|2,1:0|0:3,0:0:0:0:
236,77,150965,1,2,3:2:0:0:
511,135,151413,6,0,P|487:104|471:67,1,66.0000020141602,2|10,0:0|1:0,0:0:0:0:
451,0,151712,2,0,P|423:70|406:133,1,132.00000402832,2|2,0:3|0:0,0:0:0:0:
328,134,152159,6,0,B|352:231|271:225|284:326,1,198.000006042481,4|2,3:3|0:2,0:0:0:0:
337,383,152757,1,8,1:1:0:0:
368,308,152906,2,0,B|350:209|278:247|249:149,2,198.000006042481,2|2|0,3:3|1:2|0:0,0:0:0:0:
337,383,153952,1,8,1:1:0:0:
203,250,154250,1,2,3:3:0:0:
276,77,154549,6,0,P|360:88|451:112,1,167.999994873047,6|8,1:2|0:2,0:0:0:0:
392,384,155594,1,0,3:0:0:0:
392,384,155743,2,0,P|308:373|217:349,1,167.999994873047,2|8,1:2|0:2,0:0:0:0:
487,172,156938,6,0,P|476:256|452:347,1,167.999994873047,2|8,1:2|0:2,0:0:0:0:
180,288,157983,1,0,3:0:0:0:
180,288,158132,2,0,P|191:204|215:113,1,167.999994873047,2|8,1:2|0:2,0:0:0:0:
484,27,159327,6,0,B|466:110|415:89|401:169,1,161.999995056153,2|2,1:2|0:2,0:0:0:0:
276,226,160074,1,2,3:2:0:0:
380,318,160372,1,2,3:3:0:0:
507,255,160671,1,2,0:2:0:0:
507,255,160820,1,2,0:3:0:0:
402,162,161119,1,8,0:2:0:0:
28,27,161716,6,0,B|46:110|97:89|111:169,1,161.999995056153,2|2,1:2|0:2,0:0:0:0:
236,226,162463,1,2,3:2:0:0:
132,318,162761,1,2,3:3:0:0:
132,318,162911,1,2,3:2:0:0:
5,255,163209,1,2,3:3:0:0:
109,162,163508,1,8,1:1:0:0:
109,162,163657,2,0,B|120:96|165:114|181:41,1,143.999995605469,2|2,0:2|3:2,0:0:0:0:
253,0,164105,5,4,1:1:0:0:
302,185,164404,1,2,0:2:0:0:
405,14,164703,5,8,1:1:0:0:
312,194,165001,1,2,0:2:0:0:
509,152,165300,5,4,3:0:0:0:
318,210,165598,1,2,0:0:0:0:
498,303,165897,6,0,P|485:230|469:159,1,143.999995605469,8|2,1:0|0:0,0:0:0:0:
385,140,166345,2,0,P|397:210|413:281,1,143.999995605469,2|2,0:3|3:2,0:0:0:0:
355,345,166793,1,2,3:2:0:0:
277,306,166942,2,0,P|271:342|261:395,1,71.9999978027344,2|8,3:2|1:0,0:0:0:0:
185,352,167241,2,2,P|168:265|155:177,1,155.999992858887,2|0,0:3|0:0,0:1:0:0:
87,153,167689,1,0,1:0:0:0:
211,33,167988,5,2,0:0:0:0:
211,33,168137,2,0,P|216:72|219:108,1,71.9999978027344,2|8,0:0|1:0,0:0:0:0:
292,135,168436,2,0,B|362:122|341:75|414:63,1,143.999995605469,2|0,0:0|0:0,0:0:0:0:
485,16,168884,2,0,P|435:141|433:231,1,215.999993408203,6|0,0:3|0:0,0:0:0:0:
512,251,169481,6,2,B|354:237|396:369|259:385,1,287.999991210938,10|0,1:1|0:0,0:1:0:0:
0,250,170675,5,10,1:0:0:0:
0,250,170825,2,2,B|114:239|83:335|183:347,1,215.999993408203,2|0,0:0|3:3,0:1:0:0:
319,234,171571,5,0,3:2:0:0:
319,234,171721,1,2,3:2:0:0:
319,234,171870,2,2,P|346:156|360:74,1,143.999995605469,8|2,1:1|0:0,0:1:0:0:
287,39,172318,1,2,0:0:0:0:
287,39,172467,2,0,P|260:117|246:199,1,143.999995605469,2|2,3:2|0:0,0:0:0:0:
231,262,173065,6,2,P|199:196|148:127,1,155.999992858887,10|2,1:0|3:0,0:1:0:0:
0,190,173513,1,0,3:0:0:0:
0,190,173662,1,6,3:2:0:0:
