osu file format v14

[General]
AudioFilename: audio.mp3
AudioLeadIn: 0
PreviewTime: 225537
Countdown: 0
SampleSet: Soft
StackLeniency: 0.3
Mode: 0
LetterboxInBreaks: 0
WidescreenStoryboard: 1

[Editor]
DistanceSpacing: 0.3
BeatDivisor: 4
GridSize: 4
TimelineZoom: 1.8

[Metadata]
Title:Radiant
TitleUnicode:Radiant
Artist:Mary Clare
ArtistUnicode:Mary Clare
Creator:-[Pino]-
Version:dahkjdas' Insane
Source:明日方舟
Tags:arknights アークナイツ 塞壬唱片-MSR monster siren 长夜临光 near light nearl the radiant knight nearl_the_radiant_knight electronic english dnb drum and base muse dash dahkjdas
BeatmapID:3414775
BeatmapSetID:1629379

[Difficulty]
HPDrainRate:6
CircleSize:3.8
OverallDifficulty:8
ApproachRate:9
SliderMultiplier:1.8
SliderTickRate:1

[Events]
//Background and Video events
0,0,"nearl.jpg",0,0
Video,0,"video_x264.mp4"
//Break Periods
2,182251,192360
2,193160,200542
//Storyboard Layer 0 (Background)
//Storyboard Layer 1 (Fail)
//Storyboard Layer 2 (Pass)
//Storyboard Layer 3 (Foreground)
//Storyboard Layer 4 (Overlay)
//Storyboard Sound Samples

[TimingPoints]
7506,340.909090909091,4,2,1,50,1,0
15367,340.909090909091,4,2,1,50,1,0
15771,340.909090909091,4,2,1,50,1,0
17092,340.909090909091,4,2,1,50,1,0
18413,340.909090909091,4,2,1,50,1,0
21545,340.909090909091,4,2,1,50,1,0
23188,340.909090909091,4,2,1,50,1,0
23869,340.909090909091,4,2,1,50,1,0
27960,-133.333333333333,4,2,1,50,0,0
29324,-200,4,2,1,60,0,0
34778,-200,4,2,2,60,0,0
35119,-200,4,2,1,60,0,0
36312,-200,4,2,1,50,0,0
36824,-200,4,2,1,60,0,0
38017,-200,4,2,1,50,0,0
38528,-200,4,2,1,40,0,0
39210,-133.333333333333,4,2,1,60,0,0
39380,-133.333333333333,4,2,1,50,0,0
39551,-133.333333333333,4,2,1,60,0,0
39721,-133.333333333333,4,2,1,50,0,0
39892,-133.333333333333,4,2,1,60,0,0
40233,-200,4,2,2,40,0,0
40318,-200,4,2,1,60,0,0
43130,-200,4,2,1,50,0,0
43301,-200,4,2,1,40,0,0
43386,-200,4,2,1,60,0,0
43812,-200,4,2,1,50,0,0
43869,-200,4,2,1,60,0,0
44153,-200,4,2,1,50,0,0
44324,-200,4,2,1,60,0,0
45346,-200,4,2,1,50,0,0
45687,-200,4,2,2,40,0,0
45772,-200,4,2,2,50,0,0
46028,-200,4,2,1,50,0,0
47050,-200,4,2,1,60,0,0
48415,-200,4,2,1,40,0,0
49607,-200,4,2,1,50,0,0
49778,-200,4,2,1,35,0,0
50459,-200,4,2,1,50,0,0
51142,-100,4,2,1,70,0,0
55915,-80,4,2,1,70,0,0
56597,-100,4,2,1,70,0,0
58642,-80,4,2,1,70,0,0
59324,-100,4,2,1,70,0,0
61710,-200,4,2,1,70,0,0
62051,-200,4,2,1,50,0,0
67506,-200,4,2,1,40,0,0
67846,-200,4,2,1,45,0,0
68187,-200,4,2,1,50,0,0
68528,-200,4,2,1,55,0,0
68869,-200,4,2,1,60,0,0
69210,-200,4,2,1,65,0,0
69551,-200,4,2,1,70,0,0
69892,-200,4,2,1,65,0,0
70233,-200,4,2,1,50,0,0
71596,-80,4,2,1,80,0,0
72619,-200,4,2,1,80,0,0
72789,-200,4,2,1,50,0,0
72959,-66.6666666666667,4,2,2,80,0,1
73045,-66.6666666666667,4,2,1,80,0,1
73215,-66.6666666666667,4,2,1,50,0,1
73301,-66.6666666666667,4,2,1,80,0,1
73897,-66.6666666666667,4,2,1,50,0,1
73983,-66.6666666666667,4,2,1,80,0,1
74750,-66.6666666666667,4,2,1,50,0,1
74835,-66.6666666666667,4,2,1,80,0,1
76199,-66.6666666666667,4,2,0,80,0,1
76284,-66.6666666666667,4,2,1,50,0,1
76454,-66.6666666666667,4,2,1,80,0,1
76880,-66.6666666666667,4,2,1,50,0,1
77221,-66.6666666666667,4,2,1,80,0,1
78670,-66.6666666666667,4,2,1,50,0,1
78756,-66.6666666666667,4,2,1,80,0,1
80716,-66.6666666666667,4,2,1,50,0,1
80801,-66.6666666666667,4,2,1,80,0,1
81653,-66.6666666666667,4,2,0,80,0,1
81738,-66.6666666666667,4,2,1,50,0,1
81994,-66.6666666666667,4,2,1,80,0,1
82335,-66.6666666666667,4,2,1,50,0,1
82506,-66.6666666666667,4,2,1,80,0,1
83869,-66.6666666666667,4,2,2,80,0,1
83954,-66.6666666666667,4,2,1,80,0,1
84806,-66.6666666666667,4,2,1,50,0,1
84892,-66.6666666666667,4,2,1,80,0,1
87108,-66.6666666666667,4,2,0,80,0,1
87193,-66.6666666666667,4,2,1,50,0,1
87363,-66.6666666666667,4,2,1,80,0,1
87789,-66.6666666666667,4,2,1,50,0,1
87875,-66.6666666666667,4,2,1,80,0,1
90516,-66.6666666666667,4,2,1,50,0,1
90687,-66.6666666666667,4,2,1,80,0,1
92050,-133.333333333333,4,2,1,60,0,0
94437,-100,4,2,1,60,0,0
94778,-80,4,2,1,70,0,0
99124,-80,4,2,1,50,0,0
99210,-80,4,2,1,70,0,0
99977,-80,4,2,1,50,0,0
100062,-80,4,2,1,70,0,0
100914,-80,4,2,1,50,0,0
101085,-80,4,2,1,70,0,0
101851,-80,4,2,1,50,0,0
101937,-80,4,2,1,70,0,0
102278,-80,4,2,1,50,0,0
102449,-80,4,2,1,70,0,0
103130,-80,4,2,1,50,0,0
103301,-80,4,2,1,70,0,0
105006,-80,4,2,1,60,0,0
105346,-80,4,2,1,70,0,0
110033,-80,4,2,1,50,0,0
110119,-80,4,2,1,70,0,0
110886,-80,4,2,1,50,0,0
110971,-80,4,2,1,70,0,0
112335,-80,4,2,1,50,0,0
112506,-80,4,2,1,70,0,0
113187,-80,4,2,1,50,0,0
113358,-80,4,2,1,70,0,0
113869,-166.666666666667,4,2,1,60,0,0
116596,-100,4,2,1,70,0,0
121369,-80,4,2,1,70,0,0
122051,-100,4,2,1,70,0,0
124096,-80,4,2,1,70,0,0
124778,-100,4,2,1,70,0,0
127165,-200,4,2,1,70,0,0
127506,-200,4,2,1,50,0,0
132960,-200,4,2,1,40,0,0
133301,-200,4,2,1,45,0,0
133642,-200,4,2,1,50,0,0
133983,-200,4,2,1,55,0,0
134324,-200,4,2,1,60,0,0
134665,-200,4,2,1,65,0,0
135006,-200,4,2,1,70,0,0
135346,-200,4,2,1,65,0,0
135687,-200,4,2,1,50,0,0
137051,-80,4,2,1,70,0,0
138074,-200,4,2,1,70,0,0
138244,-200,4,2,1,50,0,0
138414,-66.6666666666667,4,2,2,80,0,1
138500,-66.6666666666667,4,2,1,80,0,1
138670,-66.6666666666667,4,2,1,50,0,1
138756,-66.6666666666667,4,2,1,80,0,1
139352,-66.6666666666667,4,2,1,50,0,1
139437,-66.6666666666667,4,2,1,80,0,1
140204,-66.6666666666667,4,2,1,50,0,1
140290,-66.6666666666667,4,2,1,80,0,1
141653,-66.6666666666667,4,2,0,80,0,1
141738,-66.6666666666667,4,2,1,50,0,1
141909,-66.6666666666667,4,2,1,80,0,1
142335,-66.6666666666667,4,2,1,50,0,1
142506,-66.6666666666667,4,2,1,80,0,1
144124,-66.6666666666667,4,2,1,50,0,1
144210,-66.6666666666667,4,2,1,80,0,1
146170,-66.6666666666667,4,2,1,50,0,1
146256,-66.6666666666667,4,2,1,80,0,1
147108,-66.6666666666667,4,2,0,80,0,1
147193,-66.6666666666667,4,2,1,50,0,1
147448,-66.6666666666667,4,2,1,80,0,1
147789,-66.6666666666667,4,2,1,50,0,1
147875,-66.6666666666667,4,2,1,80,0,1
149324,-66.6666666666667,4,2,2,80,0,1
149409,-66.6666666666667,4,2,1,80,0,1
150261,-66.6666666666667,4,2,1,50,0,1
150346,-66.6666666666667,4,2,1,80,0,1
152562,-66.6666666666667,4,2,0,80,0,1
152648,-66.6666666666667,4,2,1,50,0,1
152818,-66.6666666666667,4,2,1,80,0,1
153244,-66.6666666666667,4,2,1,50,0,1
153329,-66.6666666666667,4,2,1,80,0,1
155971,-66.6666666666667,4,2,1,50,0,1
156142,-66.6666666666667,4,2,1,80,0,1
157505,-133.333333333333,4,2,1,60,0,0
159892,-100,4,2,1,60,0,0
160233,-80,4,2,1,60,0,0
160403,-80,4,2,1,70,0,0
166369,-80,4,2,1,50,0,0
166540,-80,4,2,1,70,0,0
167732,-80,4,2,1,50,0,0
167903,-80,4,2,1,70,0,0
172761,-80,4,2,1,50,0,0
172846,-80,4,2,1,70,0,0
174806,-80,4,2,1,50,0,0
174892,-80,4,2,1,70,0,0
177789,-80,4,2,1,50,0,0
177960,-80,4,2,1,70,0,0
179324,-200,4,2,1,70,0,0
179664,-200,4,2,1,60,0,0
181881,-200,4,2,1,70,0,0
182051,-200,4,2,1,50,0,0
192960,-200,4,2,2,50,0,0
201142,-200,4,2,1,50,0,0
203528,-133.333333333333,4,2,1,60,0,0
203869,-200,4,2,1,45,0,0
203954,-200,4,2,1,60,0,0
206596,-200,4,2,1,45,0,0
206681,-200,4,2,1,60,0,0
209323,-200,4,2,1,45,0,0
209408,-200,4,2,1,60,0,0
210175,-200,4,2,1,40,0,0
210346,-200,4,2,1,60,0,0
212050,-200,4,2,1,45,0,0
212136,-200,4,2,1,60,0,0
214437,-133.333333333333,4,2,1,60,0,0
214778,-133.333333333333,4,2,1,40,0,0
214863,-133.333333333333,4,2,1,50,0,0
215118,-133.333333333333,4,2,1,60,0,0
217505,-133.333333333333,4,2,1,50,0,0
217590,-133.333333333333,4,2,1,60,0,0
220233,-133.333333333333,4,2,1,50,0,0
220574,-133.333333333333,4,2,1,55,0,0
220915,-133.333333333333,4,2,1,60,0,0
221256,-133.333333333333,4,2,1,65,0,0
221596,-133.333333333333,4,2,1,70,0,0
221937,-133.333333333333,4,2,1,75,0,0
222278,-133.333333333333,4,2,1,80,0,0
222619,-133.333333333333,4,2,1,75,0,0
222960,-133.333333333333,4,2,1,50,0,0
224324,-80,4,2,1,70,0,0
225346,-66.6666666666667,4,2,1,70,0,0
225687,-80,4,2,2,85,0,1
225858,-80,4,2,1,85,0,1
233783,-80,4,2,1,50,0,1
233869,-80,4,2,1,85,0,1
234124,-80,4,2,1,50,0,1
234210,-80,4,2,1,85,0,1
236596,-80,4,2,2,85,0,1
236767,-80,4,2,1,85,0,1
238215,-80,4,2,1,50,0,1
238301,-80,4,2,1,85,0,1
239494,-80,4,2,1,50,0,1
239835,-80,4,2,1,85,0,1
240857,-80,4,2,1,50,0,1
241028,-80,4,2,1,85,0,1
241710,-80,4,2,1,50,0,1
241880,-80,4,2,1,85,0,1
246397,-80,4,2,1,50,0,1
246483,-80,4,2,1,85,0,1
247505,-200,4,2,2,70,0,0
247591,-200,4,2,1,50,0,0
252960,-200,4,2,1,70,0,0
253642,-200,4,2,1,55,0,0
254324,-200,4,2,1,40,0,0
255006,-200,4,2,1,25,0,0
255687,-200,4,2,1,10,0,0

[Colours]
Combo1 : 255,237,176
Combo2 : 255,242,0

[HitObjects]
360,193,28131,5,0,0:0:0:0:
360,193,28301,2,0,P|337:157|341:107,1,67.5000025749208,2|0,0:0|0:0,0:0:0:0:
413,100,28642,2,0,P|440:136|433:184,1,67.5000025749208,2|0,0:0|0:0,0:0:0:0:
316,335,28983,1,2,0:0:0:0:
316,335,29153,1,2,0:0:0:0:
392,291,29324,6,0,B|308:287|235:343|235:343|280:285|277:238,1,270,4|0,3:0|0:0,0:0:0:0:
173,261,31028,6,0,P|124:257|76:287,1,90,2|2,0:0|0:0,0:0:0:0:
54,191,31710,1,2,0:0:0:0:
54,191,31881,2,0,P|26:171|18:109,1,90,2|2,0:0|0:0,0:0:0:0:
143,149,32392,2,0,L|132:273,1,120,2|2,0:0|0:0,0:0:0:0:
124,348,33074,1,2,0:0:0:0:
250,135,34437,6,0,L|254:193,1,45,0|2,0:0|0:0,0:0:0:0:
266,264,34778,1,6,3:2:0:0:
179,244,35119,1,0,0:0:0:0:
179,244,35290,1,2,0:0:0:0:
342,201,35631,1,0,0:0:0:0:
342,201,35801,2,0,L|357:58,1,135,2|0,0:0|0:0,0:0:0:0:
250,126,36824,6,0,B|194:131|216:101|161:105,1,90,0|2,0:0|0:0,0:0:0:0:
30,213,37506,2,0,P|64:188|170:197,2,135,2|2|2,0:0|0:0|0:0,0:0:0:0:
193,267,39210,6,0,L|270:264,1,67.5000025749208,2|0,0:0|0:0,0:0:0:0:
244,353,39551,2,0,L|323:357,1,67.5000025749208,2|0,0:0|0:0,0:0:0:0:
430,281,39892,1,2,0:0:0:0:
430,281,40062,1,2,0:0:0:0:
400,362,40233,6,0,B|378:166|378:166|412:102,1,270,6|0,3:0|0:0,0:0:0:0:
494,198,41937,6,0,P|458:218|398:208,1,90,2|2,0:0|0:0,0:0:0:0:
335,152,42620,1,2,0:0:0:0:
335,152,42790,2,0,P|332:189|328:245,1,90,2|0,0:0|0:0,0:0:0:0:
244,268,43301,2,0,P|216:254|166:263,1,67.5,2|0,0:0|0:0,0:0:0:0:
180,255,43642,2,0,P|157:258|134:251,1,45,2|0,0:0|0:0,0:0:0:0:
136,252,43869,2,0,L|127:165,1,75,2|0,0:0|0:0,0:0:0:0:
154,93,44324,2,0,L|137:279,1,180,2|0,0:0|0:0,0:0:0:0:
378,186,45346,6,0,L|373:247,1,45
363,309,45687,1,6,3:3:0:0:
304,126,46028,1,0,0:0:0:0:
304,126,46199,1,2,0:0:0:0:
192,225,46540,1,0,0:0:0:0:
192,225,46710,2,0,P|246:216|294:227,1,90,2|2,0:0|0:0,0:0:0:0:
418,74,48074,5,0,0:0:0:0:
418,74,48244,1,0,0:0:0:0:
341,27,48415,6,0,P|330:66|348:129,1,90,2|0,0:0|0:0,0:0:0:0:
249,254,48926,2,0,P|236:221|248:154,1,90,2|0,0:0|0:0,0:0:0:0:
241,167,49437,2,0,L|193:172,1,45,2|0,0:0|0:0,0:0:0:0:
323,204,49778,2,0,L|508:218,1,180,2|0,0:0|0:0,0:0:0:0:
69,306,51142,6,0,P|22:276|10:231,1,90,0|0,3:0|0:0,0:0:0:0:
179,211,51483,2,0,P|176:265|143:298,1,90,0|0,3:0|3:0,0:0:0:0:
34,158,51824,1,8,0:0:0:0:
34,158,51994,2,0,P|82:132|127:144,1,90,0|0,0:0|3:0,0:0:0:0:
95,223,52335,1,0,3:0:0:0:
183,75,52506,6,0,P|204:120|196:174,1,90,0|0,3:0|3:0,0:0:0:0:
265,239,52846,2,0,P|248:285|204:318,1,90,0|0,3:0|3:0,0:0:0:0:
508,254,53187,2,0,P|466:269|436:309,1,90,8|0,0:0|3:0,0:0:0:0:
352,280,53528,2,0,P|332:320|339:369,1,90,0|0,3:0|3:0,0:0:0:0:
421,182,53869,6,0,P|373:169|345:124,1,90,0|0,3:0|0:0,0:0:0:0:
500,58,54210,2,0,P|512:106|487:152,1,90,0|0,3:0|3:0,0:0:0:0:
352,52,54551,1,8,0:0:0:0:
352,52,54721,2,0,P|387:16|440:15,1,90,0|0,0:0|3:0,0:0:0:0:
425,95,55062,1,0,3:0:0:0:
216,151,55233,6,0,P|158:154|121:149,1,90,2|0,3:2|3:2,0:2:0:0:
296,237,55574,2,0,P|354:234|391:239,1,90,2|0,3:2|3:2,0:2:0:0:
208,238,55915,2,0,P|194:302|210:351,1,112.5,10|0,0:2|0:2,0:2:0:0:
307,149,56256,2,0,P|323:91|306:39,1,112.5,2|0,3:2|3:3,0:3:0:0:
92,17,56597,6,0,P|46:26|15:60,1,90,0|0,3:0|0:0,0:0:0:0:
175,141,56937,2,0,P|190:96|176:52,1,90,0|0,3:0|3:0,0:0:0:0:
17,143,57278,1,8,0:0:0:0:
17,143,57449,2,0,P|47:178|92:188,1,90,0|0,0:0|3:0,0:0:0:0:
100,100,57790,1,0,3:0:0:0:
154,267,57960,6,0,P|101:277|40:294,2,90,0|0|0,3:0|3:0|3:0,0:0:0:0:
213,189,58471,1,0,3:0:0:0:
278,372,58642,2,0,P|241:330|251:258,1,112.5,8|0,0:0|0:0,0:0:0:0:
336,242,58983,2,0,P|373:284|363:356,1,112.5,8|8,3:0|3:0,0:0:0:0:
344,141,59324,5,2,3:2:0:0:
439,107,59494,1,0,3:2:0:0:
439,107,59665,1,0,3:2:0:0:
328,136,59835,5,12,3:2:0:0:
448,191,60006,1,0,3:2:0:0:
448,191,60176,1,0,3:2:0:0:
314,125,60346,5,12,3:2:0:0:
383,256,60517,1,0,3:2:0:0:
383,256,60687,1,0,3:2:0:0:
303,107,60858,5,12,3:2:0:0:
286,248,61028,1,0,3:2:0:0:
286,248,61199,1,0,3:2:0:0:
202,150,61369,5,12,3:2:0:0:
390,189,61540,1,0,3:2:0:0:
193,238,61710,2,0,P|165:231|148:221,1,45,12|0,3:2|3:2,0:0:0:0:
85,173,62051,1,4,3:2:0:0:
285,108,62392,6,0,L|290:163,1,45,0|0,3:2|3:2,0:0:0:0:
366,101,62733,2,0,L|371:156,1,45,0|0,3:2|3:2,0:0:0:0:
448,92,63074,2,0,L|453:147,1,45,0|0,3:2|3:2,0:0:0:0:
404,238,63415,6,0,L|399:293,1,45,0|0,3:2|3:2,0:0:0:0:
323,231,63756,2,0,L|318:286,1,45,0|0,3:2|3:2,0:0:0:0:
241,222,64097,2,0,L|236:277,1,45,0|0,3:2|3:2,0:0:0:0:
164,212,64437,2,0,L|159:267,1,45,0|0,3:2|3:2,0:0:0:0:
31,303,64778,6,0,L|92:300,1,45,8|0,3:2|3:2,3:2:0:0:
26,226,65119,2,0,L|87:223,1,45,0|0,3:2|3:2,3:2:0:0:
22,145,65460,2,0,L|83:142,1,45,0|0,3:2|3:2,0:0:0:0:
17,68,65801,2,0,L|78:65,1,45,0|0,3:2|3:2,0:0:0:0:
139,100,66142,5,2,3:2:0:0:
139,100,66312,1,0,3:0:0:0:
211,54,66483,1,2,3:2:0:0:
211,54,66653,1,0,3:0:0:0:
294,74,66824,1,2,3:2:0:0:
294,74,66994,1,0,3:0:0:0:
325,153,67165,1,2,3:2:0:0:
325,153,67335,1,0,3:0:0:0:
279,225,67506,5,4,1:3:0:0:
310,179,67676,1,0,1:0:0:0:
360,153,67846,1,0,1:0:0:0:
416,154,68017,1,0,1:0:0:0:
465,180,68187,1,0,1:0:0:0:
496,226,68358,1,0,1:0:0:0:
502,281,68528,1,0,1:0:0:0:
482,333,68698,1,0,1:0:0:0:
440,370,68869,5,0,1:0:0:0:
395,302,69040,1,0,1:0:0:0:
316,281,69210,1,0,1:0:0:0:
236,296,69381,1,0,1:0:0:0:
184,358,69551,5,0,1:0:0:0:
141,259,69721,1,0,1:0:0:0:
315,246,69892,1,0,1:0:0:0:
295,352,70062,1,0,1:0:0:0:
222,186,70233,1,4,3:3:0:0:
256,192,70318,12,0,71256,0:0:0:0:
114,208,71596,5,8,0:0:0:0:
96,61,71767,2,0,P|164:98|147:155,1,112.5,0|0,3:0|3:0,0:0:0:0:
95,212,72108,1,8,0:0:0:0:
225,262,72278,2,0,P|188:310|124:294,1,112.5,0|0,3:0|3:0,0:0:0:0:
35,212,72619,2,0,L|94:219,1,45,8|0,0:0|0:0,0:0:0:0:
288,175,72960,6,0,B|138:151|138:151|199:221,1,202.500007724762,6|0,3:0|0:0,0:0:0:0:
171,189,73301,1,8,0:0:0:0:
193,72,73471,1,2,0:1:0:0:
226,252,73642,2,0,P|190:271|142:264,1,67.5000025749208,2|0,0:1|0:0,0:0:0:0:
28,198,73812,2,0,P|64:217|112:210,1,67.5000025749208,0|0,3:0|0:0,0:0:0:0:
171,189,73983,2,0,L|160:43,1,135.000005149842,10|2,0:1|0:1,0:0:0:0:
80,116,74324,5,0,3:0:0:0:
244,49,74494,1,2,0:1:0:0:
80,116,74665,2,0,B|61:108|61:108|72:55,1,67.5000025749208,8|0,0:0|0:0,0:0:0:0:
244,49,74835,2,0,B|257:59|257:59|241:119,1,67.5000025749208,2|0,0:1|0:0,0:0:0:0:
171,189,75006,1,2,0:1:0:0:
152,15,75176,1,0,3:0:0:0:
171,189,75346,2,0,L|188:354,1,135.000005149842,10|2,0:1|0:0,0:0:0:0:
67,310,75602,1,2,0:0:0:0:
74,284,75687,6,0,B|149:292|149:292|188:327|188:327|265:314,1,202.500007724762,0|0,3:0|0:0,0:0:0:0:
262,315,76028,1,8,0:0:0:0:
346,234,76199,1,2,0:1:0:0:
353,226,76284,1,0,0:0:0:0:
361,219,76369,2,0,L|350:313,1,67.5000025749208
415,356,76540,1,0,3:0:0:0:
263,316,76710,2,2,L|254:153,1,135.000005149842,10|0,0:0|0:0,0:1:0:0:
228,22,77051,6,0,P|293:47|302:124,2,135.000005149842,0|2|10,0:0|0:0|0:0,0:0:0:0:
169,188,77562,1,2,0:0:0:0:
169,188,77648,1,2,0:0:0:0:
169,188,77733,2,0,P|140:216|135:250,1,67.5000025749208,2|0,0:0|0:0,0:0:0:0:
225,108,77903,2,0,L|130:90,1,67.5000025749208,0|0,3:0|0:0,0:0:0:0:
215,261,78074,2,0,L|373:250,1,135.000005149842,8|0,0:0|0:0,0:0:0:0:
478,250,78329,1,2,0:0:0:0:
482,221,78415,6,0,B|502:75|502:75|452:136,1,202.500007724762,4|0,3:2|0:0,0:0:0:0:
467,117,78756,1,8,0:0:0:0:
281,118,78926,2,0,P|292:150|298:185,1,67.5000025749208,2|0,0:1|0:0,0:0:0:0:
387,72,79096,2,0,P|379:107|374:147,1,67.5000025749208,2|0,0:1|0:0,0:0:0:0:
349,248,79267,1,0,3:0:0:0:
207,170,79437,2,0,P|227:262|233:307,1,135.000005149842,10|2,0:1|0:1,0:0:0:0:
121,246,79778,5,0,3:0:0:0:
309,330,79949,2,0,P|274:374|174:352,1,135.000005149842,2|8,0:1|0:0,0:0:0:0:
5,291,80290,2,0,B|55:302|55:302|83:323|83:323|141:335,1,135.000005149842,2|2,0:1|0:1,0:0:0:0:
218,229,80631,2,0,L|202:310,1,67.5000025749208,0|0,3:0|0:0,0:0:0:0:
121,246,80801,2,0,P|113:155|105:88,1,135.000005149842,10|2,0:1|0:0,0:0:0:0:
22,50,81057,1,2,0:0:0:0:
7,72,81142,6,0,B|153:48|153:48|230:77,1,202.500007724762,2|0,3:2|0:0,0:0:0:0:
204,67,81483,1,8,0:0:0:0:
301,16,81653,1,2,0:1:0:0:
301,16,81738,1,0,0:0:0:0:
301,16,81824,2,0,P|358:50|356:127,1,135.000005149842,0|0,0:0|3:0,0:0:0:0:
435,189,82165,2,2,P|420:253|346:275,1,135.000005149842,10|0,0:0|0:0,0:1:0:0:
237,225,82506,5,0,3:0:0:0:
237,225,82676,1,2,0:0:0:0:
310,340,82846,2,0,P|322:242|331:176,1,135.000005149842,8|0,0:0|3:0,0:0:0:0:
341,124,83102,1,0,0:0:0:0:
352,114,83187,2,0,L|268:124,1,67.5000025749208,2|0,0:0|0:0,0:0:0:0:
200,135,83358,1,0,3:0:0:0:
309,40,83528,2,0,L|323:213,1,135.000005149842,8|2,0:0|0:0,0:0:0:0:
330,256,83784,1,2,0:0:0:0:
330,256,83869,6,0,B|213:231|213:231|139:273,1,202.500007724762,6|0,3:0|0:0,0:0:0:0:
140,271,84210,1,8,0:0:0:0:
280,159,84381,1,2,0:1:0:0:
128,126,84551,2,0,L|135:196,1,67.5000025749208,2|0,0:1|0:0,0:0:0:0:
224,301,84721,2,0,L|231:212,1,67.5000025749208,0|0,3:0|0:0,0:0:0:0:
280,159,84892,2,0,L|272:11,1,135.000005149842,10|2,0:1|0:1,0:0:0:0:
366,197,85233,5,0,3:0:0:0:
393,36,85403,2,0,P|448:79|426:149,1,135.000005149842,2|8,0:1|0:0,0:0:0:0:
302,259,85744,1,2,0:1:0:0:
302,259,85829,1,0,0:0:0:0:
302,259,85915,1,2,0:1:0:0:
453,220,86085,1,0,3:0:0:0:
356,116,86256,2,0,L|218:130,1,135.000005149842,10|2,0:1|0:1,0:0:0:0:
78,130,86511,1,2,0:0:0:0:
93,117,86596,6,0,B|146:77|146:77|130:217,1,202.500007724762,0|0,3:0|0:0,0:0:0:0:
130,212,86937,1,8,0:0:0:0:
72,286,87108,1,2,0:1:0:0:
62,295,87193,1,0,0:0:0:0:
52,304,87278,2,0,L|132:300,1,67.5000025749208
210,295,87449,1,0,3:0:0:0:
48,182,87619,2,2,P|107:174|156:239,1,135.000005149842,8|0,0:0|0:0,0:1:0:0:
236,185,87875,1,0,0:0:0:0:
248,180,87960,6,0,L|256:337,2,135.000005149842,0|2|8,3:0|0:0|0:0,0:0:0:0:
182,123,88471,1,2,0:0:0:0:
182,123,88557,1,2,0:0:0:0:
182,123,88642,2,0,L|113:91,1,67.5000025749208,2|0,0:0|0:0,0:0:0:0:
313,116,88812,2,0,L|373:71,1,67.5000025749208,0|0,3:0|0:0,0:0:0:0:
178,29,88983,2,0,B|240:51|240:51|308:8,1,135.000005149842,8|2,0:0|0:0,0:0:0:0:
298,14,89238,1,2,0:0:0:0:
298,14,89324,6,0,L|277:235,1,202.500007724762,4|0,3:2|0:0,0:0:0:0:
278,215,89665,1,8,0:0:0:0:
434,159,89835,2,0,B|302:171|374:108|236:120,1,202.500007724762,2|0,3:1|0:0,0:0:0:0:
241,119,90176,1,0,3:0:0:0:
69,68,90346,2,0,B|4:83|4:83|81:147,1,135.000005149842,10|0,0:1|0:0,0:0:0:0:
145,114,90687,5,0,3:0:0:0:
145,114,90858,1,2,3:1:0:0:
224,74,91028,2,0,B|243:10|243:10|149:44,1,135.000005149842,8|0,0:0|3:0,0:0:0:0:
138,196,91369,2,0,B|183:244|183:244|200:146,1,135.000005149842,2|2,0:1|3:1,0:0:0:0:
0,327,91710,2,0,L|147:323,1,135.000005149842,10|2,0:1|0:0,0:0:0:0:
148,319,91966,1,2,0:0:0:0:
160,315,92051,6,0,P|223:301|279:365,1,135.000005149842,2|2,3:2|0:3,0:0:0:0:
362,366,92562,1,0,0:0:0:0:
362,366,92648,1,2,0:3:0:0:
362,366,92733,2,0,L|359:278,1,67.5000025749208,2|0,0:0|0:0,0:0:0:0:
359,216,93074,1,2,0:3:0:0:
439,278,93244,1,0,0:0:0:0:
452,281,93329,1,2,0:3:0:0:
465,284,93415,5,2,0:0:0:0:
498,172,93585,2,0,P|453:182|431:213,1,67.5000025749208,0|2,0:0|0:3,0:0:0:0:
359,298,93926,2,0,L|354:346,2,33.7500012874604,0|2|2,0:0|0:3|0:0,0:0:0:0:
283,226,94267,1,0,0:0:0:0:
452,367,94437,6,0,L|458:265,1,90,8|0,0:0|0:0,0:0:0:0:
462,264,94693,1,0,0:0:0:0:
468,252,94778,6,0,B|363:265|409:208|303:218,1,168.75,4|0,3:2|0:0,0:0:0:0:
283,226,95119,5,8,0:0:0:0:
283,226,95290,1,0,0:0:0:0:
399,147,95460,5,2,0:0:0:0:
399,147,95631,1,0,3:0:0:0:
245,102,95801,5,8,0:0:0:0:
245,102,95971,1,0,0:0:0:0:
370,49,96142,5,2,0:0:0:0:
226,103,96312,1,0,0:0:0:0:
352,243,96483,2,0,L|363:123,1,112.5,8|0,0:0|0:0,0:0:0:0:
124,229,96824,5,2,0:0:0:0:
273,213,96994,1,0,3:0:0:0:
107,230,97165,1,8,0:0:0:0:
212,146,97335,1,2,0:0:0:0:
221,139,97420,1,2,0:0:0:0:
230,132,97506,6,0,L|225:11,1,112.5,0|0,3:0|0:0,0:0:0:0:
361,165,97846,2,0,L|368:307,1,112.5,8|0,0:0|0:0,0:0:0:0:
366,277,98102,1,2,0:3:0:0:
366,277,98187,1,2,0:0:0:0:
283,233,98358,1,0,3:0:0:0:
454,260,98528,1,8,0:0:0:0:
378,366,98699,1,0,0:0:0:0:
367,368,98784,1,2,0:3:0:0:
356,370,98869,6,0,L|171:351,1,168.75,2|0,3:2|0:0,0:0:0:0:
162,351,99210,2,0,L|296:339,1,112.5,8|0,0:0|0:0,0:0:0:0:
274,340,99466,1,2,0:3:0:0:
274,340,99551,1,2,0:0:0:0:
208,183,99721,1,0,3:0:0:0:
307,248,99892,2,0,L|239:260,1,56.25,8|0,0:0|0:0,0:0:0:0:
148,307,100062,1,2,0:0:0:0:
138,313,100148,1,2,0:0:0:0:
128,319,100233,6,0,B|223:305|183:361|296:348,1,168.75,4|0,3:2|0:0,0:0:0:0:
289,348,100574,1,8,0:0:0:0:
358,178,100744,2,0,P|393:234|382:297,1,112.5,2|0,0:0|0:0,0:0:0:0:
448,149,101085,1,2,3:2:0:0:
307,248,101256,2,0,L|175:233,1,112.5,8|2,0:0|0:0,0:0:0:0:
56,141,101596,6,0,B|114:169|114:169|229:128,1,168.75,0|0,3:0|0:0,0:0:0:0:
212,133,101937,1,8,0:0:0:0:
330,6,102108,2,0,B|343:64|343:64|327:134,1,112.5,2|0,0:0|0:0,0:0:0:0:
256,58,102449,1,2,3:2:0:0:
290,309,102619,2,0,L|286:186,1,112.5,8|2,0:0|0:0,0:0:0:0:
283,185,102875,1,2,0:0:0:0:
279,174,102960,6,0,L|423:188,1,112.5,2|0,3:2|0:0,0:0:0:0:
479,192,103301,1,8,0:0:0:0:
336,100,103471,1,0,0:0:0:0:
336,100,103557,1,2,0:3:0:0:
336,100,103642,1,2,0:0:0:0:
429,264,103812,2,0,L|435:381,1,112.5,0|8,3:0|0:0,0:0:0:0:
307,190,104153,1,2,0:0:0:0:
307,190,104238,1,2,0:3:0:0:
307,190,104324,6,0,B|262:235|262:235|277:358,1,168.75,2|0,3:2|0:0,0:0:0:0:
274,339,104665,1,8,0:0:0:0:
370,272,104835,1,0,3:0:0:0:
370,272,104920,1,0,0:0:0:0:
370,272,105006,1,2,0:2:0:0:
179,305,105176,1,2,3:2:0:0:
286,100,105346,2,0,L|275:219,1,112.5,8|2,0:0|0:0,0:0:0:0:
278,223,105602,1,2,0:0:0:0:
280,233,105687,6,0,B|167:211|167:211|108:243,1,168.75,4|0,3:2|0:0,0:0:0:0:
91,255,106028,5,8,0:0:0:0:
91,255,106199,1,0,0:0:0:0:
168,134,106369,5,2,0:0:0:0:
168,134,106540,1,0,3:0:0:0:
179,306,106710,5,8,0:0:0:0:
179,306,106881,1,0,0:0:0:0:
319,259,107051,5,2,3:2:0:0:
186,218,107221,1,0,0:0:0:0:
265,77,107392,2,0,B|282:133|282:133|256:210,1,112.5,8|0,0:0|0:0,0:0:0:0:
234,293,107733,1,2,0:0:0:0:
357,179,107903,1,0,3:0:0:0:
192,130,108074,1,8,0:0:0:0:
351,95,108244,1,2,0:0:0:0:
351,95,108329,1,2,0:0:0:0:
351,95,108415,6,0,L|483:86,1,112.5,0|0,3:0|0:0,0:0:0:0:
230,224,108756,2,0,L|108:213,1,112.5,8|0,0:0|0:0,0:0:0:0:
117,213,109011,1,2,0:3:0:0:
117,213,109096,1,2,0:0:0:0:
178,306,109267,1,0,3:0:0:0:
27,209,109437,1,8,0:0:0:0:
176,108,109608,1,0,0:0:0:0:
176,108,109693,1,2,0:3:0:0:
176,108,109778,6,0,P|250:90|307:160,1,168.75,2|0,3:2|0:0,0:0:0:0:
306,153,110119,2,0,L|324:29,1,112.5,8|2,0:0|0:0,0:0:0:0:
322,41,110375,1,2,0:3:0:0:
322,41,110460,1,2,0:0:0:0:
224,172,110630,1,0,3:0:0:0:
398,112,110801,2,0,L|398:198,1,56.25,8|0,0:0|0:0,0:0:0:0:
446,246,110971,1,0,0:0:0:0:
448,257,111057,1,2,0:3:0:0:
450,267,111142,6,0,B|336:245|336:245|287:272,1,168.75,4|0,3:2|0:0,0:0:0:0:
289,270,111483,1,8,0:0:0:0:
216,198,111653,2,0,B|173:267|173:267|214:354,1,168.75,2|0,3:2|0:0,0:0:0:0:
210,346,111994,1,2,3:2:0:0:
372,329,112165,2,0,P|386:259|369:215,1,112.5,8|0,0:0|0:0,0:0:0:0:
300,120,112506,6,0,B|350:138|383:130|383:130|428:111|473:120,1,168.75,2|0,3:2|0:0,0:0:0:0:
465,118,112846,1,8,0:0:0:0:
288,217,113017,1,0,3:0:0:0:
288,217,113187,1,0,0:0:0:0:
206,67,113358,1,0,3:0:0:0:
72,176,113528,2,0,L|209:164,1,112.5,8|2,0:0|0:0,0:0:0:0:
194,161,113784,1,2,0:0:0:0:
204,156,113869,6,0,L|196:273,1,107.999996704102,2|2,3:2|0:3,0:0:0:0:
194,346,114381,1,0,0:0:0:0:
256,192,114466,12,0,116085,0:0:0:0:
256,192,116426,5,2,0:0:0:0:
256,192,116511,1,2,0:0:0:0:
256,192,116596,6,0,P|304:163|317:119,1,90,4|0,3:2|0:0,0:0:0:0:
149,93,116937,2,0,P|150:147|181:181,1,90,0|0,3:0|3:0,0:0:0:0:
296,45,117278,1,8,0:0:0:0:
296,45,117449,2,0,P|248:17|203:27,1,90,0|0,0:0|3:0,0:0:0:0:
233,105,117789,1,0,3:0:0:0:
371,218,117960,6,0,P|427:203|462:155,1,90,0|0,3:0|3:0,0:0:0:0:
428,94,118301,2,0,P|457:43|448:-14,1,90,0|0,3:0|3:0,0:0:0:0:
237,75,118642,2,0,P|207:121|201:165,1,90,8|0,0:0|0:0,0:0:0:0:
278,207,118983,2,0,P|289:260|316:296,1,90,0|0,3:0|3:0,0:0:0:0:
241,346,119324,6,0,P|193:346|143:368,1,90,0|0,3:0|0:0,0:0:0:0:
120,192,119665,2,0,P|144:233|188:265,1,90,0|0,3:0|3:0,0:0:0:0:
43,373,120005,1,8,0:0:0:0:
43,373,120176,2,0,P|67:331|72:277,1,90,0|0,0:0|3:0,0:3:0:0:
207,172,120517,1,0,3:0:0:0:
17,107,120687,6,0,L|24:228,1,90,2|0,3:2|3:2,0:2:0:0:
207,172,121028,2,0,L|212:268,1,90,2|0,3:2|3:2,0:2:0:0:
30,126,121369,2,0,L|39:254,1,112.5,10|0,0:2|0:2,0:2:0:0:
220,191,121710,2,0,L|228:314,1,112.5,2|0,3:2|3:0,0:0:0:0:
137,72,122051,6,0,P|180:39|227:46,1,90,0|0,3:0|0:0,0:0:0:0:
74,136,122392,2,0,P|23:115|6:71,1,90,0|0,3:0|3:0,0:0:0:0:
155,160,122733,1,8,0:0:0:0:
155,160,122903,2,0,P|169:209|157:249,1,90,0|0,0:0|3:0,0:0:0:0:
97,306,123244,1,0,3:0:0:0:
255,354,123415,6,0,L|142:366,2,90,0|0|0,3:0|3:0|3:0,0:0:0:0:
208,272,123926,1,0,3:0:0:0:
410,201,124096,2,0,P|444:256|426:308,1,112.5,8|0,0:0|0:0,0:0:0:0:
343,316,124437,2,0,P|309:261|327:209,1,112.5,8|8,3:0|3:0,0:0:0:0:
406,81,124778,5,2,3:2:0:0:
298,112,124949,1,0,3:2:0:0:
298,112,125119,1,0,3:2:0:0:
421,76,125290,5,12,3:2:0:0:
341,190,125460,1,0,3:2:0:0:
341,190,125631,1,0,3:2:0:0:
437,69,125801,5,12,3:2:0:0:
424,223,125971,1,0,3:2:0:0:
424,223,126142,1,0,3:2:0:0:
455,64,126312,5,12,3:2:0:0:
505,198,126483,1,0,3:2:0:0:
505,198,126653,1,0,3:2:0:0:
338,132,126824,5,12,3:2:0:0:
424,144,126994,1,0,3:2:0:0:
263,60,127165,6,0,P|259:102|261:113,1,45,12|0,3:2|3:2,0:0:0:0:
269,219,127506,1,4,3:2:0:0:
17,200,127846,6,0,L|20:250,1,45,0|0,3:2|3:2,0:0:0:0:
99,191,128187,2,0,L|102:241,1,45,0|0,3:2|3:2,0:0:0:0:
180,181,128528,2,0,L|183:231,1,45,0|0,3:2|3:2,0:0:0:0:
220,340,128869,6,0,L|170:336,1,45,0|0,3:2|3:2,0:0:0:0:
299,263,129210,2,0,L|245:267,1,45,0|0,3:2|3:2,0:0:0:0:
349,351,129551,2,0,L|299:347,1,45,0|0,3:2|3:2,0:0:0:0:
428,254,129892,2,0,L|374:258,1,45,0|0,3:2|3:2,0:0:0:0:
398,174,130233,5,8,3:2:0:0:
503,282,130403,2,0,P|509:244|506:230,2,45,0|0|0,3:2|3:2|3:2,0:0:0:0:
438,338,130915,2,0,L|373:335,1,45,0|0,3:2|3:2,0:0:0:0:
276,279,131256,2,0,L|320:281,1,45,0|0,3:2|3:2,0:0:0:0:
406,251,131596,5,2,3:2:0:0:
406,251,131766,1,0,3:0:0:0:
413,170,131937,1,2,3:2:0:0:
413,170,132107,1,0,3:0:0:0:
421,90,132278,1,2,3:2:0:0:
421,90,132448,1,0,3:0:0:0:
426,11,132619,1,2,3:2:0:0:
426,11,132789,1,0,3:0:0:0:
346,44,132960,5,4,1:3:0:0:
299,16,133131,1,0,1:0:0:0:
245,16,133301,1,0,1:0:0:0:
199,44,133471,1,0,1:0:0:0:
178,94,133642,1,0,1:0:0:0:
155,142,133812,1,0,1:0:0:0:
104,162,133983,1,0,1:0:0:0:
51,150,134153,1,0,1:0:0:0:
28,100,134324,5,0,1:0:0:0:
111,118,134494,1,0,1:0:0:0:
194,138,134665,1,0,1:0:0:0:
276,158,134835,1,0,1:0:0:0:
356,176,135006,5,0,1:0:0:0:
253,235,135176,1,0,1:0:0:0:
369,93,135346,1,0,1:0:0:0:
394,275,135517,1,0,1:0:0:0:
266,142,135687,1,4,3:3:0:0:
351,154,137051,5,8,0:0:0:0:
272,23,137221,2,0,P|253:78|280:132,1,112.5,0|0,3:0|3:0,0:0:0:0:
412,100,137562,1,8,0:0:0:0:
481,239,137733,2,0,P|498:183|479:128,1,112.5,0|0,3:0|3:0,0:0:0:0:
347,167,138074,2,0,L|343:233,1,45,8|0,0:0|0:0,0:0:0:0:
368,384,138415,6,0,B|424:329|424:329|428:191,1,202.500007724762,6|0,3:0|0:0,0:0:0:0:
427,205,138756,1,8,0:0:0:0:
341,293,138926,1,2,0:1:0:0:
509,299,139096,2,0,L|512:212,1,67.5000025749208,2|0,0:1|0:0,0:0:0:0:
344,211,139267,2,0,L|341:122,1,67.5000025749208,0|0,3:0|0:0,0:0:0:0:
438,70,139437,2,0,L|426:224,1,135.000005149842,10|2,0:1|0:1,0:0:0:0:
260,175,139778,5,0,3:0:0:0:
389,133,139949,1,2,0:1:0:0:
254,31,140119,2,0,L|256:106,1,67.5000025749208,8|0,0:0|0:0,0:0:0:0:
260,175,140290,2,0,L|262:250,1,67.5000025749208,2|0,0:1|0:0,0:0:0:0:
210,306,140460,1,2,0:1:0:0:
347,245,140631,1,0,3:0:0:0:
176,95,140801,2,0,L|180:239,1,135.000005149842,10|2,0:1|0:0,0:0:0:0:
140,328,141057,1,2,0:0:0:0:
121,347,141142,6,0,B|105:273|171:211|264:251|248:325,1,202.500007724762,0|0,3:0|0:0,0:0:0:0:
243,284,141483,1,8,0:0:0:0:
334,162,141653,1,2,0:1:0:0:
343,171,141738,1,0,0:0:0:0:
352,180,141824,2,0,L|265:173,1,67.5000025749208
185,170,141994,1,0,3:0:0:0:
340,269,142165,2,2,L|491:259,1,135.000005149842,10|0,0:0|0:0,0:1:0:0:
340,83,142506,6,0,L|485:96,1,135.000005149842,0|2,3:0|0:0,0:0:0:0:
474,95,142846,1,8,0:0:0:0:
308,194,143017,1,2,0:0:0:0:
308,194,143102,1,2,0:0:0:0:
308,194,143187,2,0,L|398:185,1,67.5000025749208,2|0,0:0|0:0,0:0:0:0:
474,180,143358,2,0,L|387:172,1,67.5000025749208,0|0,3:0|0:0,0:0:0:0:
248,122,143528,2,0,L|256:297,1,135.000005149842,8|2,0:0|0:0,0:0:0:0:
175,317,143784,1,2,0:0:0:0:
154,334,143869,6,0,B|115:363|115:363|133:194,1,202.500007724762,4|0,3:2|0:0,0:0:0:0:
131,209,144210,1,8,0:0:0:0:
12,145,144381,2,0,P|41:140|91:140,1,67.5000025749208,2|0,0:1|0:0,0:0:0:0:
164,128,144551,2,0,P|159:80|160:42,1,67.5000025749208,2|0,0:1|0:0,0:0:0:0:
87,7,144721,1,0,3:0:0:0:
250,88,144892,2,0,L|238:239,1,135.000005149842,10|2,0:1|0:1,0:0:0:0:
336,165,145233,5,0,3:0:0:0:
195,297,145403,2,0,P|255:314|320:253,1,135.000005149842,2|8,0:1|0:0,0:0:0:0:
485,354,145744,2,0,P|425:337|360:398,1,135.000005149842,2|2,0:1|0:1,0:0:0:0:
429,243,146085,2,0,L|423:334,1,67.5000025749208,0|0,3:0|0:0,0:0:0:0:
287,366,146256,2,0,L|281:195,1,135.000005149842,10|2,0:1|0:0,0:0:0:0:
318,114,146511,1,2,0:0:0:0:
338,96,146596,6,0,B|206:120|206:120|131:78,1,202.500007724762,0|0,3:0|0:0,0:0:0:0:
146,86,146937,1,8,0:0:0:0:
28,200,147108,1,2,0:1:0:0:
28,200,147193,1,0,0:0:0:0:
28,200,147278,2,0,P|74:243|145:221,1,135.000005149842,0|0,0:0|3:0,0:0:0:0:
349,260,147619,2,2,L|208:275,1,135.000005149842,10|0,0:0|0:0,0:1:0:0:
204,283,147875,1,0,0:0:0:0:
192,290,147960,6,0,L|202:78,1,202.500007724762,0|0,3:0|0:0,0:0:0:0:
201,87,148301,1,8,0:0:0:0:
292,181,148471,1,0,3:0:0:0:
301,190,148557,1,0,0:0:0:0:
310,199,148642,2,0,L|215:209,1,67.5000025749208,2|0,0:0|0:0,0:0:0:0:
106,220,148812,1,0,3:0:0:0:
284,309,148983,2,0,L|144:300,1,135.000005149842,8|2,0:0|0:0,0:0:0:0:
48,351,149238,1,2,0:0:0:0:
24,363,149324,6,0,B|13:292|13:292|26:227|26:227|11:133,1,202.500007724762,6|0,3:0|0:0,0:0:0:0:
15,163,149665,1,8,0:0:0:0:
179,131,149834,1,2,0:1:0:0:
114,259,150006,2,0,L|103:164,1,67.5000025749208,2|0,0:1|0:0,0:0:0:0:
90,106,150176,2,0,L|79:11,1,67.5000025749208,0|0,3:0|0:0,0:0:0:0:
209,221,150346,2,0,L|200:365,1,135.000005149842,10|2,0:1|0:1,0:0:0:0:
261,149,150687,6,0,P|194:130|129:189,2,135.000005149842,0|2|8,3:0|0:1|0:0,0:0:0:0:
336,202,151199,1,2,0:1:0:0:
336,202,151284,1,0,0:0:0:0:
336,202,151369,2,0,L|346:45,1,135.000005149842,2|0,3:1|3:0,0:0:0:0:
460,318,151710,2,0,L|457:180,1,135.000005149842,10|2,0:1|0:1,0:0:0:0:
448,52,151966,1,2,0:0:0:0:
460,75,152051,6,0,B|357:104|357:104|270:28,1,202.500007724762,2|0,3:2|0:0,0:0:0:0:
285,41,152392,1,8,0:0:0:0:
192,159,152563,1,2,0:1:0:0:
182,168,152648,1,0,0:0:0:0:
172,177,152733,2,0,L|166:97,1,67.5000025749208
159,13,152904,1,0,3:0:0:0:
289,168,153074,2,2,P|342:217|323:299,1,135.000005149842,10|0,0:0|0:0,0:1:0:0:
268,345,153329,1,0,0:0:0:0:
256,352,153415,6,0,L|122:338,2,135.000005149842,0|2|8,3:0|0:0|0:0,0:0:0:0:
228,246,153926,1,2,0:0:0:0:
228,246,154011,1,2,0:0:0:0:
228,246,154096,2,0,L|142:254,1,67.5000025749208,2|0,0:0|0:0,0:0:0:0:
20,178,154267,2,0,L|114:192,1,67.5000025749208,0|0,3:0|0:0,0:0:0:0:
125,369,154437,2,0,P|47:364|29:294,1,135.000005149842,8|2,0:0|0:0,0:0:0:0:
110,265,154693,1,2,0:0:0:0:
136,260,154778,6,0,B|206:253|206:253|264:277|264:277|348:269,1,202.500007724762,4|0,3:2|0:0,0:0:0:0:
333,270,155119,1,8,0:0:0:0:
471,148,155290,2,0,B|403:158|403:158|361:191|361:191|261:175,1,202.500007724762,2|0,3:1|0:0,0:0:0:0:
281,178,155631,1,0,3:0:0:0:
263,95,155801,2,0,B|305:39|305:39|331:131,1,135.000005149842,10|0,0:1|0:0,0:0:0:0:
281,178,156142,5,0,3:0:0:0:
281,178,156313,1,2,0:1:0:0:
215,231,156483,2,0,B|145:222|145:222|212:154,1,135.000005149842,8|0,0:0|3:0,0:0:0:0:
361,201,156824,2,0,B|388:265|388:265|295:241,1,135.000005149842,2|2,0:1|3:1,0:0:0:0:
467,157,157165,2,0,L|471:306,1,135.000005149842,10|2,0:1|0:0,0:0:0:0:
475,304,157420,1,2,0:0:0:0:
479,316,157506,6,0,P|438:354|347:330,1,135.000005149842,2|2,3:2|0:3,0:0:0:0:
269,307,158017,1,0,0:0:0:0:
269,307,158102,1,2,0:3:0:0:
269,307,158187,2,0,L|186:312,1,67.5000025749208,2|0,0:0|0:0,0:0:0:0:
340,236,158528,1,2,0:3:0:0:
226,228,158699,1,0,0:0:0:0:
212,226,158784,1,2,0:3:0:0:
198,224,158869,5,2,0:0:0:0:
353,239,159040,2,0,L|422:248,1,67.5000025749208,0|2,0:0|0:3,0:0:0:0:
286,155,159381,2,0,L|241:128,2,33.7500012874604,0|2|2,0:0|0:3|0:0,0:0:0:0:
431,255,159721,1,0,0:0:0:0:
284,371,159892,6,0,P|254:330|263:282,1,90,8|2,0:0|0:0,0:0:0:0:
263,281,160148,1,2,0:0:0:0:
269,269,160233,5,4,3:2:0:0:
278,88,160403,2,0,P|324:126|316:189,2,112.5,0|8|0,0:0|0:0|0:0,0:0:0:0:
181,282,160915,2,0,L|55:273,1,112.5,2|0,0:0|3:0,0:0:0:0:
246,162,161256,2,0,L|103:170,1,112.5,8|0,0:0|0:0,0:0:0:0:
43,170,161596,5,2,3:2:0:0:
43,170,161767,1,0,0:0:0:0:
185,79,161937,1,8,0:0:0:0:
185,79,162108,1,0,0:0:0:0:
41,46,162278,5,2,0:0:0:0:
129,145,162449,1,0,3:0:0:0:
274,31,162619,2,0,L|267:176,1,112.5,8|2,0:0|0:0,0:0:0:0:
261,227,162875,1,2,0:0:0:0:
260,240,162960,5,0,3:0:0:0:
358,157,163131,1,0,0:0:0:0:
328,307,163301,2,0,P|274:336|192:303,1,112.5,8|0,0:0|0:0,0:0:0:0:
215,323,163557,1,2,0:3:0:0:
207,314,163642,2,0,L|195:180,1,112.5,2|0,0:0|3:0,0:0:0:0:
42,116,163983,2,0,P|92:75|155:99,1,112.5,8|0,0:0|0:0,0:0:0:0:
144,88,164238,1,2,0:3:0:0:
152,95,164324,5,2,3:2:0:0:
110,178,164494,1,0,0:0:0:0:
242,130,164665,1,8,0:0:0:0:
172,244,164835,1,2,0:0:0:0:
166,253,164920,1,2,0:3:0:0:
160,262,165006,6,0,L|80:257,1,56.25,2|0,0:0|0:0,0:0:0:0:
258,226,165176,1,0,3:0:0:0:
258,226,165261,2,0,L|346:221,1,56.25,0|8,0:0|0:0,0:0:0:0:
488,305,165517,1,2,0:0:0:0:
494,313,165602,1,2,0:0:0:0:
500,321,165687,6,0,P|432:342|387:241,1,168.75,4|0,3:2|0:0,0:0:0:0:
394,243,166028,1,8,0:0:0:0:
478,106,166199,2,0,P|488:174|478:230,1,112.5,2|0,0:0|0:0,0:0:0:0:
289,294,166540,2,0,P|277:229|295:160,1,112.5,2|8,3:2|0:0,0:0:0:0:
328,74,166881,1,2,0:0:0:0:
372,161,167051,6,0,P|287:164|233:79,1,168.75,2|0,3:2|0:0,0:0:0:0:
228,71,167392,1,8,0:0:0:0:
62,155,167562,2,0,P|110:191|189:162,1,112.5,2|0,0:0|0:0,0:0:0:0:
321,255,167903,2,0,P|273:291|194:262,1,112.5,2|8,3:2|0:0,0:0:0:0:
94,348,168244,1,2,0:0:0:0:
84,353,168329,1,2,0:0:0:0:
73,358,168415,6,0,L|63:179,1,168.75,2|0,3:2|0:0,0:0:0:0:
62,155,168756,1,8,0:0:0:0:
187,63,168926,1,0,0:0:0:0:
183,79,169011,1,2,0:3:0:0:
179,95,169096,1,2,0:0:0:0:
80,44,169267,1,0,3:0:0:0:
273,96,169437,2,0,L|281:258,1,112.5,8|2,0:0|0:0,0:0:0:0:
219,284,169693,1,2,0:3:0:0:
211,294,169778,6,0,B|344:317|344:317|309:266,1,168.75,2|0,3:2|0:0,0:0:0:0:
324,289,170119,1,8,0:0:0:0:
393,224,170290,1,0,3:0:0:0:
392,208,170374,1,0,0:0:0:0:
391,192,170459,1,2,0:0:0:0:
496,216,170631,2,0,L|489:314,1,56.25,2|0,3:2|0:0,0:0:0:0:
507,363,170801,2,0,B|460:360|460:360|439:345|439:345|371:338,1,112.5,8|2,0:0|0:0,0:0:0:0:
297,362,171057,1,2,0:0:0:0:
272,371,171142,6,0,L|282:185,1,168.75,6|0,3:2|0:0,0:0:0:0:
285,168,171483,1,8,0:0:0:0:
187,234,171653,1,0,0:0:0:0:
373,178,171824,1,2,0:0:0:0:
373,178,171994,1,0,3:0:0:0:
215,103,172165,1,8,0:0:0:0:
215,103,172335,1,0,0:0:0:0:
322,244,172506,6,0,P|392:263|453:169,1,168.75,2|0,3:2|0:0,0:0:0:0:
460,166,172846,1,8,0:0:0:0:
374,28,173017,1,0,0:0:0:0:
373,178,173187,1,2,0:0:0:0:
461,49,173358,1,0,3:0:0:0:
300,105,173528,2,0,L|165:96,1,112.5,8|2,0:0|0:0,0:0:0:0:
101,83,173784,1,2,0:0:0:0:
94,92,173869,5,0,3:0:0:0:
176,6,174040,1,0,0:0:0:0:
187,186,174210,2,0,L|193:326,1,112.5,8|0,0:0|0:0,0:0:0:0:
190,309,174466,1,2,0:3:0:0:
189,320,174551,1,2,0:0:0:0:
86,224,174721,2,0,P|108:231|137:255,1,56.25,0|0,3:0|0:0,0:0:0:0:
286,215,174892,2,0,P|253:234|232:259,1,56.25,8|0,0:0|0:0,0:0:0:0:
188,331,175062,1,0,0:0:0:0:
188,342,175148,1,2,0:3:0:0:
188,353,175233,6,0,L|183:171,1,168.75,2|0,3:2|0:0,0:0:0:0:
184,150,175574,1,8,0:0:0:0:
314,61,175744,1,2,0:0:0:0:
314,61,175829,1,2,0:3:0:0:
314,61,175915,2,0,P|371:73|374:149,2,112.5,2|0|8,0:0|3:0|0:0,0:0:0:0:
296,199,176426,1,2,0:0:0:0:
292,215,176511,1,2,0:0:0:0:
288,231,176596,6,0,B|350:219|378:225|378:225|427:256|469:246,1,168.75,4|0,3:2|0:0,0:0:0:0:
451,248,176937,1,8,0:0:0:0:
343,115,177108,2,0,B|281:103|253:109|253:109|204:140|162:130,1,168.75,2|0,3:2|0:0,0:0:0:0:
179,132,177449,1,0,3:0:0:0:
8,198,177619,2,0,B|74:191|50:226|120:222,1,112.5,10|0,0:0|0:0,0:0:0:0:
172,299,177960,6,0,B|217:253|217:253|195:150,1,168.75,2|0,3:2|0:0,0:0:0:0:
197,151,178301,1,8,0:0:0:0:
321,29,178471,2,0,B|276:75|276:75|297:177,1,168.75,0|0,3:0|0:0,0:0:0:0:
296,177,178812,1,0,3:0:0:0:
481,187,178983,2,0,P|414:184|376:226,1,112.5,8|2,0:0|0:0,0:0:0:0:
379,222,179238,1,2,0:0:0:0:
377,233,179324,6,0,L|382:328,1,90,2|2,3:2|0:3,0:0:0:0:
298,364,179835,2,0,P|262:357|247:355,1,45,0|2,0:0|0:0,0:0:0:0:
289,232,180176,1,0,0:0:0:0:
289,232,180346,2,0,L|289:297,1,45,2|0,0:3|0:0,0:0:0:0:
419,186,180687,6,0,L|425:88,1,90,2|2,0:0|0:3,0:0:0:0:
430,10,181199,1,0,0:0:0:0:
430,10,181284,1,2,0:3:0:0:
430,10,181369,1,2,0:0:0:0:
347,55,181540,2,0,L|340:118,1,45,0|2,0:0|0:3,0:0:0:0:
500,180,181881,2,0,L|503:218,2,22.5,2|2|4,0:0|0:0|3:0,0:0:0:0:
253,188,192960,5,6,3:0:0:0:
256,192,201142,12,0,202846,0:0:0:0:
273,86,203187,5,0,0:0:0:0:
273,86,203358,1,0,0:0:0:0:
358,121,203528,2,0,L|469:106,1,101.250003862381,2|0,0:0|0:0,0:0:0:0:
459,108,203869,6,0,L|462:55,1,45,6|0,3:1|0:0,0:0:0:0:
298,175,204210,1,0,3:0:0:0:
298,175,204381,2,0,L|303:231,2,45,0|0|0,3:0|0:0|0:0,0:0:0:0:
375,126,204892,2,0,L|382:62,1,45,0|0,3:0|3:0,0:0:0:0:
207,158,205233,6,0,L|213:214,1,45,0|0,3:0|3:0,0:0:0:0:
292,88,205574,1,0,3:0:0:0:
292,88,205744,2,0,L|302:34,2,45,0|0|0,3:0|0:0|0:0,0:0:0:0:
120,184,206256,2,0,L|124:230,1,45,0|0,3:0|3:0,0:0:0:0:
159,105,206596,6,0,L|98:97,1,45,4|0,3:1|0:0,0:0:0:0:
256,199,206937,1,0,3:0:0:0:
256,199,207108,2,0,L|193:204,2,45,0|0|0,3:0|0:0|0:0,0:0:0:0:
142,311,207619,2,0,L|92:305,1,45,0|0,3:0|3:0,0:0:0:0:
229,287,207960,6,0,L|233:339,1,45,0|0,3:0|3:0,0:0:0:0:
161,227,208301,1,0,3:0:0:0:
161,227,208471,1,0,3:0:0:0:
317,301,208642,2,0,L|321:359,1,45
393,175,208983,2,0,L|397:240,1,45,0|0,3:0|3:0,0:0:0:0:
460,310,209324,6,0,L|405:317,1,45,4|0,3:1|0:0,0:0:0:0:
303,212,209665,1,0,3:0:0:0:
303,212,209835,2,0,L|252:218,2,45,0|2|2,3:0|0:1|0:1,0:0:0:0:
481,169,210346,2,0,L|486:230,1,45,0|0,3:0|3:0,0:0:0:0:
411,80,210687,6,0,L|417:29,1,45,0|0,3:0|3:0,0:0:0:0:
392,171,211028,1,0,3:0:0:0:
392,171,211199,1,0,3:0:0:0:
502,81,211369,2,0,L|509:27,1,45
322,108,211710,1,0,3:0:0:0:
322,108,211881,1,0,3:0:0:0:
410,178,212051,6,0,L|415:231,2,45,6|0|0,3:1|3:0|3:0,0:0:0:0:
300,100,212562,1,2,0:0:0:0:
412,87,212733,2,0,L|421:34,1,45,2|0,0:0|3:0,0:0:0:0:
272,93,213074,1,0,0:0:0:0:
272,93,213244,1,0,3:0:0:0:
363,192,213415,5,0,0:0:0:0:
284,209,213585,1,0,3:0:0:0:
212,169,213756,1,0,3:0:0:0:
132,183,213926,1,2,3:2:0:0:
132,183,214011,1,0,0:0:0:0:
132,183,214096,2,0,L|70:174,1,45,2|0,0:0|3:2,0:0:0:0:
97,265,214437,2,0,L|28:274,1,67.5000025749208,0|0,3:0|3:0,0:0:0:0:
10,131,214778,6,0,P|45:92|139:109,1,135.000005149842,6|0,3:1|3:0,0:0:0:0:
122,95,215290,1,0,3:0:0:0:
275,34,215460,2,0,P|280:75|273:121,1,67.5000025749208,0|0,3:2|3:2,0:0:0:0:
205,224,215801,2,0,P|199:178|209:134,1,67.5000025749208,0|0,3:0|3:0,0:0:0:0:
368,85,216142,5,0,3:0:0:0:
394,81,216312,1,0,3:0:0:0:
400,168,216483,5,0,3:0:0:0:
426,164,216653,1,0,3:0:0:0:
372,255,216824,5,0,3:0:0:0:
398,251,216994,1,0,3:0:0:0:
404,338,217165,5,0,3:0:0:0:
430,334,217335,1,0,3:0:0:0:
301,373,217506,6,0,P|255:366|221:284,1,135.000005149842,4|0,0:1|3:0,0:0:0:0:
219,292,218017,1,0,3:0:0:0:
307,219,218187,2,0,P|314:265|308:297,1,67.5000025749208,0|0,3:0|3:0,0:0:0:0:
138,355,218528,2,0,P|131:309|137:277,1,67.5000025749208,0|0,3:0|3:0,0:3:0:0:
229,151,218869,5,0,3:0:0:0:
218,176,219040,1,0,3:0:0:0:
120,165,219210,5,0,3:0:0:0:
136,187,219381,1,0,3:0:0:0:
77,278,219551,5,0,3:0:0:0:
104,275,219722,1,0,3:0:0:0:
143,365,219892,5,0,3:0:0:0:
154,340,220063,1,0,3:0:0:0:
213,275,220233,5,4,3:1:0:0:
263,293,220403,1,0,1:0:0:0:
315,279,220574,1,0,1:0:0:0:
350,238,220744,1,0,1:0:0:0:
347,183,220915,1,0,1:0:0:0:
361,131,221085,1,0,1:0:0:0:
408,105,221256,1,0,1:0:0:0:
458,122,221426,1,0,1:0:0:0:
478,171,221596,5,0,1:0:0:0:
416,224,221767,1,0,1:0:0:0:
336,209,221937,1,0,1:0:0:0:
255,195,222108,1,0,1:0:0:0:
196,250,222278,5,0,1:0:0:0:
309,129,222449,1,0,1:0:0:0:
294,307,222619,1,0,1:0:0:0:
136,180,222790,1,0,1:0:0:0:
203,357,222960,1,4,3:0:0:0:
279,90,224324,5,8,0:0:0:0:
159,221,224494,2,0,L|27:231,1,112.5,2|2,3:2|3:2,0:0:0:0:
234,283,224835,1,8,0:0:0:0:
112,131,225006,2,0,L|-9:122,1,112.5,0|0,3:2|3:2,0:0:0:0:
264,199,225346,2,0,B|301:189|301:189|330:200|330:200|371:182|371:182|405:202|405:202|478:200,1,202.500007724762,8|0,0:0|0:0,0:0:0:0:
453,200,225687,5,6,3:0:0:0:
223,110,225858,2,0,B|156:67|156:67|179:260,1,225
190,317,226369,5,10,0:1:0:0:
71,262,226540,1,0,0:0:0:0:
252,191,226710,5,0,0:0:0:0:
89,255,226881,1,0,3:0:0:0:
272,377,227051,6,0,B|288:318|288:318|267:238,1,112.5,2|0,0:1|0:0,0:0:0:0:
154,87,227392,2,0,L|160:200,1,112.5,0|0,3:0|0:0,0:0:0:0:
162,319,227733,1,10,0:1:0:0:
8,251,227903,2,0,B|89:259|89:259|138:296|138:296|237:276,1,225,0|0,3:0|0:0,0:0:0:0:
360,183,228415,5,2,0:1:0:0:
360,183,228585,2,0,P|298:180|258:130,2,112.5
398,26,229096,2,0,P|350:54|337:115,1,112.5,10|0,0:1|0:0,0:0:0:0:
185,156,229437,2,0,P|196:210|250:241,1,112.5
219,60,229778,6,0,L|103:72,1,112.5,2|0,3:1|0:0,0:0:0:0:
314,190,230119,2,0,L|438:201,1,112.5,0|0,0:0|3:0,0:0:0:0:
426,199,230375,1,0,3:0:0:0:
426,199,230460,1,10,0:1:0:0:
189,308,230631,1,0,3:0:0:0:
189,308,230801,2,0,L|71:327,1,112.5,0|8,0:0|0:0,0:0:0:0:
262,197,231142,5,4,3:2:0:0:
285,377,231312,2,0,B|270:237|359:309|345:170,1,225
266,61,231824,5,10,0:1:0:0:
404,103,231994,1,0,0:0:0:0:
245,56,232165,5,0,0:0:0:0:
419,12,232335,1,0,3:0:0:0:
390,192,232506,6,0,L|265:179,1,112.5,2|0,0:1|0:0,0:0:0:0:
54,149,232846,2,0,B|112:161|112:161|176:126,1,112.5,0|0,3:0|0:0,0:0:0:0:
100,67,233187,1,10,0:1:0:0:
252,36,233358,1,0,3:0:0:0:
252,36,233528,2,0,L|234:240,1,168.75
184,280,233869,6,0,P|234:235|347:247,1,168.75,2|0,3:1|0:0,0:0:0:0:
331,237,234210,1,0,0:0:0:0:
281,323,234381,1,0,0:0:0:0:
422,287,234551,2,0,L|429:152,1,112.5,10|0,0:1|0:0,0:0:0:0:
435,50,234892,1,0,0:0:0:0:
435,50,235062,1,0,0:0:0:0:
261,165,235233,6,0,P|283:219|347:234,1,112.5,2|0,3:1|0:0,0:0:0:0:
339,88,235574,1,8,0:0:0:0:
166,132,235744,1,0,3:0:0:0:
149,136,235829,1,0,3:0:0:0:
132,141,235915,5,10,0:1:0:0:
248,40,236085,1,0,0:0:0:0:
98,15,236256,5,8,0:0:0:0:
258,126,236426,1,8,0:0:0:0:
75,211,236596,5,6,3:0:0:0:
176,165,236767,1,2,0:0:0:0:
55,126,236937,5,2,0:0:0:0:
194,247,237108,1,2,0:0:0:0:
8,311,237278,6,0,L|135:297,1,112.5,10|2,0:1|0:0,0:0:0:0:
259,183,237619,2,0,L|396:200,1,112.5,2|2,0:0|3:2,0:0:0:0:
110,205,237960,6,0,L|93:15,1,168.75,2|0,0:1|0:0,0:0:0:0:
114,14,238301,2,0,L|126:146,1,112.5,0|0,3:0|0:0,0:0:0:0:
19,173,238642,1,10,0:1:0:0:
19,173,238812,1,0,3:0:0:0:
219,108,238983,1,2,0:0:0:0:
185,238,239153,1,2,0:0:0:0:
293,163,239324,5,2,0:1:0:0:
105,192,239494,2,0,L|99:368,1,168.75
99,360,239835,1,2,0:0:0:0:
298,190,240006,2,0,P|239:185|179:225,1,112.5,10|2,0:1|0:0,0:0:0:0:
6,85,240346,2,0,P|65:81|115:119,1,112.5,2|2,0:0|0:0,0:0:0:0:
203,20,240687,6,0,L|210:152,1,112.5,2|0,3:1|0:0,0:0:0:0:
385,254,241028,2,0,L|398:130,1,112.5,2|2,0:0|0:0,0:0:0:0:
396,142,241284,1,2,0:0:0:0:
396,142,241369,1,10,0:1:0:0:
166,229,241540,1,0,3:0:0:0:
166,229,241710,2,0,L|173:361,1,112.5,0|8,0:0|0:0,0:0:0:0:
293,178,242051,5,4,3:2:0:0:
481,277,242221,2,0,B|401:290|401:290|348:260|348:260|261:277,1,225
231,102,242733,2,0,B|283:85|283:85|366:107,1,112.5,10|2,0:1|0:0,0:0:0:0:
179,243,243074,2,0,B|122:261|122:261|49:236,1,112.5,2|2,0:0|3:2,0:0:0:0:
17,10,243415,5,2,0:1:0:0:
112,151,243585,1,2,0:0:0:0:
25,25,243756,5,2,3:2:0:0:
122,166,243926,1,2,0:0:0:0:
12,167,244096,5,10,0:1:0:0:
148,63,244267,1,2,3:2:0:0:
190,233,244437,2,0,P|142:260|81:250,1,112.5,2|2,0:0|0:0,0:0:0:0:
86,253,244778,5,2,3:1:0:0:
254,157,244949,2,0,P|309:160|355:202,2,112.5,2|2|0,0:0|0:0|0:0,0:0:0:0:
352,85,245460,2,0,P|393:48|455:45,1,112.5,10|2,0:1|0:0,0:0:0:0:
495,158,245801,2,0,P|453:194|391:197,1,112.5,0|2,0:0|0:0,0:0:0:0:
96,236,246142,6,0,B|162:230|162:230|208:246|208:246|280:238,1,168.75,2|0,3:1|0:0,0:0:0:0:
286,234,246483,1,8,0:0:0:0:
220,148,246653,1,0,3:0:0:0:
218,132,246739,1,0,3:0:0:0:
216,116,246824,1,10,0:1:0:0:
151,308,246994,1,0,3:0:0:0:
113,148,247165,5,8,0:0:0:0:
272,237,247335,1,8,0:0:0:0:
86,368,247506,1,6,3:0:0:0:
256,192,247591,12,0,255687,0:0:0:0:
