osu file format v14

[General]
AudioFilename: audio.mp3
AudioLeadIn: 0
PreviewTime: 225537
Countdown: 0
SampleSet: Soft
StackLeniency: 0
Mode: 0
LetterboxInBreaks: 0
WidescreenStoryboard: 0

[Editor]
DistanceSpacing: 0.3
BeatDivisor: 12
GridSize: 4
TimelineZoom: 2

[Metadata]
Title:Radiant
TitleUnicode:Radiant
Artist:Mary Clare
ArtistUnicode:Mary Clare
Creator:-[Pino]-
Version:Defying Bitter and Dark
Source:明日方舟
Tags:arknights アークナイツ 塞壬唱片-MSR monster siren 长夜临光 near light nearl the radiant knight nearl_the_radiant_knight electronic english dnb drum and base muse dash dahkjdas
BeatmapID:3326282
BeatmapSetID:1629379

[Difficulty]
HPDrainRate:7.2
CircleSize:3.9
OverallDifficulty:9
ApproachRate:9.6
SliderMultiplier:1.8
SliderTickRate:1

[Events]
//Background and Video events
Video,0,"video_x264.mp4"
0,0,"nearl.jpg",0,0
//Break Periods
//Storyboard Layer 0 (Background)
//Storyboard Layer 1 (Fail)
//Storyboard Layer 2 (Pass)
//Storyboard Layer 3 (Foreground)
//Storyboard Layer 4 (Overlay)
//Storyboard Sound Samples

[TimingPoints]
7506,340.909090909091,4,2,1,50,1,0
7506,-400,4,2,1,50,0,0
14324,-400,4,2,1,50,0,0
15367,340.909090909091,4,2,1,50,1,0
15771,340.909090909091,4,2,1,50,1,0
15771,-400,4,2,1,50,0,0
17092,340.909090909091,4,2,1,50,1,0
17092,-400,4,2,1,50,0,0
18413,340.909090909091,4,2,1,50,1,0
18413,-400,4,2,1,50,0,0
21545,340.909090909091,4,2,1,50,1,0
21545,-400,4,2,1,50,0,0
23188,340.909090909091,4,2,1,50,1,0
23188,-400,4,2,1,50,0,0
23869,340.909090909091,4,2,1,50,1,0
23869,-400,4,2,1,50,0,0
24551,-250,4,2,1,50,0,0
25233,-133.333333333333,4,2,1,50,0,0
26596,-250,4,2,1,50,0,0
28301,-100,4,2,1,50,0,0
29324,-200,4,2,1,60,0,0
31028,-125,4,2,1,60,0,0
33074,-187.5,4,2,1,60,0,0
34778,-100,4,2,2,60,0,0
34863,-100,4,2,1,60,0,0
35290,-133.333333333333,4,2,1,60,0,0
35801,-100,4,2,1,60,0,0
36824,-133.333333333333,4,2,1,60,0,0
37165,-100,4,2,1,60,0,0
37506,-80,4,2,1,60,0,0
38017,-100,4,2,1,50,0,0
38528,-200,4,2,1,40,0,0
39210,-100,4,2,1,60,0,0
39551,-133.333333333333,4,2,1,60,0,0
40233,-133.333333333333,4,2,2,40,0,0
40318,-133.333333333333,4,2,1,60,0,0
41937,-100,4,2,1,60,0,0
42278,-133.333333333333,4,2,1,60,0,0
43301,-250,4,2,1,40,0,0
43386,-250,4,2,1,60,0,0
43869,-133.333333333333,4,2,1,60,0,0
44324,-100,4,2,1,60,0,0
45346,-133.333333333333,4,2,1,60,0,0
45687,-100,4,2,2,40,0,0
45773,-100,4,2,1,50,0,0
46198,-100,4,2,1,50,0,0
47050,-100,4,2,1,60,0,0
47562,-66.6666666666667,4,2,1,60,0,0
47988,-133.333333333333,4,2,1,60,0,0
48415,-133.333333333333,4,2,1,40,0,0
49778,-166.666666666667,4,2,1,35,0,0
51142,-133.333333333333,4,2,1,70,0,0
55233,-100,4,2,1,70,0,0
59324,-66.6666666666667,4,2,1,70,0,0
62051,-66.6666666666667,4,2,1,50,0,0
64778,-166.666666666667,4,2,1,50,0,0
66142,-100,4,2,1,50,0,0
67506,-100,4,2,1,40,0,0
67846,-100,4,2,1,45,0,0
68187,-100,4,2,1,50,0,0
68528,-100,4,2,1,55,0,0
68869,-100,4,2,1,60,0,0
69210,-100,4,2,1,65,0,0
69551,-100,4,2,1,70,0,0
69892,-100,4,2,1,65,0,0
70233,-200,4,2,1,50,0,0
71596,-200,4,2,1,80,0,0
72619,-1000,4,2,1,80,0,0
72959,-33.3333333333333,4,2,2,80,0,1
73045,-33.3333333333333,4,2,1,80,0,1
73471,-37.037037037037,4,2,1,80,0,1
73642,-200,4,2,1,80,0,1
73983,-41.6666666666667,4,2,1,80,0,1
74494,-47.6190476190476,4,2,1,80,0,1
74835,-200,4,2,1,80,0,1
75006,-50,4,2,1,80,0,1
75346,-55.5555555555556,4,2,1,80,0,1
75687,-66.6666666666667,4,2,1,80,0,1
76199,-55.5555555555556,4,2,1,80,0,1
76540,-200,4,2,1,80,0,1
76710,-55.5555555555556,4,2,1,80,0,1
77392,-50,4,2,1,80,0,1
77903,-100,4,2,1,80,0,1
78074,-50,4,2,1,80,0,1
78415,-33.3333333333333,4,2,1,80,0,1
78926,-37.037037037037,4,2,1,80,0,1
79096,-200,4,2,1,80,0,1
79437,-41.6666666666667,4,2,1,80,0,1
79906,-47.6190476190476,4,2,1,80,0,1
80290,-200,4,2,1,80,0,1
80460,-50,4,2,1,80,0,1
80801,-55.5555555555556,4,2,1,80,0,1
81653,-50,4,2,1,80,0,1
81994,-200,4,2,1,80,0,1
82165,-55.5555555555556,4,2,1,80,0,1
82846,-50,4,2,1,80,0,1
83017,-100,4,2,1,80,0,1
83187,-66.6666666666667,4,2,1,80,0,1
83358,-200,4,2,1,80,0,1
83528,-50,4,2,1,80,0,1
83869,-33.3333333333333,4,2,2,80,0,1
83954,-33.3333333333333,4,2,1,80,0,1
84210,-200,4,2,1,80,0,1
84381,-37.037037037037,4,2,1,80,0,1
84551,-200,4,2,1,80,0,1
84892,-41.6666666666667,4,2,1,80,0,1
85403,-47.6190476190476,4,2,1,80,0,1
85744,-200,4,2,1,80,0,1
85915,-50,4,2,1,80,0,1
86085,-200,4,2,1,80,0,1
86256,-55.5555555555556,4,2,1,80,0,1
86426,-41.6666666666667,4,2,1,80,0,1
86596,-55.5555555555556,4,2,1,80,0,1
87449,-200,4,2,1,80,0,1
87619,-55.5555555555556,4,2,1,80,0,1
88301,-50,4,2,1,80,0,1
88812,-100,4,2,1,80,0,1
88983,-50,4,2,1,80,0,1
89324,-33.3333333333333,4,2,1,80,0,1
89835,-37.037037037037,4,2,1,80,0,1
90346,-41.6666666666667,4,2,1,80,0,1
90858,-47.6190476190476,4,2,1,80,0,1
91369,-66.6666666666667,4,2,1,80,0,1
91540,-55.5555555555556,4,2,1,80,0,1
91710,-66.6666666666667,4,2,1,80,0,1
92050,-100,4,2,1,60,0,0
94437,-50,4,2,1,60,0,0
94778,-83.3333333333333,4,2,1,70,0,0
95119,-66.6666666666667,4,2,1,70,0,0
95460,-200,4,2,1,70,0,0
95801,-66.6666666666667,4,2,1,70,0,0
96142,-200,4,2,1,70,0,0
96483,-66.6666666666667,4,2,1,70,0,0
96994,-100,4,2,1,70,0,0
97165,-50,4,2,1,70,0,0
97676,-100,4,2,1,70,0,0
97846,-66.6666666666667,4,2,1,70,0,0
98187,-200,4,2,1,70,0,0
98528,-66.6666666666667,4,2,1,70,0,0
98869,-200,4,2,1,70,0,0
99210,-37.037037037037,4,2,1,70,0,0
99551,-200,4,2,1,70,0,0
99892,-66.6666666666667,4,2,1,70,0,0
101085,-200,4,2,1,70,0,0
101256,-66.6666666666667,4,2,1,70,0,0
101426,-100,4,2,1,70,0,0
102108,-55.5555555555556,4,2,1,70,0,0
102449,-66.6666666666667,4,2,1,70,0,0
105006,-100,4,2,1,60,0,0
105346,-66.6666666666667,4,2,1,70,0,0
105687,-50,4,2,1,70,0,0
106028,-66.6666666666667,4,2,1,70,0,0
106369,-200,4,2,1,70,0,0
106710,-66.6666666666667,4,2,1,70,0,0
107051,-200,4,2,1,70,0,0
107221,-66.6666666666667,4,2,1,70,0,0
107903,-100,4,2,1,70,0,0
108074,-66.6666666666667,4,2,1,70,0,0
108585,-100,4,2,1,70,0,0
108756,-66.6666666666667,4,2,1,70,0,0
109096,-200,4,2,1,70,0,0
109437,-66.6666666666667,4,2,1,70,0,0
109778,-200,4,2,1,70,0,0
110460,-66.6666666666667,4,2,1,70,0,0
110631,-100,4,2,1,70,0,0
110801,-66.6666666666667,4,2,1,70,0,0
111142,-55.5555555555556,4,2,1,70,0,0
111653,-100,4,2,1,70,0,0
112165,-66.6666666666667,4,2,1,70,0,0
112506,-100,4,2,1,70,0,0
112846,-66.6666666666667,4,2,1,70,0,0
113017,-100,4,2,1,70,0,0
113528,-66.6666666666667,4,2,1,70,0,0
113869,-66.6666666666667,4,2,1,60,0,0
114210,-333.333333333333,4,2,1,60,0,0
116596,-333.333333333333,4,2,1,70,0,0
117960,-133.333333333333,4,2,1,70,0,0
120687,-100,4,2,1,70,0,0
124778,-66.6666666666667,4,2,1,70,0,0
127506,-66.6666666666667,4,2,1,50,0,0
130233,-166.666666666667,4,2,1,50,0,0
131596,-100,4,2,1,50,0,0
132960,-100,4,2,1,40,0,0
133301,-100,4,2,1,45,0,0
133642,-100,4,2,1,50,0,0
133983,-100,4,2,1,55,0,0
134324,-100,4,2,1,60,0,0
134665,-100,4,2,1,65,0,0
135006,-100,4,2,1,70,0,0
135346,-100,4,2,1,65,0,0
135687,-200,4,2,1,50,0,0
137051,-200,4,2,1,70,0,0
138074,-1000,4,2,1,70,0,0
138414,-33.3333333333333,4,2,2,80,0,1
138500,-33.3333333333333,4,2,1,80,0,1
138926,-37.037037037037,4,2,1,80,0,1
139096,-200,4,2,1,80,0,1
139437,-41.6666666666667,4,2,1,80,0,1
139949,-47.6190476190476,4,2,1,80,0,1
140290,-200,4,2,1,80,0,1
140460,-50,4,2,1,80,0,1
140801,-55.5555555555556,4,2,1,80,0,1
141142,-66.6666666666667,4,2,1,80,0,1
141653,-55.5555555555556,4,2,1,80,0,1
141994,-200,4,2,1,80,0,1
142165,-55.5555555555556,4,2,1,80,0,1
142846,-50,4,2,1,80,0,1
143358,-100,4,2,1,80,0,1
143528,-50,4,2,1,80,0,1
143869,-33.3333333333333,4,2,1,80,0,1
144381,-37.037037037037,4,2,1,80,0,1
144551,-200,4,2,1,80,0,1
144892,-41.6666666666667,4,2,1,80,0,1
145403,-47.6190476190476,4,2,1,80,0,1
145744,-200,4,2,1,80,0,1
145915,-50,4,2,1,80,0,1
146256,-55.5555555555556,4,2,1,80,0,1
147108,-50,4,2,1,80,0,1
147449,-200,4,2,1,80,0,1
147619,-55.5555555555556,4,2,1,80,0,1
148301,-50,4,2,1,80,0,1
148471,-100,4,2,1,80,0,1
148642,-66.6666666666667,4,2,1,80,0,1
148812,-200,4,2,1,80,0,1
148983,-50,4,2,1,80,0,1
149324,-33.3333333333333,4,2,2,80,0,1
149409,-33.3333333333333,4,2,1,80,0,1
149665,-200,4,2,1,80,0,1
149835,-37.037037037037,4,2,1,80,0,1
150006,-200,4,2,1,80,0,1
150346,-41.6666666666667,4,2,1,80,0,1
150858,-47.6190476190476,4,2,1,80,0,1
151199,-200,4,2,1,80,0,1
151369,-50,4,2,1,80,0,1
151540,-200,4,2,1,80,0,1
151710,-55.5555555555556,4,2,1,80,0,1
151881,-41.6666666666667,4,2,1,80,0,1
152051,-55.5555555555556,4,2,1,80,0,1
152903,-200,4,2,1,80,0,1
153074,-55.5555555555556,4,2,1,80,0,1
153756,-50,4,2,1,80,0,1
154267,-100,4,2,1,80,0,1
154437,-50,4,2,1,80,0,1
154778,-33.3333333333333,4,2,1,80,0,1
155290,-37.037037037037,4,2,1,80,0,1
155801,-41.6666666666667,4,2,1,80,0,1
156312,-47.6190476190476,4,2,1,80,0,1
156824,-66.6666666666667,4,2,1,80,0,1
156994,-55.5555555555556,4,2,1,80,0,1
157165,-66.6666666666667,4,2,1,80,0,1
157505,-100,4,2,1,60,0,0
159892,-50,4,2,1,60,0,0
160403,-100,4,2,1,70,0,0
160574,-66.6666666666667,4,2,1,70,0,0
160915,-200,4,2,1,70,0,0
161256,-66.6666666666667,4,2,1,70,0,0
161597,-200,4,2,1,70,0,0
161937,-66.6666666666667,4,2,1,70,0,0
162449,-100,4,2,1,70,0,0
162619,-50,4,2,1,70,0,0
163131,-100,4,2,1,70,0,0
163301,-66.6666666666667,4,2,1,70,0,0
163642,-200,4,2,1,70,0,0
163983,-66.6666666666667,4,2,1,70,0,0
164324,-200,4,2,1,70,0,0
164665,-66.6666666666667,4,2,1,70,0,0
164835,-50,4,2,1,70,0,0
165176,-200,4,2,1,70,0,0
165346,-37.037037037037,4,2,1,70,0,0
165687,-41.6666666666667,4,2,1,70,0,0
166028,-66.6666666666667,4,2,1,70,0,0
166540,-200,4,2,1,70,0,0
166710,-66.6666666666667,4,2,1,70,0,0
167051,-55.5555555555556,4,2,1,70,0,0
167392,-66.6666666666667,4,2,1,70,0,0
167562,-50,4,2,1,70,0,0
167903,-200,4,2,1,70,0,0
168074,-66.6666666666667,4,2,1,70,0,0
169267,-200,4,2,1,70,0,0
169437,-66.6666666666667,4,2,1,70,0,0
170290,-200,4,2,1,70,0,0
170460,-100,4,2,1,70,0,0
170801,-66.6666666666667,4,2,1,70,0,0
171142,-50,4,2,1,70,0,0
171483,-66.6666666666667,4,2,1,70,0,0
171824,-200,4,2,1,70,0,0
172165,-66.6666666666667,4,2,1,70,0,0
172506,-200,4,2,1,70,0,0
172846,-66.6666666666667,4,2,1,70,0,0
173358,-100,4,2,1,70,0,0
173528,-50,4,2,1,70,0,0
174040,-100,4,2,1,70,0,0
174210,-66.6666666666667,4,2,1,70,0,0
174551,-200,4,2,1,70,0,0
174892,-66.6666666666667,4,2,1,70,0,0
175744,-50,4,2,1,70,0,0
176085,-200,4,2,1,70,0,0
176256,-66.6666666666667,4,2,1,70,0,0
176596,-41.6666666666667,4,2,1,70,0,0
176937,-66.6666666666667,4,2,1,70,0,0
177108,-100,4,2,1,70,0,0
177619,-66.6666666666667,4,2,1,70,0,0
177960,-100,4,2,1,70,0,0
178301,-66.6666666666667,4,2,1,70,0,0
178471,-100,4,2,1,70,0,0
178983,-66.6666666666667,4,2,1,70,0,0
179665,-66.6666666666667,4,2,1,60,0,0
181881,-333.333333333333,4,2,1,70,0,0
182051,-333.333333333333,4,2,1,50,0,0
182733,-200,4,2,1,40,0,0
183415,-116.959064327485,4,2,1,50,0,0
186824,-116.959064327485,4,2,1,40,0,0
187506,-666.666666666667,4,2,1,50,0,0
190233,-333.333333333333,4,2,1,50,0,0
191256,-181.818181818182,4,2,1,50,0,0
192960,-116.279069767442,4,2,2,50,0,0
193045,-116.279069767442,4,2,1,50,0,0
198415,-666.666666666667,4,2,1,50,0,0
201142,-333.333333333333,4,2,1,50,0,0
201824,-222.222222222222,4,2,1,50,0,0
202506,-333.333333333333,4,2,1,50,0,0
203187,-200,4,2,1,50,0,0
203528,-133.333333333333,4,2,1,60,0,0
203869,-100,4,2,1,45,0,0
203954,-100,4,2,1,60,0,0
206596,-133.333333333333,4,2,1,45,0,0
206681,-133.333333333333,4,2,1,60,0,0
209323,-133.333333333333,4,2,1,45,0,0
209408,-133.333333333333,4,2,1,60,0,0
210006,-200,4,2,1,60,0,0
210176,-200,4,2,1,40,0,0
210346,-200,4,2,1,60,0,0
212050,-200,4,2,1,45,0,0
212136,-200,4,2,1,60,0,0
212562,-100,4,2,1,60,0,0
213244,-133.333333333333,4,2,1,60,0,0
213585,-200,4,2,1,60,0,0
213926,-100,4,2,1,60,0,0
214267,-200,4,2,1,60,0,0
214437,-200,4,2,1,60,0,0
214480,-200,4,2,1,5,0,0
214608,-200,4,2,1,60,0,0
214651,-200,4,2,1,5,0,0
214778,-200,4,2,1,40,0,0
214863,-200,4,2,1,50,0,0
214949,-200,4,2,1,60,0,0
217505,-200,4,2,1,45,0,0
217590,-200,4,2,1,60,0,0
220233,-200,4,2,1,50,0,0
220574,-200,4,2,1,55,0,0
220915,-200,4,2,1,60,0,0
221256,-200,4,2,1,65,0,0
221596,-200,4,2,1,70,0,0
221937,-200,4,2,1,75,0,0
222278,-200,4,2,1,80,0,0
222619,-200,4,2,1,75,0,0
222960,-133.333333333333,4,2,1,50,0,0
224324,-200,4,2,1,70,0,0
225346,-1000,4,2,1,70,0,0
225687,-100,4,2,2,85,0,1
225773,-100,4,2,1,85,0,1
225858,-400,4,2,1,85,0,1
236596,-400,4,2,2,85,0,1
236767,-400,4,2,1,85,0,1
236937,-200,4,2,1,85,0,1
237101,-133.333333333333,4,2,1,85,0,1
237278,-100,4,2,1,85,0,1
237445,-133.333333333333,4,2,1,85,0,1
237619,-200,4,2,1,85,0,1
237790,-400,4,2,1,85,0,1
237960,-100,4,2,1,85,0,1
241369,-66.6666666666667,4,2,1,85,0,1
241540,-100,4,2,1,85,0,1
241881,-66.6666666666667,4,2,1,85,0,1
244778,-133.333333333333,4,2,1,85,0,1
246142,-200,4,2,1,85,0,1
246483,-80,4,2,1,85,0,1
247165,-66.6666666666667,4,2,1,85,0,1
247505,-307.692307692308,4,2,2,70,0,0
247591,-307.692307692308,4,2,1,70,0,0
252960,-307.692307692308,4,2,1,70,0,0
253642,-307.692307692308,4,2,1,55,0,0
254324,-307.692307692308,4,2,1,40,0,0
255006,-307.692307692308,4,2,1,25,0,0
255687,-307.692307692308,4,2,1,10,0,0

[Colours]
Combo1 : 255,237,176
Combo2 : 255,242,0

[HitObjects]
426,233,7506,5,4,3:0:0:0:
434,233,8187,6,0,P|454:240|472:261,1,45
353,278,8869,2,0,P|356:299|347:325,1,45
358,195,9551,5,0,0:0:0:0:
438,384,9892,2,0,P|440:359|446:340,1,45
353,186,10574,1,0,0:0:0:0:
383,292,10915,2,0,P|365:310|349:321,1,45
192,252,11596,2,0,P|234:268|273:292,1,90
131,190,12619,5,0,0:0:0:0:
93,373,12960,1,0,0:0:0:0:
102,374,13642,6,0,P|122:366|140:345,1,45
113,272,14324,2,0,P|71:287|36:328,1,90
192,252,15367,1,0,0:0:0:0:
219,373,15771,6,0,L|223:328,1,45
232,367,16452,2,0,L|236:322,1,45
297,247,17092,2,0,P|302:270|320:287,2,45
353,186,18114,1,0,0:0:0:0:
376,350,18413,6,0,P|382:328|399:314,1,45
477,297,19094,2,0,P|498:303|512:320,1,45
453,374,19776,2,0,L|432:279,1,90
377,215,20799,2,0,P|370:236|353:250,1,45
301,190,21545,1,0,0:0:0:0:
399,314,21885,1,0,0:0:0:0:
263,384,22226,2,0,P|272:330|293:299,1,90
237,243,23188,6,0,L|209:251,1,22.5
119,276,23528,1,0,0:0:0:0:
237,243,23869,6,0,P|209:270|194:306,1,78.75
196,327,24551,2,0,P|152:281|89:281,1,126
91,360,25233,6,0,P|78:273|48:188,1,168.750006437302
0,114,25915,5,0,0:0:0:0:
51,196,26170,5,0,0:0:0:0:
130,149,26426,5,0,0:0:0:0:
142,178,26596,2,0,B|191:139|264:166|258:224|257:228|251:283|325:312|370:277,1,288
492,322,28131,1,0,0:0:0:0:
436,384,28301,6,0,P|446:324|474:240,1,135,2|0,0:0|0:0,0:0:0:0:
415,153,28642,2,0,P|399:212|335:208,1,135,2|0,0:0|0:0,0:0:0:0:
299,135,28983,5,2,0:0:0:0:
498,180,29153,1,2,0:0:0:0:
415,153,29324,6,0,B|389:84|403:17|403:17|387:84|328:136,1,270,4|0,3:0|0:0,0:0:0:0:
11,98,31028,2,0,P|31:66|73:85,1,72,2|0,0:0|0:0,0:0:0:0:
184,231,31369,2,0,P|145:160|135:94,1,144,2|2,0:0|0:0,0:0:0:0:
213,14,31881,2,0,P|171:83|118:124,1,144,2|2,0:0|0:0,0:0:0:0:
11,98,32392,2,0,P|91:99|154:124,1,144,2|0,0:0|0:0,0:0:0:0:
233,133,32847,6,0,P|240:164|241:183,1,48,2|0,0:0|0:0,0:0:0:0:
164,202,33074,6,0,B|213:163|286:190|280:248|279:252|273:307|347:336|392:301,1,288,2|0,0:0|0:0,0:0:0:0:
364,208,34437,5,0,0:0:0:0:
360,229,34608,1,2,0:0:0:0:
417,384,34778,6,0,P|435:268|471:175,1,180,6|0,3:2|0:0,0:0:0:0:
387,128,35290,2,0,B|362:152|374:191|374:191|350:160|312:166,1,135.000005149842,2|0,0:0|0:0,0:0:0:0:
258,82,35801,6,0,B|378:43|479:135|512:181|503:253|451:267|455:198,1,360,2|0,0:0|0:0,0:0:0:0:
387,128,36824,2,0,P|386:82|426:46,1,101.250003862381
502,127,37165,2,0,P|471:161|391:135,1,135,2|0,0:0|0:0,0:0:0:0:
315,165,37506,6,0,B|266:126|193:153|199:211|200:215|206:270|132:299|87:264,1,281.25,2|0,0:0|0:0,0:0:0:0:
20,252,38017,2,0,B|-19:301|28:336|28:336|41:346|41:346|57:342|57:342|116:327|100:269,1,225,2|0,0:0|0:0,0:0:0:0:
122,191,38528,6,0,B|100:113|100:113|97:181,1,135.000005149842,2|0,0:0|0:0,0:0:0:0:
20,93,39210,2,0,P|78:120|128:80,1,135,2|0,0:0|0:0,0:0:0:0:
50,0,39551,2,0,P|12:32|12:81,1,101.250003862381,2|0,0:0|0:0,0:0:0:0:
122,191,39892,5,2,0:0:0:0:
194,33,40062,2,0,L|199:-8,1,33.7500012874604,2|0,0:0|0:0,0:0:0:0:
204,135,40233,6,0,B|225:178|225:178|442:135|442:135|425:237|425:237|406:203,1,405.000015449525,6|0,3:0|0:0,0:0:0:0:
379,129,41937,6,0,P|326:92|335:28,1,135,2|0,0:0|0:0,0:0:0:0:
444,56,42278,2,0,P|434:104|392:129,1,101.250003862381,2|0,0:0|0:0,0:0:0:0:
334,29,42619,5,2,0:0:0:0:
425,237,42790,2,0,P|435:157|475:64,1,168.750006437302,2|0,0:0|0:0,0:0:0:0:
444,56,43301,6,0,P|428:36|427:4,1,54,2|0,0:0|0:0,0:0:0:0:
512,0,43642,5,2,0:0:0:0:
512,186,43869,6,0,P|477:248|416:225,1,135.000005149842,2|0,0:0|0:0,0:0:0:0:
345,202,44324,6,0,B|310:164|267:158|216:190|201:261|267:304|317:293|320:291|321:246|388:278|417:320|373:374,1,360,2|0,0:0|0:0,0:0:0:0:
436,244,45346,6,0,P|448:228|438:244,1,67.5000025749208
375,384,45687,6,0,P|264:352|198:339,1,180,6|0,3:3|0:0,0:0:0:0:
43,287,46199,2,0,P|131:268|217:242,1,180,2|0,0:0|0:0,0:0:0:0:
334,202,46710,2,0,B|292:228|275:279|307:309|339:283|311:259,1,135,2|0,0:0|0:0,0:0:0:0:
375,384,47051,6,0,P|395:306|472:175,1,225,2|0,0:0|0:0,0:0:0:0:
512,186,47562,2,2,B|544:134|494:74|439:104|435:107|384:132|336:73|373:17,1,270.000010299683,2|0,0:0|0:0,0:0:0:0:
453,76,48074,6,0,L|437:145,1,67.5000025749208
304,126,48415,6,0,P|264:115|194:167,1,135.000005149842,2|0,0:0|0:0,0:0:0:0:
224,243,48926,2,0,P|263:253|333:201,1,135.000005149842,2|0,0:0|0:0,0:0:0:0:
304,126,49437,6,0,P|288:98|223:89,1,101.250003862381,2|0,0:0|0:0,0:0:0:0:
194,166,49778,6,0,B|172:203|186:235|223:243|223:243|247:204|231:94|118:72,1,323.999990112305,2|0,0:0|0:0,0:0:0:0:
109,306,51142,5,0,3:0:0:0:
118,329,51312,1,0,0:0:0:0:
211,350,51483,5,0,3:0:0:0:
205,366,51653,1,0,3:0:0:0:
223,243,51824,5,8,0:0:0:0:
306,344,51994,1,0,0:0:0:0:
359,288,52165,5,0,3:0:0:0:
307,357,52335,1,0,3:0:0:0:
448,252,52506,6,0,P|439:293|436:320,1,67.5000025749208,0|0,3:0|3:0,0:0:0:0:
320,232,52846,2,0,P|343:268|360:289,1,67.5000025749208,0|0,3:0|3:0,0:0:0:0:
391,167,53187,5,8,0:0:0:0:
508,384,53358,1,0,3:0:0:0:
510,366,53528,1,0,3:0:0:0:
512,348,53699,1,0,3:0:0:0:
412,250,53869,6,0,P|372:270|354:294,1,67.5000025749208,0|0,3:0|0:0,0:0:0:0:
452,320,54210,2,0,P|489:343|518:347,1,67.5000025749208,0|0,3:0|3:0,0:0:0:0:
391,167,54551,5,8,0:0:0:0:
503,255,54721,1,0,0:0:0:0:
471,180,54892,5,0,3:0:0:0:
452,320,55062,1,0,3:0:0:0:
457,91,55233,6,0,L|473:197,1,90,2|0,3:2|3:2,0:2:0:0:
302,25,55574,2,0,L|318:131,1,90,2|0,3:2|3:2,0:2:0:0:
223,243,55915,6,0,L|207:137,1,90,10|0,0:2|0:2,0:2:0:0:
20,201,56256,2,0,L|4:95,1,90,2|0,3:2|3:3,0:3:0:0:
109,306,56597,5,0,3:0:0:0:
118,329,56766,1,0,0:0:0:0:
211,350,56938,5,0,3:0:0:0:
205,366,57108,1,0,3:0:0:0:
223,243,57278,5,8,0:0:0:0:
306,344,57448,1,0,0:0:0:0:
307,357,57619,5,0,3:0:0:0:
359,288,57789,1,0,3:0:0:0:
398,365,57960,5,0,3:0:0:0:
435,347,58131,1,0,3:0:0:0:
503,313,58301,1,0,3:0:0:0:
431,246,58471,1,0,3:0:0:0:
343,163,58642,1,8,0:0:0:0:
445,258,58812,6,0,L|460:160,2,90,0|8|8,0:0|3:0|3:0,0:0:0:0:
475,80,59324,6,0,P|424:92|350:152,1,135.000005149842,2|0,3:2|3:2,3:2:0:0:
459,169,59665,1,0,3:2:0:0:
337,39,59835,6,0,P|292:11|197:1,1,135.000005149842,12|0,3:2|3:2,3:2:0:0:
358,140,60176,1,0,3:2:0:0:
162,163,60346,6,0,P|213:151|287:91,1,135.000005149842,12|0,3:2|3:2,3:2:0:0:
337,39,60687,1,0,3:2:0:0:
96,113,60858,6,0,P|44:129|24:213,1,135.000005149842,12|0,3:2|3:2,3:2:0:0:
107,232,61199,1,0,3:2:0:0:
175,75,61369,5,12,3:2:0:0:
79,314,61540,1,0,3:2:0:0:
33,0,61710,5,12,3:2:0:0:
121,241,61881,1,0,3:2:0:0:
162,163,62051,5,4,3:2:0:0:
164,173,62221,1,0,3:2:0:0:
200,271,62392,5,0,3:2:0:0:
202,261,62562,1,0,3:2:0:0:
284,250,62733,5,0,3:2:0:0:
255,331,62903,1,0,3:2:0:0:
252,339,63074,5,0,3:2:0:0:
324,365,63244,1,0,3:2:0:0:
379,287,63415,5,0,3:2:0:0:
382,300,63585,1,0,3:2:0:0:
424,384,63756,5,0,3:2:0:0:
427,371,63926,1,0,3:2:0:0:
509,319,64096,5,0,3:2:0:0:
499,328,64266,1,0,3:2:0:0:
424,384,64437,5,0,3:2:0:0:
427,371,64607,1,0,3:2:0:0:
486,215,64778,6,0,P|460:244|453:267,1,53.9999983520508,8|0,3:2|3:2,3:2:0:0:
382,300,65119,2,0,P|370:275|350:257,1,53.9999983520508,0|0,3:2|3:2,3:2:0:0:
367,115,65460,5,0,3:2:0:0:
400,190,65631,1,0,3:2:0:0:
373,112,65801,5,0,3:2:0:0:
393,192,65972,1,0,3:2:0:0:
476,65,66142,6,0,B|453:47|419:59|422:86|422:88|425:113|391:126|370:110,1,135,2|0,3:2|0:0,0:0:0:0:
314,169,66483,2,0,B|285:173|262:145|278:123|279:122|294:101|271:73|245:76,1,135,2|0,3:2|0:0,0:0:0:0:
176,31,66824,6,0,P|146:97|138:166,1,135,2|0,3:2|0:0,0:0:0:0:
39,131,67165,2,0,P|69:65|77:-4,1,135,2|0,3:2|0:0,0:0:0:0:
71,206,67506,5,4,1:3:0:0:
91,230,67676,1,0,1:0:0:0:
128,245,67846,1,0,1:0:0:0:
176,236,68017,1,0,1:0:0:0:
213,194,68187,1,0,1:0:0:0:
248,139,68358,1,0,1:0:0:0:
316,119,68528,1,0,1:0:0:0:
379,165,68699,1,0,1:0:0:0:
305,216,68869,5,0,1:0:0:0:
450,117,69040,1,0,1:0:0:0:
501,189,69210,5,0,1:0:0:0:
260,56,69381,1,0,1:0:0:0:
320,1,69551,5,0,1:0:0:0:
247,273,69721,1,0,1:0:0:0:
33,143,69892,5,0,1:0:0:0:
305,216,70062,1,0,1:0:0:0:
256,374,70233,6,0,L|261:343,1,22.5,4|0,3:3|0:0,0:0:0:0:
107,44,71596,5,8,0:0:0:0:
170,220,71767,1,0,3:0:0:0:
176,236,71937,1,0,3:0:0:0:
196,104,72108,5,8,0:0:0:0:
51,310,72279,1,0,3:0:0:0:
38,328,72449,1,0,3:0:0:0:
180,248,72619,6,0,L|175:235,1,13.5,8|0,0:0|0:0,0:0:0:0:
292,282,72960,6,0,B|208:344|208:344|238:161,1,270.000010299683,6|2,3:0|0:1,0:0:0:0:
184,17,73301,1,8,0:0:0:0:
367,176,73471,2,0,L|247:201,1,121.500000463486,2|0,0:1|0:0,0:0:0:0:
180,248,73642,6,0,L|171:223,1,22.5,2|0,0:1|0:0,0:0:0:0:
236,181,73812,1,0,3:0:0:0:
292,282,73983,2,0,L|40:237,1,215.999993408203,10|2,0:1|0:1,0:0:0:0:
115,162,74324,5,0,3:0:0:0:
148,318,74494,2,0,L|175:212,1,94.499997116089,2|0,0:1|0:0,0:0:0:0:
112,146,74665,5,8,0:0:0:0:
79,244,74835,2,0,L|53:258,1,22.5,2|0,0:1|0:0,0:0:0:0:
34,179,75006,6,0,L|-2:-5,1,180,2|0,0:1|3:0,0:0:0:0:
208,144,75346,2,0,L|392:180,1,161.999995056153,10|2,0:1|0:0,0:0:0:0:
390,102,75602,1,2,0:0:0:0:
366,175,75687,6,0,B|425:260|425:260|441:150,1,202.500007724762,0|0,3:0|0:0,0:0:0:0:
479,89,76028,2,0,B|478:50|478:50|457:101,1,67.5000025749208,8|0,0:0|0:0,0:0:0:0:
439,162,76199,6,2,B|396:127|332:151|337:202|338:205|343:253|278:279|239:248,1,242.999992584229,2|0,0:0|0:0,0:1:0:0:
265,166,76540,6,0,L|259:144,1,22.5,0|0,3:0|0:0,0:0:0:0:
253,256,76710,6,2,B|296:221|360:245|355:296|354:299|349:347|414:373|453:342,1,242.999992584229,10|0,0:0|0:0,0:1:0:0:
512,384,77051,5,0,0:0:0:0:
444,269,77221,2,0,P|444:240|434:268,1,80.9999975280763,2|0,0:0|0:0,0:0:0:0:
284,333,77392,2,0,P|142:361|84:383,1,180,10|2,0:0|0:0,0:0:0:0:
50,301,77648,1,2,0:0:0:0:
51,315,77733,6,0,P|81:346|136:336,1,90,2|0,0:0|0:0,0:0:0:0:
136,249,77903,2,0,P|121:233|93:238,1,45,0|0,3:0|0:0,0:0:0:0:
213,384,78074,6,0,L|171:176,1,180,8|0,0:0|0:0,0:0:0:0:
156,91,78329,1,2,0:0:0:0:
93,34,78415,6,0,B|62:108|62:108|233:134|233:134|241:178,1,270.000010299683,4|2,3:2|0:1,0:0:0:0:
348,0,78756,1,8,0:0:0:0:
313,244,78926,2,0,L|330:117,1,121.500000463486,2|0,0:1|0:0,0:0:0:0:
276,56,79096,6,0,L|268:28,1,22.5,2|0,0:1|0:0,0:0:0:0:
330,124,79267,1,0,3:0:0:0:
449,115,79437,2,0,L|236:151,1,215.999993408203,10|2,0:1|0:1,0:0:0:0:
270,35,79778,5,0,3:0:0:0:
404,209,79949,2,0,L|493:272,1,94.499997116089,2|0,0:1|0:0,0:0:0:0:
449,115,80119,5,8,0:0:0:0:
417,234,80290,2,0,L|410:263,1,22.5,2|0,0:1|0:0,0:0:0:0:
490,214,80460,6,0,L|277:250,1,180,2|0,0:1|3:0,0:0:0:0:
165,369,80801,2,0,L|179:183,1,161.999995056153,10|2,0:1|0:0,0:0:0:0:
114,155,81057,1,2,0:0:0:0:
178,208,81142,6,0,B|200:153|200:153|-2:218,1,242.999992584229,2|0,3:2|0:0,0:0:0:0:
31,118,81483,2,0,B|-2:92|-2:92|22:141,1,80.9999975280763,8|0,0:0|0:0,0:0:0:0:
25,209,81653,6,2,B|83:229|140:179|116:128|114:125|90:77|148:25|201:43,1,270,2|0,0:0|0:0,0:1:0:0:
267,73,81994,6,0,L|272:44,1,22.5,0|0,3:0|0:0,0:0:0:0:
183,40,82165,6,2,B|234:31|275:81|247:120|245:122|218:159|259:210|305:204,1,242.999992584229,10|0,0:0|0:0,0:1:0:0:
331,126,82506,5,0,3:0:0:0:
372,251,82676,2,0,P|372:276|376:249,1,80.9999975280763,2|0,0:0|0:0,0:0:0:0:
469,114,82846,6,0,P|410:155|391:200,1,90,8|0,0:0|0:0,0:0:0:0:
288,283,83017,2,0,L|297:333,1,45,0|0,3:0|0:0,0:0:0:0:
331,126,83187,6,0,P|347:74|338:39,1,67.5000025749208,2|0,0:0|0:0,0:0:0:0:
366,381,83358,2,0,L|370:356,1,22.5,0|0,3:0|0:0,0:0:0:0:
471,261,83528,6,0,P|390:218|288:204,1,180,8|2,0:0|0:0,0:0:0:0:
132,202,83784,1,2,0:0:0:0:
55,184,83869,6,0,B|0:166|0:252|68:321|238:287|281:53|113:-1|86:73|132:101,1,405.000015449525,6|0,3:0|0:0,0:0:0:0:
183,40,84210,6,0,L|186:11,1,22.5,8|0,0:0|0:0,0:0:0:0:
207,264,84381,6,0,L|227:392,1,121.500000463486,2|0,0:1|0:0,0:0:0:0:
288,283,84551,6,0,L|293:252,1,22.5,2|0,0:1|0:0,0:0:0:0:
132,202,84721,1,0,3:0:0:0:
79,337,84892,2,0,L|312:276,1,215.999993408203,10|2,0:1|0:1,0:0:0:0:
331,126,85233,5,0,3:0:0:0:
366,381,85403,2,0,L|387:263,1,94.499997116089,2|0,0:1|0:0,0:0:0:0:
326,113,85574,5,8,0:0:0:0:
471,261,85744,2,0,L|461:233,1,22.5,2|0,0:1|0:0,0:0:0:0:
315,37,85915,6,0,L|336:155,1,90,2|0,0:1|0:0,0:0:0:0:
388,204,86085,2,0,L|395:182,1,22.5,0|0,3:0|0:0,0:0:0:0:
478,57,86256,6,0,P|419:92|400:130,1,80.9999975280763,10|0,0:1|0:0,0:0:0:0:
306,242,86426,6,0,P|270:202|183:189,1,107.999996704102,2|2,0:1|0:0,0:0:0:0:
113,191,86596,6,0,P|65:212|130:200,1,242.999992584229,0|0,3:0|0:0,0:0:0:0:
173,115,86937,2,0,B|148:82|148:82|159:155,1,80.9999975280763,8|0,0:0|0:0,0:0:0:0:
31,107,87108,6,2,B|71:138|131:113|125:66|124:63|117:18|177:-11|218:19,1,242.999992584229,2|0,0:0|0:0,0:1:0:0:
265,106,87449,6,0,L|271:77,1,22.5,0|0,3:0|0:0,0:0:0:0:
31,106,87619,6,2,B|66:76|128:101|124:147|124:150|121:197|182:218|221:184,1,242.999992584229,8|0,0:0|0:0,0:1:0:0:
265,106,87960,5,0,3:0:0:0:
297,244,88131,2,0,P|310:270|306:242,1,80.9999975280763,2|0,0:0|0:0,0:0:0:0:
219,185,88301,6,0,P|187:268|168:385,1,180,8|2,0:0|0:0,0:0:0:0:
148,280,88557,1,2,0:0:0:0:
139,270,88642,6,0,P|103:268|53:317,1,90,2|0,0:0|0:0,0:0:0:0:
259,344,88812,2,0,P|267:359|300:368,1,45,0|0,3:0|0:0,0:0:0:0:
376,222,88983,6,0,B|331:209|313:160|313:160|322:212|296:246,1,180,8|2,0:0|0:0,0:0:0:0:
204,124,89238,1,2,0:0:0:0:
257,65,89324,6,0,B|219:184|219:184|514:103,1,405.000015449525,4|0,3:2|0:0,0:0:0:0:
334,21,89665,1,8,0:0:0:0:
297,244,89835,6,0,B|403:278|403:278|331:12,1,364.500001390457,2|0,3:1|0:0,0:0:0:0:
257,65,90176,1,0,3:0:0:0:
376,222,90346,6,0,B|406:127|406:127|170:191,1,323.999990112305,10|0,0:1|0:0,0:0:0:0:
114,84,90687,1,0,3:0:0:0:
93,192,90858,6,0,B|148:209|148:209|110:72,1,188.999994232178,2|8,3:1|0:0,0:0:0:0:
173,21,91199,1,0,3:0:0:0:
190,186,91369,6,0,P|162:230|159:251,1,67.5000025749208,2|0,0:1|0:0,0:0:0:0:
42,126,91540,2,0,P|13:70|-6:54,1,80.9999975280763,2|0,3:1|0:0,0:0:0:0:
257,247,91710,2,0,L|236:405,1,135.000005149842,10|2,0:1|0:0,0:0:0:0:
259,231,91966,1,2,0:0:0:0:
270,152,92051,5,4,3:0:0:0:
208,103,92392,5,2,0:3:0:0:
257,247,92562,1,0,0:0:0:0:
258,239,92648,1,2,0:3:0:0:
259,231,92733,1,2,0:0:0:0:
270,152,92903,1,0,0:0:0:0:
208,103,93074,5,2,0:3:0:0:
257,247,93244,1,0,0:0:0:0:
258,239,93330,1,2,0:3:0:0:
259,231,93415,1,2,0:0:0:0:
270,152,93585,1,0,0:0:0:0:
208,103,93756,5,2,0:3:0:0:
257,247,93926,1,0,0:0:0:0:
258,239,94012,1,2,0:3:0:0:
259,231,94097,1,2,0:0:0:0:
270,152,94267,1,0,0:0:0:0:
328,315,94437,6,0,L|512:276,1,180,8|0,0:0|0:0,0:0:0:0:
401,249,94693,1,0,0:0:0:0:
413,263,94778,5,4,3:2:0:0:
477,364,94949,2,0,L|483:306,1,53.9999983520508
460,67,95119,6,0,P|423:89|409:117,1,67.5000025749208,8|0,0:0|0:0,0:0:0:0:
342,186,95290,1,0,0:0:0:0:
342,186,95460,6,0,L|346:154,1,22.5,2|0,0:0|0:0,0:0:0:0:
305,27,95631,1,0,3:0:0:0:
305,27,95801,6,0,P|305:70|322:96,1,67.5000025749208,8|0,0:0|0:0,0:0:0:0:
339,208,95971,1,0,0:0:0:0:
339,208,96142,6,0,L|343:176,1,22.5,2|0,0:0|0:0,0:0:0:0:
192,141,96312,1,0,0:0:0:0:
192,141,96483,6,0,P|229:162|260:160,1,67.5000025749208,8|0,0:0|0:0,0:0:0:0:
284,302,96653,1,0,0:0:0:0:
284,302,96824,6,0,P|268:261|243:243,1,67.5000025749208,2|0,0:0|0:0,0:0:0:0:
142,212,96994,2,0,P|113:217|98:231,1,45,0|0,3:0|0:0,0:0:0:0:
111,319,97165,2,0,B|151:387|151:387|172:280,1,180,8|2,0:0|0:0,0:0:0:0:
142,212,97420,1,2,0:0:0:0:
127,217,97506,5,0,3:0:0:0:
241,316,97676,2,0,L|296:297,1,45
353,352,97846,6,0,P|370:312|364:281,1,67.5000025749208,8|0,0:0|0:0,0:0:0:0:
370,173,98017,1,0,0:0:0:0:
371,179,98102,1,2,0:3:0:0:
372,185,98187,6,0,L|379:216,1,22.5,2|0,0:0|0:0,0:0:0:0:
498,297,98358,1,0,3:0:0:0:
498,297,98528,6,0,P|472:262|443:251,1,67.5000025749208,8|0,0:0|0:0,0:0:0:0:
346,199,98698,1,0,0:0:0:0:
351,201,98784,1,2,0:3:0:0:
356,202,98869,6,0,L|387:209,1,22.5,2|0,3:2|0:0,0:0:0:0:
453,169,99040,1,0,0:0:0:0:
366,123,99210,6,0,B|326:92|266:117|272:164|273:167|280:212|220:241|179:211,1,242.999992584229,8|0,0:0|0:0,0:0:0:0:
93,185,99466,1,2,0:3:0:0:
96,192,99551,6,0,L|104:217,1,22.5,2|0,0:0|0:0,0:0:0:0:
167,292,99721,1,0,3:0:0:0:
183,192,99892,6,0,L|208:39,1,135.000005149842,8|2,0:0|0:0,0:0:0:0:
41,88,100148,1,2,0:0:0:0:
44,99,100233,6,0,B|51:126|77:145|107:148|107:148|-11:199,1,202.500007724762,4|0,3:2|0:0,0:0:0:0:
117,67,100574,2,0,L|129:-11,1,67.5000025749208,8|0,0:0|0:0,0:0:0:0:
183,213,100744,6,0,B|235:199|250:143|250:143|235:199|270:241,1,202.500007724762,2|0,0:0|0:0,0:0:0:0:
355,171,101085,2,0,L|328:180,1,22.5,2|0,3:2|0:0,0:0:0:0:
355,45,101256,6,0,L|330:203,1,135.000005149842,8|2,0:0|0:0,0:0:0:0:
425,309,101596,6,0,P|402:281|348:260,1,90,0|2,3:0|0:0,0:0:0:0:
343,128,101937,2,0,L|359:190,1,45,8|0,0:0|0:0,0:0:0:0:
478,234,102108,6,0,B|435:206|377:236|387:283|389:285|400:330|342:364|299:337,1,242.999992584229,2|0,0:0|0:0,0:0:0:0:
213,285,102449,2,0,P|202:305|216:286,1,67.5000025749208,2|0,3:2|0:0,0:0:0:0:
294,330,102619,6,0,P|228:302|156:286,1,135.000005149842,8|2,0:0|0:0,0:0:0:0:
0,288,102875,1,2,0:0:0:0:
12,294,102960,6,0,P|51:290|54:158,1,202.500007724762,2|0,3:2|0:0,0:0:0:0:
149,142,103301,2,0,P|139:191|134:232,1,67.5000025749208,8|0,0:0|0:0,0:0:0:0:
125,354,103471,1,0,0:0:0:0:
124,365,103557,1,2,0:3:0:0:
123,375,103642,6,0,P|104:328|80:301,1,67.5000025749208,2|0,0:0|0:0,0:0:0:0:
59,161,103812,1,0,3:0:0:0:
134,242,103983,2,0,L|272:220,1,135.000005149842,8|2,0:0|0:0,0:0:0:0:
360,166,104238,1,2,0:3:0:0:
354,171,104324,6,0,B|334:208|362:253|400:242|402:240|438:227|470:273|451:310,1,202.500007724762,2|0,3:2|0:0,0:0:0:0:
470,384,104665,2,0,P|472:339|487:293,1,67.5000025749208,8|0,0:0|0:0,0:0:0:0:
424,112,104835,1,0,3:0:0:0:
428,115,104920,1,0,0:0:0:0:
431,118,105006,6,0,P|441:150|438:167,1,45,2|0,0:2|0:2,0:2:0:0:
507,207,105176,2,0,P|484:231|468:237,1,45,2|0,3:2|0:2,0:2:0:0:
373,373,105346,6,0,P|378:307|396:228,1,135.000005149842,8|2,0:0|0:0,0:0:0:0:
304,98,105602,1,2,0:0:0:0:
360,166,105687,6,0,L|95:222,1,270,4|0,3:2|0:0,0:0:0:0:
4,109,106028,6,0,P|38:135|49:164,1,67.5000025749208,8|0,0:0|0:0,0:0:0:0:
103,244,106199,1,0,0:0:0:0:
103,244,106369,6,0,L|93:213,1,22.5,2|0,0:0|0:0,0:0:0:0:
157,84,106540,1,0,3:0:0:0:
157,84,106710,6,0,P|151:127|132:151,1,67.5000025749208,8|0,0:0|0:0,0:0:0:0:
81,237,106880,1,0,0:0:0:0:
81,237,107051,6,0,L|104:215,1,22.5,2|0,3:2|0:0,0:0:0:0:
255,204,107221,1,0,0:0:0:0:
255,204,107392,6,0,P|214:221|184:216,1,67.5000025749208,8|0,0:0|0:0,0:0:0:0:
74,208,107562,1,0,0:0:0:0:
169,299,107733,6,0,P|186:343|192:390,1,67.5000025749208,2|0,0:0|0:0,0:0:0:0:
241,246,107903,2,0,P|252:216|256:185,1,45,0|0,3:0|0:0,0:0:0:0:
270,327,108074,6,0,P|320:299|401:286,1,135.000005149842,8|2,0:0|0:0,0:0:0:0:
415,209,108329,1,2,0:0:0:0:
445,223,108415,5,0,3:0:0:0:
430,354,108585,2,0,L|420:300,1,45
366,64,108756,6,0,P|396:95|401:126,1,67.5000025749208,8|0,0:0|0:0,0:0:0:0:
445,223,108925,1,0,0:0:0:0:
445,218,109012,1,2,0:3:0:0:
443,212,109097,6,0,L|438:180,1,22.5,2|0,0:0|0:0,0:0:0:0:
512,62,109266,1,0,3:0:0:0:
512,62,109438,6,0,P|509:103|486:124,1,67.5000025749208,8|0,0:0|0:0,0:0:0:0:
415,209,109608,1,0,0:0:0:0:
419,205,109692,1,2,0:3:0:0:
422,202,109779,6,0,L|448:184,1,22.5,2|0,3:2|0:0,0:0:0:0:
401,117,109949,1,0,0:0:0:0:
502,287,110119,1,8,0:0:0:0:
333,212,110290,5,2,0:0:0:0:
326,206,110375,1,2,0:3:0:0:
321,197,110460,6,0,P|308:165|311:117,1,67.5000025749208,2|0,0:0|0:0,0:0:0:0:
232,106,110631,2,0,P|221:125|204:139,1,45,0|0,3:0|0:0,0:0:0:0:
201,235,110801,6,0,P|212:151|248:78,1,135.000005149842,8|0,0:0|0:0,0:0:0:0:
216,22,111057,1,2,0:3:0:0:
297,48,111142,6,0,B|254:20|196:50|206:97|208:99|219:144|161:178|118:151,1,242.999992584229,4|0,3:2|0:0,0:0:0:0:
30,116,111483,2,0,B|48:79|48:79|41:135,1,80.9999975280763,8|0,0:0|0:0,0:0:0:0:
122,154,111653,6,0,P|150:202|78:222,1,135,2|0,3:2|0:0,0:0:0:0:
93,233,111994,2,0,P|71:217|64:189,1,45,2|0,3:2|0:0,0:0:0:0:
0,253,112165,6,0,P|84:271|202:321,1,202.500007724762,8|0,0:0|0:0,0:0:0:0:
343,285,112506,6,0,P|328:343|269:326,1,135,2|0,3:2|0:0,0:0:0:0:
281,152,112846,2,0,P|304:173|330:226,1,67.5000025749208,8|0,0:0|0:0,0:0:0:0:
447,252,113017,6,0,P|403:216|464:172,1,135,0|0,3:0|0:0,0:0:0:0:
445,168,113358,2,0,P|470:175|486:198,1,45,0|0,3:0|0:0,0:0:0:0:
421,384,113528,6,0,P|432:306|450:240,1,135.000005149842,8|2,0:0|0:0,0:0:0:0:
444,167,113784,1,2,0:0:0:0:
482,188,113869,5,2,3:2:0:0:
332,10,114210,5,2,0:3:0:0:
347,92,114381,1,0,0:0:0:0:
348,98,114466,1,2,0:3:0:0:
349,105,114551,1,2,0:0:0:0:
281,152,114721,1,0,0:0:0:0:
332,10,114892,5,2,0:3:0:0:
347,92,115062,1,0,0:0:0:0:
348,98,115148,1,2,0:3:0:0:
349,105,115233,1,2,0:0:0:0:
281,152,115403,1,0,0:0:0:0:
332,10,115574,5,2,0:3:0:0:
347,92,115744,1,0,0:0:0:0:
348,98,115829,1,2,0:3:0:0:
349,105,115915,1,2,0:0:0:0:
281,152,116085,1,0,0:0:0:0:
332,10,116256,5,2,0:3:0:0:
347,92,116425,2,0,L|350:109,1,13.4999995880127,2|2,0:0|0:0,0:0:0:0:
429,125,116596,5,4,3:2:0:0:
420,151,116767,1,0,0:0:0:0:
373,214,116937,5,0,3:0:0:0:
375,227,117108,1,0,3:0:0:0:
131,81,117278,5,8,0:0:0:0:
300,172,117449,1,0,0:0:0:0:
219,92,117619,5,0,3:0:0:0:
159,203,117790,1,0,3:0:0:0:
118,16,117960,6,0,P|124:61|131:81,1,67.5000025749208,0|0,3:0|3:0,0:0:0:0:
17,134,118301,2,0,P|58:151|79:155,1,67.5000025749208,0|0,3:0|3:0,0:0:0:0:
6,23,118642,5,8,0:0:0:0:
159,203,118812,1,0,0:0:0:0:
161,183,118983,1,0,3:0:0:0:
163,163,119153,1,0,3:0:0:0:
80,155,119324,6,0,P|46:183|30:214,1,67.5000025749208,0|0,3:0|0:0,0:0:0:0:
235,226,119665,2,0,P|239:269|257:299,1,67.5000025749208,0|0,3:0|3:0,0:0:0:0:
159,203,120006,5,8,0:0:0:0:
117,336,120176,1,0,0:0:0:0:
100,259,120346,5,0,3:0:0:0:
194,361,120516,1,0,3:0:0:0:
321,201,120687,6,0,L|231:227,1,90,2|0,3:2|3:2,0:2:0:0:
280,336,121028,2,0,L|190:362,1,90,2|0,3:2|3:2,0:2:0:0:
262,133,121369,6,0,L|352:107,1,90,10|0,0:2|0:2,0:2:0:0:
355,384,121710,2,0,L|445:358,1,90,2|0,3:2|3:0,0:0:0:0:
429,125,122051,5,0,3:0:0:0:
420,151,122222,1,0,0:0:0:0:
373,214,122392,5,0,3:0:0:0:
375,227,122563,1,0,3:0:0:0:
188,74,122733,5,8,0:0:0:0:
300,172,122904,1,0,0:0:0:0:
288,160,123074,5,0,3:0:0:0:
159,203,123245,1,0,3:0:0:0:
6,104,123415,5,0,3:0:0:0:
29,70,123585,1,0,3:0:0:0:
72,6,123756,1,0,3:0:0:0:
107,86,123926,1,0,3:0:0:0:
159,203,124096,1,8,0:0:0:0:
101,100,124267,6,0,L|197:71,2,90,0|8|8,0:0|3:0|3:0,0:0:0:0:
160,177,124778,6,0,P|101:232|25:241,1,135.000005149842,2|0,3:2|3:2,3:2:0:0:
0,174,125119,1,0,3:2:0:0:
223,253,125290,6,0,P|288:300|309:374,1,135.000005149842,12|0,3:2|3:2,3:2:0:0:
221,384,125631,1,0,3:2:0:0:
300,172,125801,6,0,P|301:91|349:31,1,135.000005149842,12|0,3:2|3:2,3:2:0:0:
248,4,126142,1,0,3:2:0:0:
475,268,126312,6,0,P|394:271|331:228,1,135.000005149842,12|0,3:2|3:2,3:2:0:0:
388,167,126653,1,0,3:2:0:0:
330,47,126824,5,12,3:2:0:0:
475,268,126994,1,0,3:2:0:0:
424,87,127165,5,12,3:2:0:0:
308,350,127335,1,0,3:2:0:0:
295,152,127506,5,4,3:2:0:0:
300,172,127676,1,0,3:2:0:0:
348,246,127846,5,0,3:2:0:0:
329,256,128016,1,0,3:2:0:0:
223,253,128187,5,0,3:2:0:0:
193,360,128358,1,0,3:2:0:0:
191,345,128528,5,0,3:2:0:0:
116,308,128699,1,0,3:2:0:0:
43,365,128869,5,0,3:2:0:0:
30,357,129040,1,0,3:2:0:0:
36,268,129210,5,0,3:2:0:0:
28,254,129381,1,0,3:2:0:0:
116,308,129551,5,0,3:2:0:0:
115,323,129722,1,0,3:2:0:0:
36,268,129892,5,0,3:2:0:0:
28,254,130063,1,0,3:2:0:0:
198,384,130233,6,0,P|199:359|211:330,1,53.9999983520508,8|0,3:2|3:2,3:2:0:0:
115,323,130574,2,0,P|126:300|149:279,1,53.9999983520508,0|0,3:2|3:2,3:2:0:0:
222,252,130915,5,0,3:2:0:0:
147,203,131085,1,0,3:2:0:0:
225,251,131256,5,0,3:2:0:0:
158,192,131426,1,0,3:2:0:0:
346,292,131596,6,0,P|298:292|213:242,1,135,2|0,3:2|0:2,0:2:0:0:
147,203,131937,2,0,P|99:207|18:264,1,135,2|0,3:2|0:2,0:2:0:0:
9,159,132278,6,0,P|41:123|63:27,1,135,2|0,3:2|0:2,0:2:0:0:
163,74,132619,2,0,P|142:117|152:215,1,135,2|0,3:2|0:2,0:2:0:0:
79,248,132960,5,4,1:3:0:0:
99,272,133130,1,0,1:0:0:0:
136,287,133300,1,0,1:0:0:0:
184,278,133471,1,0,1:0:0:0:
221,236,133641,1,0,1:0:0:0:
256,181,133812,1,0,1:0:0:0:
324,161,133982,1,0,1:0:0:0:
387,207,134153,1,0,1:0:0:0:
346,292,134324,5,0,1:0:0:0:
387,95,134494,1,0,1:0:0:0:
498,134,134665,5,0,1:0:0:0:
256,181,134835,1,0,1:0:0:0:
9,159,135006,5,0,1:0:0:0:
387,207,135176,1,0,1:0:0:0:
280,377,135346,5,0,1:0:0:0:
330,23,135517,1,0,1:0:0:0:
434,282,135687,6,0,L|444:306,1,22.5,4|0,3:3|0:0,0:0:0:0:
107,44,137051,5,8,0:0:0:0:
170,220,137222,1,0,3:0:0:0:
176,236,137392,1,0,3:0:0:0:
196,104,137563,5,8,0:0:0:0:
51,310,137732,1,0,3:0:0:0:
38,328,137904,1,0,3:0:0:0:
76,230,138074,6,0,L|89:227,1,13.5,8|0,0:0|0:0,0:0:0:0:
135,308,138415,6,0,B|47:247|47:247|208:274,1,270.000010299683,6|2,3:0|0:1,0:0:0:0:
383,214,138756,1,8,0:0:0:0:
317,384,138926,2,0,L|292:258,1,121.500000463486,2|0,0:1|0:0,0:0:0:0:
207,273,139096,6,0,L|211:245,1,22.5,2|0,0:1|0:0,0:0:0:0:
265,188,139267,1,0,3:0:0:0:
287,307,139437,6,0,L|322:80,1,215.999993408203,10|2,0:1|0:1,0:0:0:0:
236,18,139778,5,0,3:0:0:0:
409,128,139949,2,0,L|391:27,1,94.499997116089,2|0,0:1|0:0,0:0:0:0:
250,1,140119,5,8,0:0:0:0:
403,222,140290,2,0,L|379:212,1,22.5,2|0,0:1|0:0,0:0:0:0:
233,168,140460,6,0,L|423:124,1,180,2|0,0:1|3:0,0:0:0:0:
287,307,140801,2,0,L|97:263,1,161.999995056153,10|2,0:1|0:0,0:0:0:0:
66,216,141057,1,2,0:0:0:0:
129,270,141142,6,0,B|93:339|93:339|63:198,1,202.500007724762,0|0,3:0|0:0,0:0:0:0:
63,106,141483,2,0,B|74:90|74:90|62:138,1,67.5000025749208,8|0,0:0|0:0,0:0:0:0:
67,217,141653,6,2,B|68:165|125:136|158:171|159:173|190:208|251:180|253:130,1,242.999992584229,2|0,0:0|0:0,0:1:0:0:
268,31,141994,6,0,L|271:57,1,22.5,0|0,3:0|0:0,0:0:0:0:
129,270,142165,6,2,B|178:263|203:204|165:175|163:173|125:146|148:83|194:77,1,242.999992584229,10|0,0:0|0:0,0:1:0:0:
268,31,142506,5,0,3:0:0:0:
328,184,142676,2,0,P|339:208|324:185,1,80.9999975280763,2|0,0:0|0:0,0:0:0:0:
252,133,142846,2,0,P|338:150|434:198,1,180,8|2,0:0|0:0,0:0:0:0:
503,182,143102,1,2,0:0:0:0:
509,189,143187,6,0,P|500:242|462:255,1,90,2|0,0:0|0:0,0:0:0:0:
372,74,143358,2,0,P|351:56|355:37,1,45,0|0,3:0|0:0,0:0:0:0:
421,189,143528,6,0,P|392:105|386:-1,1,180,8|2,0:0|0:0,0:0:0:0:
479,106,143784,1,2,0:0:0:0:
509,189,143869,6,0,L|257:319,1,270.000010299683,4|2,3:2|0:1,0:0:0:0:
252,133,144210,1,8,0:0:0:0:
328,184,144381,6,0,L|366:310,1,121.500000463486,2|0,0:1|0:0,0:0:0:0:
432,358,144551,6,0,L|436:330,1,22.5,2|0,0:1|0:0,0:0:0:0:
468,261,144721,1,0,3:0:0:0:
363,300,144892,6,0,L|151:253,1,215.999993408203,10|2,0:1|0:1,0:0:0:0:
252,133,145233,5,0,3:0:0:0:
269,313,145403,2,0,L|181:357,1,94.499997116089,2|0,0:1|0:0,0:0:0:0:
249,150,145574,5,8,0:0:0:0:
159,275,145744,2,0,L|151:247,1,22.5,2|0,0:1|0:0,0:0:0:0:
76,270,145915,6,0,L|288:317,1,180,2|0,0:1|3:0,0:0:0:0:
164,174,146256,2,0,L|125:-1,1,161.999995056153,10|2,0:1|0:0,0:0:0:0:
175,84,146511,1,2,0:0:0:0:
130,163,146596,6,0,B|209:176|209:176|57:284,1,242.999992584229,0|0,3:0|0:0,0:0:0:0:
175,84,146937,2,0,B|196:49|196:49|191:92,1,80.9999975280763,8|0,0:0|0:0,0:0:0:0:
460,230,147108,6,2,B|422:265|352:239|355:187|356:185|358:131|290:109|249:150,1,270,2|0,0:0|0:0,0:1:0:0:
274,30,147449,2,0,L|280:56,1,22.5,0|0,3:0|0:0,0:0:0:0:
376,167,147619,6,2,B|342:174|333:210|333:210|306:155|343:65|428:66,1,242.999992584229,10|0,0:0|0:0,0:1:0:0:
349,0,147960,5,0,3:0:0:0:
465,123,148131,2,0,P|468:151|460:124,1,80.9999975280763,2|0,0:0|0:0,0:0:0:0:
381,323,148301,6,0,P|392:269|411:239,1,90,8|0,0:0|0:0,0:0:0:0:
240,106,148471,2,0,L|250:150,1,45,0|0,3:0|0:0,0:0:0:0:
349,0,148642,6,0,P|340:40|326:63,1,67.5000025749208,2|0,0:0|0:0,0:0:0:0:
333,210,148812,2,0,L|339:183,1,22.5,0|0,3:0|0:0,0:0:0:0:
465,123,148983,6,0,L|249:181,1,180,8|2,0:0|0:0,0:0:0:0:
28,137,149238,1,2,0:0:0:0:
99,91,149324,6,0,B|190:72|272:141|231:209|136:267|55:156|93:-17|212:0,1,405.000015449525,6|0,3:0|0:0,0:0:0:0:
40,5,149665,6,0,L|46:31,1,22.5,8|0,0:0|0:0,0:0:0:0:
107,314,149835,6,0,L|145:148,1,121.500000463486,2|0,0:1|0:0,0:0:0:0:
104,112,150006,6,0,L|98:86,1,22.5,2|0,0:1|0:0,0:0:0:0:
209,156,150176,1,0,3:0:0:0:
6,231,150346,6,0,L|216:154,1,215.999993408203,10|2,0:1|0:1,0:0:0:0:
327,63,150687,5,0,3:0:0:0:
294,268,150858,2,0,L|172:240,1,94.499997116089,2|0,0:1|0:0,0:0:0:0:
209,156,151028,5,8,0:0:0:0:
297,285,151199,2,0,L|302:306,1,22.5,2|0,0:1|0:0,0:0:0:0:
194,384,151369,6,0,L|221:262,1,90,2|0,3:1|0:0,0:0:0:0:
291,169,151540,2,0,L|296:190,1,22.5,0|0,3:0|0:0,0:0:0:0:
302,306,151710,6,0,P|334:270|402:263,1,80.9999975280763,10|0,0:1|0:0,0:0:0:0:
475,186,151881,6,0,P|412:173|358:99,1,107.999996704102,2|2,0:1|0:0,0:0:0:0:
400,16,152051,6,0,B|429:59|398:115|351:105|349:104|304:93|270:151|297:193,1,242.999992584229,2|0,3:2|0:0,0:0:0:0:
296,39,152392,2,0,B|295:-5|295:-5|326:29,1,80.9999975280763,8|0,0:0|0:0,0:0:0:0:
380,145,152562,6,2,P|268:117|112:96,1,242.999992584229,2|0,0:0|0:0,0:1:0:0:
65,48,152903,6,0,L|71:72,1,22.5,0|0,3:0|0:0,0:0:0:0:
141,191,153074,6,2,P|253:163|409:142,1,242.999992584229,10|0,0:0|0:0,0:1:0:0:
442,86,153415,5,0,3:0:0:0:
474,183,153585,2,0,P|486:208|467:186,1,80.9999975280763,2|0,0:0|0:0,0:0:0:0:
318,234,153756,6,0,B|363:221|381:172|381:172|372:224|398:258,1,180,8|2,0:0|0:0,0:0:0:0:
473,289,154011,1,2,0:0:0:0:
464,298,154096,6,0,P|442:345|434:390,1,90,2|0,0:0|0:0,0:0:0:0:
300,154,154267,6,0,P|289:130|285:108,1,45,0|0,3:0|0:0,0:0:0:0:
396,256,154437,6,0,L|214:221,1,180,8|2,0:0|0:0,0:0:0:0:
141,191,154693,1,2,0:0:0:0:
83,259,154778,6,0,B|195:295|195:295|130:4,1,405.000015449525,4|0,3:2|0:0,0:0:0:0:
61,51,155119,1,8,0:0:0:0:
236,120,155290,6,0,B|213:15|213:15|16:197,1,364.500001390457,2|0,3:1|0:0,0:0:0:0:
73,256,155631,1,0,3:0:0:0:
51,60,155801,6,0,B|-26:131|-26:131|226:210,1,323.999990112305,10|0,0:1|0:0,0:0:0:0:
238,129,156142,5,0,3:0:0:0:
151,301,156312,2,0,B|209:320|209:320|175:167,1,188.999994232178,2|8,0:1|0:0,0:0:0:0:
236,120,156653,1,0,3:0:0:0:
318,234,156824,6,0,P|289:277|282:312,1,67.5000025749208,2|0,0:1|0:0,0:0:0:0:
512,157,156994,2,0,P|477:104|468:63,1,80.9999975280763,2|0,3:1|0:0,0:0:0:0:
398,249,157165,2,0,L|377:407,1,135.000005149842,10|2,0:1|0:0,0:0:0:0:
400,233,157421,1,2,0:0:0:0:
411,154,157506,5,4,3:3:0:0:
349,105,157846,5,2,0:3:0:0:
398,249,158016,1,0,0:0:0:0:
399,241,158102,1,2,0:3:0:0:
400,233,158187,1,2,0:0:0:0:
411,154,158357,1,0,0:0:0:0:
349,105,158528,5,2,0:3:0:0:
398,249,158698,1,0,0:0:0:0:
399,241,158784,1,2,0:3:0:0:
400,233,158869,1,2,0:0:0:0:
411,154,159039,1,0,0:0:0:0:
349,105,159210,5,2,0:3:0:0:
398,249,159380,1,0,0:0:0:0:
399,241,159466,1,2,0:3:0:0:
400,233,159551,1,2,0:0:0:0:
411,154,159721,1,0,0:0:0:0:
318,234,159892,6,0,L|128:281,1,180,8|2,0:0|0:0,0:0:0:0:
225,205,160148,1,2,0:0:0:0:
233,218,160233,5,4,3:2:0:0:
338,353,160403,2,0,L|347:300,1,45
107,140,160574,6,0,P|124:180|167:195,1,67.5000025749208,8|0,0:0|0:0,0:0:0:0:
230,240,160744,1,0,0:0:0:0:
230,240,160915,6,0,L|234:208,1,22.5,2|0,0:0|0:0,0:0:0:0:
252,73,161085,1,0,3:0:0:0:
252,73,161256,6,0,P|225:107|234:152,1,67.5000025749208,8|0,0:0|0:0,0:0:0:0:
227,262,161426,1,0,0:0:0:0:
227,262,161597,6,0,L|231:230,1,22.5,2|0,3:2|0:0,0:0:0:0:
382,165,161767,1,0,0:0:0:0:
382,165,161938,6,0,P|338:159|304:189,1,67.5000025749208,8|0,0:0|0:0,0:0:0:0:
226,269,162108,1,0,0:0:0:0:
287,324,162278,6,0,P|313:289|304:244,1,67.5000025749208,2|0,0:0|0:0,0:0:0:0:
389,170,162449,2,0,P|391:191|406:208,1,45,0|0,3:0|0:0,0:0:0:0:
390,313,162619,2,0,B|422:388|422:388|399:277,1,180,8|2,0:0|0:0,0:0:0:0:
441,201,162875,1,2,0:0:0:0:
407,208,162960,5,0,3:0:0:0:
483,287,163131,2,0,L|517:322,1,45
509,84,163301,6,0,P|469:101|454:144,1,67.5000025749208,8|0,0:0|0:0,0:0:0:0:
414,242,163471,1,0,0:0:0:0:
413,236,163557,1,2,0:3:0:0:
412,230,163642,6,0,L|405:199,1,22.5,2|0,0:0|0:0,0:0:0:0:
359,44,163812,1,0,3:0:0:0:
359,44,163983,6,0,P|352:86|382:121,1,67.5000025749208,8|0,0:0|0:0,0:0:0:0:
441,201,164153,1,0,0:0:0:0:
435,202,164239,1,2,0:3:0:0:
429,203,164324,6,0,L|398:210,1,22.5,2|0,3:2|0:0,0:0:0:0:
249,153,164494,1,0,0:0:0:0:
249,153,164665,6,0,P|283:180|328:170,1,67.5000025749208,8|0,0:0|0:0,0:0:0:0:
153,60,164835,5,2,0:0:0:0:
132,42,164920,1,2,0:3:0:0:
105,38,165006,6,0,P|51:59|31:117,1,90,2|0,0:0|0:0,0:0:0:0:
143,191,165176,6,0,L|147:166,1,22.5,0|0,3:0|0:0,0:0:0:0:
265,67,165346,6,0,B|225:36|165:61|171:108|172:111|179:156|119:185|78:155,1,242.999992584229,8|2,0:0|0:0,0:0:0:0:
57,254,165602,1,2,0:0:0:0:
69,266,165687,6,0,B|42:296|37:335|66:382|130:395|169:335|159:290|157:287|116:286|145:225|184:199|233:239,1,323.999990112305,4|0,3:2|0:0,0:0:0:0:
305,180,166028,2,0,P|304:218|335:252,1,67.5000025749208,8|0,0:0|0:0,0:0:0:0:
426,343,166199,6,0,P|327:324|227:311,1,202.500007724762,2|0,0:0|0:0,0:0:0:0:
217,210,166540,2,0,L|222:235,1,22.5,2|0,3:2|0:0,0:0:0:0:
297,375,166710,2,0,L|322:222,1,135.000005149842,8|2,0:0|0:0,0:0:0:0:
503,151,167051,6,0,B|463:120|403:145|409:192|410:195|417:240|357:269|316:239,1,242.999992584229,2|0,3:2|0:0,0:0:0:0:
305,180,167392,2,0,P|304:218|335:252,1,67.5000025749208,8|0,0:0|0:0,0:0:0:0:
438,63,167562,6,0,B|461:1|357:-60|300:57|354:136|425:153,1,270,2|0,0:0|0:0,0:0:0:0:
433,315,167903,2,0,L|439:284,1,22.5,2|0,3:2|0:0,0:0:0:0:
396,224,168074,6,0,P|323:200|249:181,1,135.000005149842,8|2,0:0|0:0,0:0:0:0:
156,160,168329,1,2,0:0:0:0:
161,167,168415,6,0,P|198:186|248:65,1,202.500007724762,2|0,3:2|0:0,0:0:0:0:
190,46,168756,2,0,P|153:64|140:110,1,67.5000025749208,8|0,0:0|0:0,0:0:0:0:
244,262,168926,1,0,0:0:0:0:
249,270,169011,1,2,0:3:0:0:
254,278,169096,6,0,P|250:237|234:198,1,67.5000025749208,2|0,0:0|0:0,0:0:0:0:
262,79,169267,2,0,L|258:111,1,22.5,0|0,3:0|0:0,0:0:0:0:
34,210,169437,2,0,P|82:200|161:168,1,135.000005149842,8|2,0:0|0:0,0:0:0:0:
58,29,169693,1,2,0:3:0:0:
51,36,169778,6,0,B|32:75|63:121|102:107|104:106|141:92|176:137|158:177,1,202.500007724762,2|0,3:2|0:0,0:0:0:0:
113,262,170119,2,0,P|94:218|84:174,1,67.5000025749208,8|0,0:0|0:0,0:0:0:0:
178,315,170290,1,0,3:0:0:0:
178,321,170375,1,0,0:0:0:0:
177,326,170460,6,0,P|174:348|168:369,1,45,2|0,0:0|0:0,0:0:0:0:
254,278,170631,2,0,P|269:294|282:312,1,45,2|0,3:2|0:0,0:0:0:0:
247,384,170801,6,0,P|314:358|385:345,1,135.000005149842,8|2,0:0|0:0,0:0:0:0:
433,284,171057,1,2,0:0:0:0:
507,317,171142,6,0,B|521:359|477:378|477:378|429:323|448:242|511:217,1,270,6|0,3:2|0:0,0:0:0:0:
487,91,171483,6,0,P|470:131|427:146,1,67.5000025749208,8|0,0:0|0:0,0:0:0:0:
364,191,171653,1,0,0:0:0:0:
364,191,171824,6,0,L|360:159,1,22.5,2|0,0:0|0:0,0:0:0:0:
342,24,171994,1,0,3:0:0:0:
342,24,172165,6,0,P|369:58|360:103,1,67.5000025749208,8|0,0:0|0:0,0:0:0:0:
367,213,172335,1,0,0:0:0:0:
367,213,172506,6,0,L|363:181,1,22.5,2|0,3:2|0:0,0:0:0:0:
212,116,172676,1,0,0:0:0:0:
212,116,172847,6,0,P|256:110|290:140,1,67.5000025749208,8|0,0:0|0:0,0:0:0:0:
368,220,173017,1,0,0:0:0:0:
254,278,173187,6,0,P|262:220|278:186,1,67.5000025749208,2|0,0:0|0:0,0:0:0:0:
130,153,173358,2,0,P|106:183|85:198,1,45,0|0,3:0|0:0,0:0:0:0:
162,244,173528,6,0,B|175:301|175:301|40:256,1,180,8|2,0:0|0:0,0:0:0:0:
14,171,173784,1,2,0:0:0:0:
21,194,173869,5,0,3:0:0:0:
10,379,174040,2,0,L|-2:329,1,45
137,131,174210,6,0,P|124:162|101:187,1,67.5000025749208,8|0,0:0|0:0,0:0:0:0:
70,300,174381,1,0,0:0:0:0:
69,293,174466,1,2,0:3:0:0:
68,286,174551,6,0,L|62:263,1,22.5,2|0,0:0|0:0,0:0:0:0:
6,78,174721,1,0,3:0:0:0:
6,78,174892,6,0,P|26:104|36:136,1,67.5000025749208,8|0,0:0|0:0,0:0:0:0:
151,255,175062,5,0,0:0:0:0:
156,249,175148,1,2,0:3:0:0:
162,244,175233,6,0,B|195:218|245:238|240:278|239:280|233:318|283:342|318:317,1,202.500007724762,2|0,3:2|0:0,0:0:0:0:
368,220,175574,6,0,P|383:255|391:293,1,67.5000025749208,8|0,0:0|0:0,0:0:0:0:
451,379,175744,1,2,0:0:0:0:
452,353,175829,1,2,0:3:0:0:
459,327,175915,6,0,P|486:280|523:250,1,90,2|0,0:0|0:0,0:0:0:0:
424,96,176085,2,0,L|429:128,1,22.5,0|0,3:0|0:0,0:0:0:0:
448,195,176256,6,0,P|458:125|483:43,1,135.000005149842,8|2,0:0|0:0,0:0:0:0:
409,16,176511,1,2,0:0:0:0:
424,96,176596,6,0,B|451:126|456:165|427:212|363:225|324:165|334:120|336:117|377:116|348:55|309:29|260:69,1,323.999990112305,4|0,3:2|0:0,0:0:0:0:
193,87,176937,2,0,P|174:48|198:17,1,67.5000025749208,8|0,0:0|0:0,0:0:0:0:
326,137,177108,6,0,P|263:151|186:181,1,135,2|0,3:2|0:0,0:0:0:0:
211,219,177449,2,0,L|196:174,1,45,0|0,3:0|0:0,0:0:0:0:
0,29,177619,6,0,P|94:50|210:95,1,202.500007724762,10|0,0:0|0:0,0:0:0:0:
119,212,177960,6,0,B|109:247|70:229|58:159|126:145,1,135,2|0,3:2|0:0,0:0:0:0:
79,46,178301,2,0,P|48:94|12:104,1,67.5000025749208,8|0,0:0|0:0,0:0:0:0:
82,181,178471,6,0,P|145:195|222:225,1,135,0|0,3:0|0:0,0:0:0:0:
210,219,178812,2,0,L|195:264,1,45,0|0,3:0|0:0,0:0:0:0:
256,384,178983,6,0,P|270:295|293:230,1,135.000005149842,8|2,0:0|0:0,0:0:0:0:
256,110,179238,1,2,0:0:0:0:
256,149,179324,5,2,3:2:0:0:
175,339,179665,5,2,0:3:0:0:
91,314,179835,1,0,0:0:0:0:
90,308,179921,1,2,0:3:0:0:
88,301,180006,1,2,0:0:0:0:
73,223,180176,1,0,0:0:0:0:
175,339,180346,5,2,0:3:0:0:
91,314,180516,1,0,0:0:0:0:
90,308,180602,1,2,0:3:0:0:
88,301,180687,1,2,0:0:0:0:
73,223,180857,1,0,0:0:0:0:
175,339,181028,5,2,0:3:0:0:
91,314,181198,1,0,0:0:0:0:
90,308,181284,1,2,0:3:0:0:
88,301,181369,1,2,0:0:0:0:
73,223,181539,1,0,0:0:0:0:
175,339,181710,5,2,0:3:0:0:
91,314,181881,2,0,L|88:298,1,13.4999995880127,2|2,0:0|0:0,0:0:0:0:
23,369,182051,5,4,3:0:0:0:
409,16,182733,6,2,P|434:61|356:114,1,157.5,2|0,0:0|0:0,0:1:0:0:
446,213,183415,2,2,B|492:169|512:271|465:293|421:295|334:244|263:208|309:145|308:139|307:135|432:-10|314:-58|194:-101|138:3|136:9|133:17|130:24|132:31|128:36|120:61|120:68|122:74|119:86|121:89|122:89|122:91|148:184|154:186|158:185|196:132|199:129|259:73|269:83|280:100|260:177|255:181|252:189|249:192|240:198|237:202|194:233|191:227|188:226|185:222|181:220|208:134|210:127|246:17|217:61|208:64|202:65|32:22|27:25|22:28|17:30|6:39|-68:158|-68:162|-68:169|-68:172|-21:244|-15:248|-12:252|-19:268|-6:280|7:292|47:332|108:314|138:285|140:279|142:274|171:241|173:235|174:229|176:224|177:221|177:214|182:193|178:167|157:197|150:202|144:205|138:210|135:212|72:297|77:304|81:311|83:316|84:320|86:324|132:369|137:371|143:378|150:378|157:380|207:387|238:354|237:348|238:289|237:297|237:302|236:308|188:264|186:263|166:219|247:207|262:254|263:258|263:259|264:263|264:267|262:270|242:267|266:294|294:326|328:326|385:276|357:210|296:195,1,1692.90005295479,2|2,0:0|0:0,0:1:0:0:
387,336,187506,6,0,P|397:385|394:332,1,161.999995056153,2|2,0:0|0:0,0:0:0:0:
428,233,190233,2,0,P|447:261|495:256,1,80.9999975280763,2|2,0:0|0:0,0:0:0:0:
491,260,191256,2,0,B|528:224|533:181|500:130|429:117|387:183|399:233|401:236|446:236|415:304|374:334|319:295,1,371.250011329651,2|0,0:0|0:0,0:0:0:0:
311,214,192619,6,2,P|302:177|284:145,1,74.2500022659302,2|0,0:2|0:0,0:1:0:0:
362,9,192960,6,0,B|302:66|389:161|450:156|460:124|499:78|262:-63|104:43|49:203|49:203|128:128|205:136|205:136|106:164|41:246|37:349|37:349|52:259|113:194|192:181|192:181|136:218|120:286|134:355|134:355|133:298|157:244|204:216|204:216|192:259|199:308|224:339|224:339|209:182|327:85|520:177|428:344|346:338|284:265|317:200,1,2322.00003543091,6|0,3:0|0:0,0:0:0:0:
239,6,198415,6,0,P|256:58|227:11,1,161.999995056153,2|2,0:0|0:0,0:0:0:0:
138,0,201142,6,0,P|117:33|78:52,1,80.9999975280763,2|0,0:0|0:0,0:0:0:0:
205,136,201824,6,0,P|147:150|86:128,1,121.499996292114,2|0,0:0|0:0,0:0:0:0:
75,261,202506,6,0,P|47:232|39:189,1,80.9999975280763,2|0,0:0|0:0,0:0:0:0:
157,238,203187,6,0,P|185:263|188:296,1,67.5
122,340,203528,2,0,P|80:302|75:253,1,101.250003862381,2|0,0:0|0:0,0:0:0:0:
194,384,203869,6,0,P|237:354|283:338,1,90,6|0,3:1|0:0,0:0:0:0:
461,300,204210,5,0,3:0:0:0:
374,368,204381,1,0,3:0:0:0:
381,286,204551,5,0,0:0:0:0:
376,273,204721,1,0,0:0:0:0:
491,208,204892,5,0,3:0:0:0:
456,384,205062,1,0,3:0:0:0:
381,286,205233,5,0,3:0:0:0:
376,273,205403,1,0,3:0:0:0:
299,249,205574,5,0,3:0:0:0:
295,262,205744,1,0,3:0:0:0:
271,340,205915,5,0,0:0:0:0:
271,340,206085,1,0,0:0:0:0:
189,291,206256,5,0,3:0:0:0:
26,336,206426,1,0,3:0:0:0:
98,382,206596,6,0,L|104:305,1,67.5000025749208,4|0,3:1|0:0,0:0:0:0:
4,97,206937,5,0,3:0:0:0:
49,260,207107,1,0,3:0:0:0:
37,178,207278,5,0,0:0:0:0:
21,175,207449,1,0,0:0:0:0:
148,6,207619,5,0,3:0:0:0:
51,180,207789,1,0,3:0:0:0:
122,221,207960,5,0,3:0:0:0:
126,236,208131,1,0,3:0:0:0:
185,306,208301,5,0,3:0:0:0:
189,291,208472,1,0,3:0:0:0:
268,266,208642,5,0,0:0:0:0:
268,266,208812,1,0,0:0:0:0:
305,349,208983,5,0,3:0:0:0:
323,204,209153,1,0,3:0:0:0:
361,277,209324,6,0,P|384:305|414:319,1,67.5000025749208,4|0,3:1|0:0,0:0:0:0:
495,298,209665,5,0,3:0:0:0:
305,349,209835,1,0,3:0:0:0:
417,378,210006,6,0,L|423:328,1,45,2|2,0:1|0:1,0:0:0:0:
458,215,210346,5,0,3:0:0:0:
268,266,210516,1,0,3:0:0:0:
359,292,210687,5,0,3:0:0:0:
361,277,210858,1,0,3:0:0:0:
321,189,211028,5,0,3:0:0:0:
323,204,211199,1,0,3:0:0:0:
268,266,211369,5,0,0:0:0:0:
268,266,211540,1,0,0:0:0:0:
206,212,211710,5,0,3:0:0:0:
16,263,211880,1,0,3:0:0:0:
120,270,212051,5,6,3:1:0:0:
123,253,212221,1,0,3:0:0:0:
126,236,212392,1,0,3:0:0:0:
33,34,212562,6,0,P|43:60|59:76,1,45,2|0,0:0|0:0,0:0:0:0:
142,160,212733,2,0,P|152:134|168:118,1,45,2|0,0:0|0:0,0:0:0:0:
91,78,212903,6,0,L|-1:97,1,90,0|0,3:0|0:0,0:0:0:0:
283,192,213244,2,0,L|203:175,1,67.5000025749208,0|0,3:0|0:0,0:0:0:0:
395,112,213585,2,0,L|369:117,1,22.5,0|0,3:0|0:0,0:0:0:0:
354,120,213756,1,0,3:0:0:0:
311,7,213926,6,0,P|321:33|337:49,1,45,2|0,3:2|0:0,0:0:0:0:
472,179,214097,2,0,P|482:153|498:137,1,45,2|0,0:0|0:0,0:0:0:0:
417,107,214267,2,0,L|391:112,1,22.5,0|0,3:2|0:0,0:0:0:0:
375,303,214438,6,0,L|377:287,1,11.25,0|0,3:0|0:0,0:0:0:0:
392,205,214608,2,0,L|389:220,1,11.25,0|0,3:0|0:0,0:0:0:0:
314,241,214778,5,6,3:1:0:0:
283,192,214949,1,0,3:0:0:0:
221,174,215119,1,0,3:0:0:0:
163,222,215290,1,0,3:0:0:0:
149,299,215460,1,0,3:2:0:0:
117,352,215631,1,0,3:2:0:0:
65,364,215801,1,0,3:0:0:0:
25,342,215972,1,0,3:0:0:0:
6,222,216142,5,0,3:0:0:0:
15,224,216312,1,0,3:0:0:0:
96,194,216483,5,0,3:0:0:0:
86,203,216653,1,0,3:0:0:0:
73,286,216824,5,0,3:0:0:0:
70,275,216994,1,0,3:0:0:0:
26,126,217165,5,0,3:0:0:0:
32,148,217335,1,0,3:0:0:0:
107,44,217506,5,4,0:1:0:0:
145,122,217676,1,0,3:0:0:0:
96,194,217846,1,0,3:0:0:0:
261,115,218017,5,0,3:0:0:0:
255,192,218187,1,0,3:0:0:0:
185,226,218357,1,0,3:0:0:0:
349,239,218528,5,0,3:0:0:0:
310,296,218698,1,0,3:0:0:0:
240,292,218868,5,0,3:0:0:0:
236,281,219040,1,0,3:0:0:0:
349,239,219210,5,0,3:0:0:0:
345,228,219380,1,0,3:0:0:0:
300,375,219551,5,0,3:0:0:0:
303,383,219721,1,0,3:0:0:0:
381,335,219891,5,0,3:0:0:0:
384,343,220063,1,0,3:0:0:0:
463,384,220233,5,4,3:1:0:0:
495,163,220403,1,0,1:0:0:0:
387,318,220574,5,0,1:0:0:0:
407,188,220744,1,0,1:0:0:0:
310,296,220915,5,0,1:0:0:0:
328,181,221085,1,0,1:0:0:0:
231,300,221256,5,0,1:0:0:0:
257,148,221426,1,0,1:0:0:0:
272,232,221596,5,0,1:0:0:0:
243,69,221766,1,0,1:0:0:0:
194,232,221937,5,0,1:0:0:0:
162,52,222107,1,0,1:0:0:0:
128,275,222278,5,0,1:0:0:0:
77,2,222448,1,0,1:0:0:0:
6,222,222619,5,0,1:0:0:0:
374,114,222790,1,0,1:0:0:0:
304,341,222960,6,0,L|299:382,1,33.75,4|0,3:0|0:0,0:0:0:0:
270,0,224324,5,8,0:0:0:0:
407,188,224494,1,2,3:2:0:0:
430,192,224665,1,2,3:2:0:0:
487,124,224835,5,8,0:0:0:0:
402,268,225005,1,0,3:2:0:0:
390,270,225176,1,0,3:2:0:0:
334,213,225346,6,0,L|330:200,1,13.5,8|0,0:0|0:0,0:0:0:0:
485,266,225687,5,6,3:0:0:0:
448,336,225858,2,0,L|445:358,2,22.5
0,0,226369,5,10,0:1:0:0:
261,230,226540,2,0,L|237:237,1,22.5
177,292,226881,1,0,3:0:0:0:
78,22,227051,6,0,L|82:-2,1,22.5,2|0,0:1|0:0,0:0:0:0:
266,311,227392,2,0,L|270:335,1,22.5,0|0,3:0|0:0,0:0:0:0:
156,44,227733,6,0,L|158:32,1,11.25,10|0,0:1|0:0,0:0:0:0:
106,328,227903,2,0,L|102:352,1,22.5,0|0,3:0|0:0,0:0:0:0:
62,261,228244,1,0,0:0:0:0:
234,65,228415,6,0,L|237:43,1,22.5,2|0,0:1|0:0,0:0:0:0:
216,183,228756,2,0,L|212:205,1,22.5
312,86,229096,5,10,0:1:0:0:
216,183,229267,1,0,0:0:0:0:
135,153,229437,5,0,0:0:0:0:
266,311,229608,1,0,0:0:0:0:
390,107,229778,6,0,L|393:85,1,22.5,2|0,3:1|0:0,0:0:0:0:
299,235,230119,2,0,L|296:213,1,22.5,0|0,0:0|3:0,0:0:0:0:
471,105,230375,1,0,3:0:0:0:
468,128,230460,5,10,0:1:0:0:
381,242,230631,2,0,L|384:264,1,22.5,0|0,3:0|0:0,0:0:0:0:
349,15,230971,1,8,0:0:0:0:
36,282,231142,5,4,3:2:0:0:
106,328,231313,2,0,L|103:350,2,22.5
483,40,231824,5,10,0:1:0:0:
384,264,231994,2,0,L|381:242,1,22.5
299,235,232335,1,0,3:0:0:0:
393,85,232506,6,0,L|390:63,1,22.5,2|0,0:1|0:0,0:0:0:0:
322,311,232846,2,0,L|325:333,1,22.5,0|0,3:0|0:0,0:0:0:0:
303,130,233187,6,0,L|301:119,1,11.25,10|0,0:1|0:0,0:0:0:0:
250,361,233358,2,0,L|253:383,1,22.5,0|0,3:0|0:0,0:0:0:0:
175,331,233699,1,0,0:0:0:0:
0,164,233869,6,0,L|3:142,1,22.5,2|0,3:1|0:0,0:0:0:0:
175,331,234210,5,0,0:0:0:0:
171,353,234380,1,0,0:0:0:0:
83,181,234551,6,0,L|86:159,1,22.5,10|0,0:1|0:0,0:0:0:0:
250,362,234892,2,0,L|253:384,1,22.5
166,198,235233,6,0,L|169:176,1,22.5,2|0,3:1|0:0,0:0:0:0:
94,307,235574,2,0,L|91:329,1,22.5,8|0,0:0|3:0,0:0:0:0:
252,192,235829,1,0,3:0:0:0:
249,215,235915,5,10,0:1:0:0:
175,331,236085,1,0,0:0:0:0:
229,67,236256,6,0,L|225:52,1,11.25,8|0,0:0|0:0,0:0:0:0:
299,374,236426,2,0,L|303:389,1,11.25,8|0,0:0|0:0,0:0:0:0:
419,83,236596,5,6,3:0:0:0:
332,74,236767,2,0,L|338:84,1,11.25,2|0,0:0|0:0,0:0:0:0:
268,139,236937,2,0,L|294:148,1,22.5,2|0,0:0|0:0,0:0:0:0:
270,238,237108,2,0,L|324:207,1,33.7500012874604,2|0,0:0|0:0,0:0:0:0:
349,313,237278,2,0,L|364:266,1,45,10|0,0:1|0:0,0:0:0:0:
456,292,237449,2,0,L|426:236,1,33.7500012874604,2|0,0:0|0:0,0:0:0:0:
512,209,237619,2,0,L|485:202,1,22.5,2|0,0:0|0:0,0:0:0:0:
493,120,237790,2,0,L|481:125,1,11.25,2|0,3:2|0:0,0:0:0:0:
424,69,237960,5,2,0:1:0:0:
268,139,238131,1,0,0:0:0:0:
153,186,238301,5,0,3:0:0:0:
270,238,238472,1,0,0:0:0:0:
234,22,238642,6,0,L|227:78,1,45,10|0,0:1|0:0,0:0:0:0:
195,326,238812,1,0,3:0:0:0:
197,309,238983,1,2,0:0:0:0:
199,292,239153,1,2,0:0:0:0:
193,204,239324,6,0,B|163:180|118:198|122:234|123:236|128:270|83:292|52:269,1,180,2|0,0:1|0:0,0:0:0:0:
0,208,239835,1,2,0:0:0:0:
372,180,240006,6,0,L|361:284,1,90,10|2,0:1|0:0,0:0:0:0:
456,292,240346,2,0,L|445:396,1,90,2|2,0:0|0:0,0:0:0:0:
473,179,240602,1,2,0:0:0:0:
461,190,240687,6,0,P|406:151|382:56,1,135,2|0,3:1|0:0,0:0:0:0:
297,123,241028,2,0,P|289:78|322:22,1,90,2|2,0:0|0:0,0:0:0:0:
381,90,241284,1,2,0:0:0:0:
372,180,241369,6,0,B|369:215|369:215|345:170,1,67.5000025749208,10|0,0:1|0:0,0:0:0:0:
191,194,241540,2,0,P|234:142|331:126,1,135,0|0,3:0|0:0,0:0:0:0:
192,69,241881,2,0,B|195:34|195:34|219:79,1,67.5000025749208,8|0,0:0|0:0,0:0:0:0:
275,231,242051,5,4,3:2:0:0:
248,282,242222,1,0,0:0:0:0:
188,305,242392,1,0,0:0:0:0:
126,263,242563,1,0,0:0:0:0:
191,194,242733,5,10,0:1:0:0:
138,384,242903,1,2,0:0:0:0:
133,365,243074,1,2,0:0:0:0:
0,254,243244,1,2,3:2:0:0:
62,114,243415,5,2,0:1:0:0:
106,271,243585,1,2,0:0:0:0:
138,5,243756,5,2,3:2:0:0:
191,194,243926,1,2,0:0:0:0:
233,115,244096,5,10,0:1:0:0:
512,185,244267,1,2,3:2:0:0:
256,244,244437,5,2,0:0:0:0:
395,279,244608,1,2,0:0:0:0:
279,373,244778,6,0,P|291:330|306:300,1,67.5000025749208,2|2,3:1|0:0,0:0:0:0:
191,194,245119,1,2,0:0:0:0:
185,176,245290,1,0,0:0:0:0:
306,38,245460,5,10,0:1:0:0:
239,258,245631,2,0,P|204:286|175:302,1,67.5000025749208,2|0,0:0|0:0,0:0:0:0:
106,271,245971,1,2,0:0:0:0:
185,298,246142,6,0,L|177:347,1,45,2|0,3:1|0:0,0:0:0:0:
64,145,246483,6,0,L|54:87,1,56.25,8|0,0:0|0:0,0:0:0:0:
185,176,246653,1,0,3:0:0:0:
191,194,246738,1,0,3:0:0:0:
176,208,246824,6,0,L|98:232,1,56.25,10|0,0:1|0:0,0:0:0:0:
2,262,246994,1,0,3:0:0:0:
216,11,247165,6,0,L|236:106,1,67.5000025749208,8|0,0:0|0:0,0:0:0:0:
286,375,247335,2,0,L|306:280,1,67.5000025749208,8|0,0:0|0:0,0:0:0:0:
365,148,247506,6,0,B|394:139|394:139|396:134|396:134|432:124|432:124|437:126|437:126|473:114|473:114|483:97|483:97|534:100|534:100|494:132|494:132|476:122|476:122|440:133|440:133|436:138|436:138|400:149|400:149|396:146|396:146|361:156|361:156|370:212|407:234|407:234|372:215|329:199|329:199|325:203|325:203|263:183|2:262|2:262|263:183|303:131|303:131|308:130|308:130|342:103|353:58|353:58|343:107|358:145,1,1403.99993572998,6|0,3:0|0:0,0:0:0:0:
