osu file format v14

[General]
AudioFilename: audio.mp3
AudioLeadIn: 0
PreviewTime: 172539
Countdown: 0
SampleSet: Soft
StackLeniency: 0.5
Mode: 0
LetterboxInBreaks: 0
WidescreenStoryboard: 0

[Editor]
DistanceSpacing: 1
BeatDivisor: 4
GridSize: 8
TimelineZoom: 1.9

[Metadata]
Title:Never Lost Word
TitleUnicode:失想ワアド
Artist:Mary
ArtistUnicode:めありー
Creator:W M
Version:doushiyou
Source:
Tags:
BeatmapID:2060358
BeatmapSetID:984701

[Difficulty]
HPDrainRate:6
CircleSize:4
OverallDifficulty:8.5
ApproachRate:9.3
SliderMultiplier:1.3
SliderTickRate:1

[Events]
//Background and Video events
//Break Periods
//Storyboard Layer 0 (Background)
//Storyboard Layer 1 (Fail)
//Storyboard Layer 2 (Pass)
//Storyboard Layer 3 (Foreground)
//Storyboard Sound Samples

[TimingPoints]
845,338.983050847458,4,2,1,60,1,0
845,-111.111111111111,4,2,1,30,0,0
8811,-120.481927710843,4,2,1,30,0,0
10675,-111.111111111111,4,2,1,30,0,0
11692,-100,4,2,1,30,0,0
14404,-95.2380952380952,4,2,1,33,0,0
17116,-90.9090909090909,4,2,1,37,0,0
22539,-83.3333333333333,4,2,1,45,0,0
33726,-100,4,2,1,35,0,0
51522,-125,4,2,1,35,0,0
53726,-111.111111111111,4,2,1,35,0,0
55082,-100,4,2,1,35,0,0
65929,-111.111111111111,4,2,1,35,0,0
76777,-100,4,2,1,35,0,0
87624,-90.9090909090909,4,2,1,35,0,0
100675,-166.666666666667,4,2,1,35,0,0
101183,-76.9230769230769,4,2,1,60,0,1
110675,-90.9090909090909,4,2,1,60,0,1
111183,-111.111111111111,4,2,1,60,0,1
112031,-76.9230769230769,4,2,1,60,0,1
120167,-90.9090909090909,4,2,1,60,0,1
122878,-125,4,2,1,60,0,0
132200,-111.111111111111,4,2,1,60,0,0
132370,-100,4,2,1,60,0,0
178472,-100,4,2,1,60,0,1
200167,-100,4,2,1,60,0,0
232709,-100,4,2,1,60,0,1
235421,-100,4,2,1,60,0,0
236777,-100,4,2,1,60,0,1
257116,-100,4,2,1,60,0,0

[HitObjects]
284,201,845,6,0,L|288:272,1,58.4999982147217
183,227,1183,2,0,L|177:288,1,58.4999982147217
305,176,1522,2,0,L|309:247,1,58.4999982147217
207,210,1860,2,0,L|201:271,1,58.4999982147217
292,257,2200,6,0,L|278:179,1,58.4999982147217
197,257,2539,1,0,0:0:0:0:
221,180,2709,1,0,0:0:0:0:
139,258,2878,2,0,P|173:254|220:265,2,58.4999982147217
92,130,3387,6,0,L|72:56,1,58.4999982147217
180,180,3726,2,0,L|200:100,1,58.4999982147217
125,106,4065,2,0,L|107:30,1,58.4999982147217
215,150,4404,2,0,L|234:66,1,58.4999982147217
92,130,4743,6,0,P|47:133|15:144,2,58.4999982147217
215,150,5251,1,0,0:0:0:0:
153,191,5421,1,0,0:0:0:0:
160,79,5590,1,0,0:0:0:0:
160,79,5760,2,0,P|156:35|160:1,1,58.4999982147217
306,100,6099,6,0,B|257:90|224:114|224:114|174:105,1,116.999996429443
204,204,6607,2,0,L|192:277,1,58.4999982147217
305,231,6946,2,0,L|322:151,1,58.4999982147217
225,243,7285,2,0,L|208:322,1,58.4999982147217
337,206,7624,2,0,L|349:125,1,58.4999982147217
386,108,7963,1,0,0:0:0:0:
286,137,8133,2,0,P|287:102|296:62,1,58.4999982147217
386,108,8472,2,0,P|383:151|373:186,1,58.4999982147217
328,300,8811,6,0,B|344:263|333:230|321:206|329:182|329:182|338:157|378:147,1,161.850002346153
426,195,9658,1,0,0:0:0:0:
426,195,9997,1,0,0:0:0:0:
349,262,10336,5,0,0:0:0:0:
349,262,10675,2,0,B|314:272|290:266|271:269|271:269|260:265|260:265|212:265,1,116.999996429443
133,228,11183,1,0,0:0:0:0:
181,148,11353,1,0,0:0:0:0:
181,148,11438,1,0,0:0:0:0:
181,148,11522,1,0,0:0:0:0:
19,206,11692,5,0,0:0:0:0:
142,235,11861,1,0,0:0:0:0:
142,235,11946,1,0,0:0:0:0:
142,235,12031,2,0,P|199:232|224:218,1,65
231,108,12370,1,0,0:0:0:0:
231,108,12539,2,0,B|195:91|183:57|155:47|155:47|210:54,1,130
219,47,12963,1,0,0:0:0:0:
233,54,13048,6,0,L|325:43,1,65
337,151,13387,1,0,0:0:0:0:
337,151,13556,2,0,L|410:139,1,65
445,241,13895,1,0,0:0:0:0:
348,284,14065,1,0,0:0:0:0:
401,140,14234,1,0,0:0:0:0:
311,219,14573,5,0,0:0:0:0:
311,219,14658,1,0,0:0:0:0:
311,219,14743,2,0,P|258:234|218:232,1,68.2499979171754
128,239,15082,1,0,0:0:0:0:
128,239,15251,2,0,B|143:283|150:314|149:339|149:339|177:297,1,136.499995834351
188,302,15675,1,0,0:0:0:0:
210,293,15760,6,0,L|248:228,1,68.2499979171754
206,130,16099,1,0,0:0:0:0:
206,130,16268,2,0,L|245:56,1,68.2499979171754
120,69,16607,1,0,0:0:0:0:
234,22,16777,1,0,0:0:0:0:
128,239,16946,1,0,0:0:0:0:
120,69,17285,5,0,0:0:0:0:
120,69,17370,1,0,0:0:0:0:
120,69,17455,2,0,P|114:108|118:159,1,71.5000021820069
237,221,17794,1,0,0:0:0:0:
237,221,17963,2,0,B|277:223|307:231|332:249|332:249|316:201,1,143.000004364014
294,170,18387,1,0,0:0:0:0:
273,155,18472,6,0,L|180:188,1,71.5000021820069
229,325,18811,1,0,0:0:0:0:
229,325,18980,2,0,L|138:355,1,71.5000021820069
85,366,19319,1,0,0:0:0:0:
4,300,19489,1,0,0:0:0:0:
268,288,19658,1,0,0:0:0:0:
268,288,22539,5,0,0:0:0:0:
203,193,22709,5,0,0:0:0:0:
203,193,22794,1,0,0:0:0:0:
203,193,22878,2,0,P|226:131|246:106,1,77.999997619629
401,179,23217,2,0,P|402:220|388:274,2,77.999997619629
339,90,23726,1,0,0:0:0:0:
324,296,23895,5,0,0:0:0:0:
233,122,24065,1,0,0:0:0:0:
325,273,24234,1,0,0:0:0:0:
277,128,24404,1,0,0:0:0:0:
327,252,24573,1,0,0:0:0:0:
315,133,24743,1,0,0:0:0:0:
329,227,24912,1,0,0:0:0:0:
356,137,25082,1,0,0:0:0:0:
149,107,25251,5,0,0:0:0:0:
294,63,25421,1,0,0:0:0:0:
294,63,25506,1,0,0:0:0:0:
294,63,25590,2,0,P|243:58|211:58,1,77.999997619629
131,173,25929,2,0,P|121:218|123:279,2,77.999997619629
192,73,26438,1,0,0:0:0:0:
378,179,26607,5,0,0:0:0:0:
246,325,26777,1,0,0:0:0:0:
343,197,26946,1,0,0:0:0:0:
204,293,27116,1,0,0:0:0:0:
307,212,27285,1,0,0:0:0:0:
162,258,27455,1,0,0:0:0:0:
272,229,27624,1,0,0:0:0:0:
125,229,27794,1,0,0:0:0:0:
400,158,27963,5,0,0:0:0:0:
277,125,28133,1,0,0:0:0:0:
277,125,28217,1,0,0:0:0:0:
277,125,28302,2,0,P|274:68|279:29,1,77.999997619629
186,206,28641,2,0,P|129:204|90:188,2,77.999997619629
400,158,29150,1,0,0:0:0:0:
222,108,29319,5,0,0:0:0:0:
319,354,29489,1,0,0:0:0:0:
198,157,29658,1,0,0:0:0:0:
309,300,29828,1,0,0:0:0:0:
174,205,29997,1,0,0:0:0:0:
299,246,30167,1,0,0:0:0:0:
150,254,30336,1,0,0:0:0:0:
289,192,30506,1,0,0:0:0:0:
260,23,30675,5,0,0:0:0:0:
203,133,30845,1,0,0:0:0:0:
203,133,30929,1,0,0:0:0:0:
203,133,31014,2,0,P|200:189|212:244,1,77.999997619629
364,142,31353,2,0,P|308:131|261:137,1,77.999997619629
174,220,31692,1,0,0:0:0:0:
174,220,31777,1,0,0:0:0:0:
174,220,31861,1,0,0:0:0:0:
288,132,32031,6,0,P|288:79|280:39,1,77.999997619629
98,129,32370,1,0,0:0:0:0:
187,51,32539,1,0,0:0:0:0:
174,220,32709,1,0,0:0:0:0:
193,239,32794,1,0,0:0:0:0:
217,251,32878,1,0,0:0:0:0:
244,249,32963,1,0,0:0:0:0:
268,241,33048,1,0,0:0:0:0:
293,249,33133,1,0,0:0:0:0:
312,268,33217,1,0,0:0:0:0:
335,282,33302,1,0,0:0:0:0:
362,284,33387,1,0,0:0:0:0:
371,161,33726,5,0,0:0:0:0:
371,161,33895,2,0,B|359:130|361:109|361:109|330:120|300:101|266:121,1,130
192,196,34404,1,0,0:0:0:0:
192,196,34573,2,0,P|191:133|201:62,1,130
472,131,35082,5,0,0:0:0:0:
472,131,35251,2,0,B|446:160|446:160|440:112|400:89|361:88,1,130
316,210,35760,1,0,0:0:0:0:
316,210,35929,2,0,P|312:264|319:341,1,130
90,236,36438,5,0,0:0:0:0:
90,236,36607,2,0,B|122:231|141:242|141:242|192:226|235:239,1,130
224,97,37116,1,0,0:0:0:0:
224,97,37285,2,0,L|67:128,1,130
17,293,37794,5,0,0:0:0:0:
17,293,37963,2,0,B|28:256|19:217|19:217|29:184|25:137,1,130
189,238,38472,1,0,0:0:0:0:
189,238,38641,2,0,L|320:182,1,130
452,121,39150,5,0,0:0:0:0:
452,121,39319,2,0,B|476:189|476:189|448:259,1,130
316,325,39828,1,0,0:0:0:0:
316,325,39997,2,0,P|311:289|319:233,1,65
399,92,40336,2,0,P|402:131|396:176,1,65
316,325,40675,2,0,P|311:289|319:233,1,65
399,92,41014,2,0,P|402:131|396:176,1,65
379,284,41353,1,0,0:0:0:0:
296,181,41522,6,0,B|278:126|297:112|294:73|294:73|325:67,1,130
464,92,42031,1,0,0:0:0:0:
464,92,42200,2,0,L|370:92,1,65
245,48,42539,2,0,P|242:93|245:130,1,65
399,92,42878,5,0,0:0:0:0:
334,218,43048,1,0,0:0:0:0:
314,44,43217,1,0,3:0:0:0:
314,44,43302,1,0,3:0:0:0:
314,44,43387,2,0,B|274:30|274:30|237:28,1,65
146,160,43726,1,0,0:0:0:0:
141,305,44065,5,0,0:0:0:0:
141,305,44150,1,0,0:0:0:0:
141,305,44234,2,0,L|139:377,1,65
229,200,44573,5,0,0:0:0:0:
229,200,44743,2,0,B|174:164|161:78,1,130
298,11,45251,1,0,0:0:0:0:
298,11,45421,2,0,B|281:52|281:52|291:101|291:101|277:153,1,130
215,317,45929,5,0,0:0:0:0:
215,317,46099,2,0,P|278:306|363:330,1,130
360,177,46607,1,0,0:0:0:0:
360,177,46777,2,0,B|349:127|349:127|359:91|359:91|352:31,1,130
228,61,47285,5,0,0:0:0:0:
228,61,47455,2,0,L|295:55,1,65
424,70,47794,1,0,0:0:0:0:
349,157,47963,1,0,0:0:0:0:
349,157,48133,2,0,B|308:130|308:130|296:38,1,130
424,70,48641,5,0,0:0:0:0:
424,70,48811,2,0,P|464:84|500:111,2,65
421,228,49319,1,0,0:0:0:0:
338,149,49489,2,0,L|417:150,1,65
338,307,49997,5,0,0:0:0:0:
338,307,50167,2,0,L|418:316,1,65
498,327,50506,1,0,0:0:0:0:
405,381,50675,1,0,0:0:0:0:
445,152,50845,6,0,P|447:100|437:64,1,65
270,161,51183,2,0,P|266:208|274:251,1,65
441,311,51522,2,0,B|450:269|434:236|434:236|403:254,1,104
222,321,52031,1,0,0:0:0:0:
291,239,52200,1,0,0:0:0:0:
201,74,52370,2,0,P|197:131|207:186,2,104
272,45,53217,1,0,0:0:0:0:
204,177,53387,1,0,0:0:0:0:
304,155,53556,1,0,0:0:0:0:
120,88,53726,6,0,B|88:119|81:140|71:169|71:169|61:144,1,116.999996429443
118,296,54234,2,0,B|113:265|105:249|114:215|114:215|155:235,1,116.999996429443
255,290,54743,1,0,0:0:0:0:
255,290,54912,1,0,0:0:0:0:
130,152,55082,5,0,0:0:0:0:
250,157,55251,1,0,0:0:0:0:
250,157,55336,1,0,0:0:0:0:
250,157,55421,2,0,L|322:157,1,65
452,219,55760,1,0,0:0:0:0:
394,166,55929,2,0,B|350:174|309:164|309:164|265:218,1,130
297,226,56353,1,0,0:0:0:0:
311,244,56438,6,0,P|361:250|394:243,1,65
441,175,56777,2,0,L|447:100,1,58.4999982147217
386,64,57116,1,0,0:0:0:0:
320,165,57285,1,0,0:0:0:0:
307,12,57455,1,0,0:0:0:0:
136,171,57624,1,0,0:0:0:0:
145,180,57963,5,0,0:0:0:0:
145,180,58048,1,0,0:0:0:0:
145,181,58133,2,0,P|139:140|145:99,1,65
281,90,58472,1,0,0:0:0:0:
220,176,58641,2,0,B|180:256|180:256|206:246|241:255,1,130
275,258,59065,1,0,0:0:0:0:
293,277,59150,6,0,P|331:275|370:283,1,65
477,368,59489,2,0,P|479:314|469:282,1,65
413,217,59828,1,0,0:0:0:0:
323,283,59997,1,0,0:0:0:0:
512,311,60167,1,0,0:0:0:0:
385,94,60336,1,0,0:0:0:0:
359,208,60675,5,0,0:0:0:0:
359,208,60760,1,0,0:0:0:0:
359,208,60845,2,0,P|407:220|441:216,1,65
385,94,61183,1,0,0:0:0:0:
274,169,61353,2,0,L|198:197,1,65
104,209,61692,5,0,0:0:0:0:
104,209,61777,1,0,0:0:0:0:
104,209,61861,2,0,L|172:186,1,65
270,263,62200,2,0,P|263:304|247:330,1,65
178,310,62539,1,0,0:0:0:0:
104,209,62709,1,0,0:0:0:0:
274,169,62878,1,0,0:0:0:0:
107,40,63048,1,0,0:0:0:0:
192,101,63387,5,0,0:0:0:0:
192,101,63472,1,0,0:0:0:0:
192,101,63556,2,0,P|239:93|281:101,1,65
385,199,63895,1,0,0:0:0:0:
357,74,64065,1,0,0:0:0:0:
247,228,64234,1,0,0:0:0:0:
363,260,64404,5,0,0:0:0:0:
363,260,64489,1,0,0:0:0:0:
363,260,64573,2,0,P|381:213|388:178,1,65
376,13,64912,2,0,P|362:50|356:90,1,65
363,260,65251,1,0,0:0:0:0:
271,140,65421,1,0,0:0:0:0:
252,295,65590,1,0,0:0:0:0:
434,165,65760,1,0,0:0:0:0:
434,165,66268,5,0,0:0:0:0:
434,165,66438,1,0,0:0:0:0:
297,148,66607,2,0,L|225:132,1,58.4999982147217
53,61,66946,1,0,0:0:0:0:
157,28,67116,2,0,B|162:72|154:98|149:124|149:124|179:113,1,116.999996429443
281,93,67624,5,0,0:0:0:0:
281,93,67794,2,0,P|230:89|202:97,2,58.4999982147217
431,152,68302,1,0,0:0:0:0:
358,184,68472,1,0,0:0:0:0:
410,355,68641,6,0,B|421:321|421:321|401:278|401:278|411:252|412:223,1,116.999996429443
457,187,69150,1,0,0:0:0:0:
327,157,69319,2,0,P|315:118|377:74,1,116.999996429443
457,187,69828,2,0,P|411:194|371:193,1,58.4999982147217
265,218,70167,5,0,0:0:0:0:
368,91,70336,1,0,0:0:0:0:
400,195,70506,2,0,B|383:160|395:115|395:115|351:76,1,116.999996429443
270,83,71014,1,0,0:0:0:0:
416,4,71183,1,0,0:0:0:0:
459,103,71353,2,0,B|468:128|468:128|461:168,1,58.4999982147217
309,270,71692,5,0,0:0:0:0:
309,270,71861,2,0,P|340:219|341:147,1,116.999996429443
225,89,72370,1,0,0:0:0:0:
313,62,72539,2,0,L|384:62,1,58.4999982147217
280,170,72878,2,0,L|205:170,1,58.4999982147217
334,253,73217,2,0,L|405:254,1,58.4999982147217
426,183,73556,1,0,0:0:0:0:
280,170,73726,1,0,0:0:0:0:
334,253,73895,1,0,0:0:0:0:
259,369,74065,6,0,P|259:323|264:288,1,58.4999982147217
393,132,74404,1,0,0:0:0:0:
280,170,74573,1,0,0:0:0:0:
280,170,74743,2,0,L|198:164,1,58.4999982147217
105,258,75082,2,0,L|183:264,1,58.4999982147217
321,278,75421,5,0,0:0:0:0:
390,221,75590,1,0,0:0:0:0:
279,170,75760,1,0,0:0:0:0:
381,103,75929,1,0,0:0:0:0:
321,278,76099,1,0,0:0:0:0:
321,278,76268,1,0,0:0:0:0:
305,78,76438,1,0,0:0:0:0:
279,170,76607,1,0,0:0:0:0:
53,94,76777,6,0,B|83:111|83:111|138:90|193:100,1,130
225,191,77285,2,0,B|232:148|232:148|224:88|233:49,1,130
379,20,77794,1,0,0:0:0:0:
379,20,77963,2,0,P|380:71|368:109,1,65
317,199,78302,1,0,0:0:0:0:
479,93,78472,1,0,0:0:0:0:
380,88,78641,2,0,P|337:86|286:95,1,65
205,98,78980,1,0,0:0:0:0:
317,199,79150,2,0,L|394:199,1,65
479,93,79489,6,0,B|475:149|475:149|488:187|488:187|483:235,1,130
306,279,79997,2,0,P|337:246|349:215,1,65
330,132,80336,1,0,0:0:0:0:
176,195,80506,1,0,0:0:0:0:
254,216,80675,1,0,0:0:0:0:
211,69,80845,6,0,L|147:70,1,65
176,195,81183,1,0,0:0:0:0:
176,195,81353,2,0,L|174:104,2,65
292,349,81861,1,0,0:0:0:0:
304,265,82031,1,0,0:0:0:0:
271,82,82200,6,0,P|266:132|282:224,1,130
427,143,82709,2,0,P|430:76|417:11,1,130
206,88,83217,1,0,0:0:0:0:
206,88,83387,2,0,P|265:81|301:87,1,65
424,140,83726,1,0,0:0:0:0:
372,50,83895,1,0,0:0:0:0:
325,235,84065,2,0,P|276:238|253:233,1,65
185,166,84404,1,0,0:0:0:0:
311,72,84573,2,0,P|343:57|397:48,1,65
396,226,84912,6,0,B|411:262|411:262|314:231,1,130
225,154,85421,1,0,0:0:0:0:
225,154,85506,1,0,0:0:0:0:
225,154,85590,1,0,0:0:0:0:
334,85,85760,1,0,0:0:0:0:
94,137,85929,1,0,0:0:0:0:
152,236,86099,6,0,P|167:187|159:108,1,130
98,78,86607,1,0,0:0:0:0:
238,29,86777,1,0,0:0:0:0:
238,29,86861,1,0,0:0:0:0:
238,29,86946,1,0,0:0:0:0:
195,158,87116,1,0,0:0:0:0:
320,140,87285,1,0,0:0:0:0:
352,155,87370,1,0,0:0:0:0:
387,159,87455,1,0,0:0:0:0:
422,157,87539,1,0,0:0:0:0:
468,133,87624,6,0,P|470:183|459:229,1,71.5000021820069
303,314,87963,2,0,P|300:264|308:221,1,71.5000021820069
407,103,88302,1,0,0:0:0:0:
317,138,88472,1,0,0:0:0:0:
463,198,88641,1,0,0:0:0:0:
389,7,88811,1,0,0:0:0:0:
490,79,88980,5,0,0:0:0:0:
317,138,89150,1,0,0:0:0:0:
463,198,89319,1,0,0:0:0:0:
380,267,89489,2,0,P|339:273|294:266,1,71.5000021820069
226,305,89828,1,0,0:0:0:0:
243,139,89997,1,0,0:0:0:0:
243,139,90167,1,0,0:0:0:0:
310,225,90336,6,0,P|351:232|405:217,1,71.5000021820069
226,305,90675,2,0,P|184:307|148:296,1,71.5000021820069
87,262,91014,1,0,0:0:0:0:
143,132,91183,1,0,0:0:0:0:
226,305,91353,1,0,0:0:0:0:
115,236,91522,1,0,0:0:0:0:
228,178,91692,6,0,L|318:180,1,71.5000021820069
403,281,92031,2,0,L|322:277,1,71.5000021820069
219,260,92370,1,0,0:0:0:0:
156,172,92539,1,0,0:0:0:0:
299,179,92709,2,0,L|228:176,1,71.5000021820069
74,206,93048,5,0,0:0:0:0:
178,85,93217,1,0,0:0:0:0:
231,311,93387,1,0,0:0:0:0:
156,172,93556,2,0,P|157:135|167:81,1,71.5000021820069
283,30,93895,1,0,0:0:0:0:
350,158,94065,1,0,0:0:0:0:
251,138,94234,1,0,0:0:0:0:
468,128,94404,5,0,0:0:0:0:
468,128,94573,2,0,P|459:78|468:41,1,71.5000021820069
472,249,94912,1,0,0:0:0:0:
350,158,95082,1,0,0:0:0:0:
419,88,95251,1,0,0:0:0:0:
401,256,95421,2,0,P|432:258|458:254,2,35.7500010910034
260,216,95760,6,0,B|282:211|311:225|311:225|319:182|335:154|335:154|353:160|379:157,1,143.000004364014
442,194,96268,1,0,0:0:0:0:
262,136,96438,6,0,P|209:131|168:136,1,71.5000021820069
125,248,96777,1,0,0:0:0:0:
125,248,96946,2,0,P|185:272|200:191,1,143.000004364014
181,69,97455,1,0,0:0:0:0:
262,136,97624,1,0,0:0:0:0:
161,217,97794,6,0,L|82:216,1,71.5000021820069
75,346,98133,1,0,0:0:0:0:
75,346,98302,2,0,B|94:291|95:255|68:216|68:216|97:206,1,143.000004364014
236,100,98811,1,0,0:0:0:0:
121,92,98980,1,0,0:0:0:0:
231,237,99150,6,0,P|239:188|236:149,1,71.5000021820069
233,26,99489,1,0,0:0:0:0:
121,92,99658,1,0,0:0:0:0:
121,92,99743,1,0,0:0:0:0:
121,92,99828,1,0,0:0:0:0:
320,175,99997,1,0,0:0:0:0:
285,54,100167,1,0,0:0:0:0:
178,158,100336,1,0,0:0:0:0:
191,198,100421,1,0,0:0:0:0:
194,240,100506,1,0,0:0:0:0:
188,282,100590,1,0,0:0:0:0:
165,330,100675,6,0,B|185:328|207:342|207:342|195:333|200:327|200:327|217:337|268:340,1,116.999996429443
352,251,101353,5,0,0:0:0:0:
276,139,101522,1,0,0:0:0:0:
381,158,101692,1,0,0:0:0:0:
246,248,101861,1,0,0:0:0:0:
455,233,102031,1,0,0:0:0:0:
276,139,102200,1,0,0:0:0:0:
366,306,102370,1,0,0:0:0:0:
432,46,102539,5,0,0:0:0:0:
432,46,102709,1,0,0:0:0:0:
206,81,102878,1,0,0:0:0:0:
353,191,103048,2,0,P|402:195|448:180,1,84.4999961318971
290,70,103387,2,0,P|249:72|197:85,2,84.4999961318971
412,99,103895,1,0,0:0:0:0:
240,257,104065,5,0,0:0:0:0:
287,133,104234,1,0,0:0:0:0:
160,126,104404,1,0,0:0:0:0:
322,195,104573,1,0,0:0:0:0:
261,91,104743,1,0,0:0:0:0:
240,257,104912,1,0,0:0:0:0:
150,163,105082,1,0,0:0:0:0:
425,135,105251,5,0,0:0:0:0:
425,135,105421,1,0,0:0:0:0:
179,91,105590,1,0,0:0:0:0:
305,16,105760,2,0,P|310:67|296:117,1,84.4999961318971
207,251,106099,2,0,P|205:207|213:161,2,84.4999961318971
344,331,106607,1,0,0:0:0:0:
211,167,106777,5,0,0:0:0:0:
343,176,106946,1,0,0:0:0:0:
190,82,107116,1,0,0:0:0:0:
134,233,107285,1,0,0:0:0:0:
89,48,107455,1,0,0:0:0:0:
76,200,107624,1,0,0:0:0:0:
190,82,107794,1,0,0:0:0:0:
150,354,107963,5,0,0:0:0:0:
150,354,108133,1,0,0:0:0:0:
328,214,108302,1,0,0:0:0:0:
111,178,108472,2,0,L|187:141,1,84.4999961318971
268,107,108811,1,0,0:0:0:0:
241,320,108980,1,0,0:0:0:0:
328,214,109150,1,0,0:0:0:0:
184,126,109319,6,0,B|160:129|160:129|165:94|132:77|100:73|100:73|65:115,1,168.999992263794
115,264,109828,1,0,0:0:0:0:
115,264,109912,1,0,0:0:0:0:
115,264,109997,2,0,P|176:246|212:199,1,84.4999961318971
217,103,110336,2,0,L|317:98,1,84.4999961318971
385,213,110675,6,0,P|390:148|384:102,1,107.25000327301
274,177,111014,1,0,0:0:0:0:
274,177,111099,1,0,0:0:0:0:
274,177,111183,2,0,P|220:184|165:178,1,87.7499973220826
160,133,111522,2,0,B|157:180|180:209|166:237|166:237|142:209|103:197,1,175.499994644165
74,130,112200,5,0,0:0:0:0:
63,4,112370,1,0,0:0:0:0:
195,58,112539,1,0,0:0:0:0:
5,78,112709,1,0,0:0:0:0:
40,9,112878,1,0,0:0:0:0:
62,226,113048,1,0,0:0:0:0:
117,97,113217,1,0,0:0:0:0:
351,198,113387,6,0,P|395:199|451:218,1,84.4999961318971
344,22,113726,1,0,0:0:0:0:
254,147,113895,2,0,P|253:206|257:243,1,84.4999961318971
383,337,114234,1,0,0:0:0:0:
339,93,114404,1,0,0:0:0:0:
255,231,114573,2,0,P|245:185|248:144,1,84.4999961318971
279,56,114912,5,0,0:0:0:0:
353,203,115082,1,0,0:0:0:0:
195,174,115251,1,0,0:0:0:0:
354,89,115421,1,0,0:0:0:0:
206,66,115590,1,0,0:0:0:0:
282,227,115760,1,0,0:0:0:0:
279,56,115929,1,0,0:0:0:0:
149,304,116099,6,0,P|146:251|152:211,1,84.4999961318971
206,66,116438,1,0,0:0:0:0:
435,163,116607,2,0,P|392:167|342:160,1,84.4999961318971
122,69,116946,2,0,P|157:61|212:67,1,84.4999961318971
345,201,117285,2,0,P|350:156|345:110,1,84.4999961318971
218,50,117624,5,0,0:0:0:0:
220,240,117794,1,0,0:0:0:0:
142,136,117963,1,0,0:0:0:0:
334,136,118133,1,0,0:0:0:0:
218,50,118302,1,0,0:0:0:0:
258,244,118472,1,0,0:0:0:0:
140,191,118641,1,0,0:0:0:0:
365,80,118811,6,0,P|416:76|452:81,2,84.4999961318971
177,155,119319,1,0,0:0:0:0:
177,155,119489,1,0,0:0:0:0:
317,178,119658,2,0,P|377:174|431:181,2,84.4999961318971
186,19,120167,6,0,B|161:65|161:65|178:166,1,143.000004364014
252,243,120675,1,0,0:0:0:0:
116,301,120845,1,0,0:0:0:0:
258,332,121014,1,0,0:0:0:0:
150,208,121183,1,0,0:0:0:0:
184,313,121353,6,0,P|188:266|173:216,1,71.5000021820069
138,120,121692,1,0,0:0:0:0:
138,120,121861,1,0,0:0:0:0:
138,120,122031,2,0,P|203:84|226:152,1,143.000004364014
149,259,122539,1,0,0:0:0:0:
135,181,122709,1,0,0:0:0:0:
332,274,122878,5,0,0:0:0:0:
332,274,123217,1,0,0:0:0:0:
332,274,123387,2,0,B|323:221|323:221|349:184|349:184|337:154|299:136,1,156
176,125,124064,1,0,0:0:0:0:
176,125,124149,1,0,0:0:0:0:
176,125,124234,6,0,L|105:124,1,52
164,218,124573,2,0,L|225:220,1,52
142,315,124912,2,0,L|89:314,1,52
61,201,125251,1,0,0:0:0:0:
137,249,125421,1,0,0:0:0:0:
125,81,125590,5,0,0:0:0:0:
125,81,125929,1,0,0:0:0:0:
125,81,126099,2,0,L|192:52,1,52
250,162,126438,1,0,0:0:0:0:
256,28,126607,1,0,0:0:0:0:
125,81,126777,2,0,L|197:79,1,52
279,186,127116,5,0,0:0:0:0:
282,51,127285,1,0,0:0:0:0:
149,104,127455,2,0,L|205:106,1,52
306,135,127794,1,0,0:0:0:0:
211,204,127963,1,0,0:0:0:0:
211,204,128133,1,0,0:0:0:0:
424,226,128302,6,0,P|407:269|395:231,1,104
341,133,128811,2,0,B|340:73|340:73|366:22,1,104
446,107,129319,1,0,0:0:0:0:
449,201,129489,2,0,L|448:275,1,52
296,193,129828,5,0,0:0:0:0:
391,144,129997,1,0,0:0:0:0:
394,238,130167,2,0,L|393:312,1,52
294,335,130506,1,0,0:0:0:0:
247,186,130675,5,0,0:0:0:0:
247,186,130845,1,0,0:0:0:0:
394,238,131014,1,0,0:0:0:0:
394,238,132200,6,0,L|397:131,1,87.7499973220826
373,43,132539,1,0,0:0:0:0:
373,43,132624,1,0,0:0:0:0:
373,43,132709,1,0,0:0:0:0:
230,97,132878,1,0,0:0:0:0:
334,123,133048,2,0,L|413:124,2,65
233,185,133556,1,0,0:0:0:0:
169,80,133726,5,0,0:0:0:0:
86,268,133895,1,0,0:0:0:0:
169,80,134065,1,0,0:0:0:0:
86,268,134234,1,0,0:0:0:0:
83,124,134404,5,0,0:0:0:0:
163,277,134573,1,0,0:0:0:0:
83,124,134743,1,0,0:0:0:0:
163,277,134912,1,0,0:0:0:0:
