osu file format v14

[General]
AudioFilename: audio.mp3
AudioLeadIn: 0
PreviewTime: 162523
Countdown: 0
SampleSet: Soft
StackLeniency: 0.2
Mode: 0
LetterboxInBreaks: 0
WidescreenStoryboard: 0

[Editor]
Bookmarks: 12186,22973,33759,55332,82298,87692,98478,109265,141624,206343
DistanceSpacing: 0.9
BeatDivisor: 4
GridSize: 32
TimelineZoom: 1.5

[Metadata]
Title:Leica
TitleUnicode:ライカ
Artist:Mary
ArtistUnicode:めありー
Creator:Mango Juice
Version:Insane
Source:
Tags:
BeatmapID:1907053
BeatmapSetID:912918

[Difficulty]
HPDrainRate:6
CircleSize:4
OverallDifficulty:8
ApproachRate:9
SliderMultiplier:1.8
SliderTickRate:1

[Events]
//Background and Video events
0,0,"bg.png",0,0
//Break Periods
2,89714,96119
2,133534,139602
//Storyboard Layer 0 (Background)
//Storyboard Layer 1 (Fail)
//Storyboard Layer 2 (Pass)
//Storyboard Layer 3 (Foreground)
//Storyboard Sound Samples

[TimingPoints]
5453,337.078651685393,4,2,1,40,1,0
22973,-250,4,2,1,40,0,0
23310,-100,4,2,1,40,0,0
28366,-250,4,2,1,40,0,0
28703,-100,4,2,1,40,0,0
33759,-111.111111111111,4,2,1,40,0,0
44546,-111.111111111111,4,2,1,100,0,0
44630,-111.111111111111,4,2,1,40,0,0
55332,-90.9090909090909,4,2,1,80,0,1
76905,-111.111111111111,4,2,1,40,0,0
109265,-89.2857142857143,4,2,1,80,0,1
130838,-111.111111111111,4,2,1,40,0,0
152411,-117.647058823529,4,2,1,70,0,0
163197,-153.846153846153,4,2,1,70,0,0
163450,-153.846153846153,4,2,1,5,0,0
163534,-83.3333333333333,4,2,1,80,0,1
173984,-166.666666666667,4,2,1,40,0,1
174321,-83.3333333333333,4,2,1,80,0,1
183759,-100,4,2,1,80,0,1
184770,-100,4,2,1,40,0,0

[Colours]
Combo1 : 248,228,97
Combo2 : 126,126,214
Combo3 : 138,193,255
Combo4 : 120,245,245
Combo5 : 254,170,86
Combo6 : 243,124,225

[HitObjects]
302,339,6295,5,0,0:0:0:0:
322,251,6464,1,8,0:0:0:0:
43,287,6801,6,0,B|115:279|115:279|147:295|147:295|235:287,1,180,2|8,0:0|0:0,0:0:0:0:
176,150,7306,1,0,0:0:0:0:
74,115,7475,2,0,P|69:169|83:205,1,90,2|2,0:0|0:0,0:0:0:0:
251,83,7812,1,8,0:0:0:0:
270,180,7981,6,0,P|355:207|441:184,1,180,2|2,0:0|0:0,0:0:0:0:
479,82,8487,1,8,0:0:0:0:
365,17,8655,2,0,L|354:117,1,90,2|0,0:0|0:0,0:0:0:0:
280,270,8992,1,0,0:0:0:0:
280,270,9160,2,0,L|270:180,1,90,8|0,0:0|0:0,0:0:0:0:
336,339,9497,54,0,B|280:373|225:339|225:339|192:361|128:346,1,180,2|8,0:0|0:0,0:0:0:0:
60,258,10003,1,0,0:0:0:0:
148,186,10172,2,0,P|169:276|161:305,1,90,2|2,0:0|0:0,0:0:0:0:
42,146,10509,1,8,0:0:0:0:
129,73,10677,6,0,B|201:80|201:80|233:64|233:64|305:72,1,180,2|2,0:0|0:0,0:0:0:0:
428,274,11183,1,8,0:0:0:0:
307,345,11351,21,0,0:0:0:0:
141,351,11520,1,0,0:0:0:0:
121,311,11604,1,0,0:0:0:0:
115,267,11688,1,0,0:0:0:0:
125,223,11772,1,0,0:0:0:0:
149,185,11857,1,0,0:0:0:0:
160,187,11941,1,0,0:0:0:0:
171,189,12025,1,0,0:0:0:0:
182,191,12109,1,0,0:0:0:0:
193,192,12194,6,0,P|212:258|206:312,1,90,4|0,0:0|0:0,0:0:0:0:
62,160,12531,2,0,P|109:110|159:88,1,90,8|0,0:0|0:0,0:0:0:0:
397,116,12868,1,2,0:0:0:0:
364,224,13037,1,2,0:0:0:0:
287,142,13205,1,8,0:0:0:0:
320,34,13374,1,0,0:0:0:0:
320,34,13458,1,0,0:0:0:0:
320,34,13542,6,0,P|253:33|219:48,1,90,4|0,0:0|0:0,0:0:0:0:
287,142,13879,1,8,0:0:0:0:
96,114,14048,2,0,P|101:62|109:21,1,90,0|2,0:0|0:0,0:0:0:0:
268,171,14385,1,2,0:0:0:0:
143,219,14554,2,0,P|145:262|155:308,1,90,8|0,0:0|0:0,0:0:0:0:
360,227,14891,54,0,P|369:183|371:138,1,90,4|0,0:0|0:0,0:0:0:0:
229,293,15228,2,0,P|262:323|299:347,1,90,8|0,0:0|0:0,0:0:0:0:
268,171,15565,1,2,0:0:0:0:
182,76,15733,1,2,0:0:0:0:
141,197,15902,1,8,0:0:0:0:
55,102,16070,1,0,0:0:0:0:
55,102,16154,1,0,0:0:0:0:
55,102,16238,6,0,P|33:19|49:-17,1,90,4|0,0:0|0:0,0:0:0:0:
133,38,16576,1,8,0:0:0:0:
89,279,16744,2,0,P|37:274|-4:266,1,90,0|2,0:0|0:0,0:0:0:0:
157,59,17082,1,2,0:0:0:0:
200,202,17250,2,0,P|243:200|289:190,1,90,8|0,0:0|0:0,0:0:0:0:
102,111,17587,6,0,P|112:157|121:216,1,90,4|0,0:0|0:0,0:0:0:0:
240,108,17924,2,0,P|247:60|256:19,1,90,8|0,0:0|0:0,0:0:0:0:
458,163,18261,1,0,0:0:0:0:
328,270,18430,1,0,0:0:0:0:
370,107,18599,1,8,0:0:0:0:
431,263,18767,1,0,0:0:0:0:
431,263,18851,1,0,0:0:0:0:
431,263,18936,54,0,P|414:320|390:353,1,90,4|0,0:0|0:0,0:0:0:0:
328,270,19273,1,8,0:0:0:0:
280,99,19441,2,0,P|329:99|400:109,1,90
304,263,19778,1,2,0:0:0:0:
186,151,19947,2,0,P|131:153|66:161,1,90,8|0,0:0|0:0,0:0:0:0:
139,342,20284,6,0,L|152:226,1,90
18,131,20621,2,0,L|28:220,1,90,8|0,0:0|0:0,0:0:0:0:
245,192,20958,1,2,0:0:0:0:
266,56,21126,1,2,0:0:0:0:
142,107,21295,1,8,0:0:0:0:
384,152,21464,1,0,0:0:0:0:
384,152,21547,1,0,0:0:0:0:
384,152,21632,6,0,P|389:107|369:58,1,90
299,119,21969,1,8,0:0:0:0:
142,107,22138,2,0,P|142:29|146:4,1,90
277,140,22475,1,0,0:0:0:0:
179,238,22644,1,8,0:0:0:0:
177,260,22728,1,0,0:0:0:0:
176,282,22812,1,0,0:0:0:0:
177,305,22896,1,0,0:0:0:0:
182,326,22981,6,0,P|237:331|244:329,1,54,4|0,0:0|0:0,0:0:0:0:
255,314,23318,38,0,P|308:311|356:305,1,90,8|0,0:0|0:0,0:0:0:0:
351,94,23655,1,0,0:0:0:0:
326,202,23823,1,0,0:0:0:0:
460,119,23992,1,8,0:0:0:0:
243,69,24160,6,0,P|192:67|139:75,1,90
326,202,24497,1,0,0:0:0:0:
326,202,24666,1,8,0:0:0:0:
197,167,24835,6,0,P|146:165|93:173,1,90,0|2,0:0|0:0,0:0:0:0:
301,310,25172,1,2,0:0:0:0:
326,202,25340,1,8,0:0:0:0:
219,234,25509,1,0,0:0:0:0:
407,277,25677,54,0,P|417:229|425:181,1,90,4|0,0:0|0:0,0:0:0:0:
235,59,26014,2,0,P|242:103|251:147,1,90,8|0,0:0|0:0,0:0:0:0:
439,99,26351,1,2,0:0:0:0:
350,83,26520,1,2,0:0:0:0:
423,188,26688,1,8,0:0:0:0:
219,234,26857,6,0,P|211:278|202:322,1,90
407,277,27194,1,0,0:0:0:0:
407,277,27363,5,8,0:0:0:0:
294,181,27531,2,0,P|286:136|277:92,1,90
202,322,27868,1,0,0:0:0:0:
112,231,28036,2,0,P|119:186|128:142,1,90,8|0,0:0|0:0,0:0:0:0:
479,308,28374,6,0,P|482:261|478:248,1,54,4|0,0:0|0:0,0:0:0:0:
455,240,28711,38,0,L|439:146,1,90,8|0,0:0|0:0,0:0:0:0:
353,120,29048,1,2,0:0:0:0:
369,209,29217,1,2,0:0:0:0:
299,267,29385,1,8,0:0:0:0:
115,143,29554,6,0,P|113:98|130:57,1,90
213,235,29891,1,2,0:0:0:0:
213,235,30059,5,8,0:0:0:0:
383,295,30228,2,0,P|385:250|369:209,1,90
213,235,30565,1,0,0:0:0:0:
228,325,30733,1,8,0:0:0:0:
299,267,30902,1,0,0:0:0:0:
142,293,31070,54,0,P|95:282|34:284,1,90,4|0,0:0|0:0,0:0:0:0:
158,155,31408,2,0,P|205:144|266:146,1,90,8|0,0:0|0:0,0:0:0:0:
213,235,31745,1,0,0:0:0:0:
165,69,31913,1,0,0:0:0:0:
332,110,32082,1,8,0:0:0:0:
158,155,32250,2,2,P|84:105|103:13,1,180
260,56,32756,6,0,L|254:109,3,45,8|2|2|2,0:0|0:0|0:0|0:0,0:0:0:0:
189,145,33093,6,2,L|195:198,3,45
154,224,33430,1,8,0:0:0:0:
129,213,33514,1,2,0:0:0:0:
102,210,33598,1,10,0:0:0:0:
75,212,33682,1,10,0:0:0:0:
56,220,33767,6,0,P|49:283|53:315,1,80.9999975280763,6|0,0:0|0:0,0:0:0:0:
166,176,34104,2,0,P|114:138|85:125,1,80.9999975280763,8|0,0:0|0:0,0:0:0:0:
149,293,34441,2,0,P|207:267|232:248,1,80.9999975280763,0|2,0:0|0:0,0:0:0:0:
234,135,34778,1,8,0:0:0:0:
234,135,34947,2,2,P|161:73|91:47,1,161.999995056153
20,146,35452,1,8,0:0:0:0:
166,176,35621,2,0,P|114:138|85:125,1,80.9999975280763
149,293,35958,1,0,0:0:0:0:
149,293,36127,2,0,P|207:267|232:248,1,80.9999975280763,8|0,0:0|0:0,0:0:0:0:
378,344,36464,5,0,0:0:0:0:
378,344,36633,2,0,P|319:318|294:299,1,80.9999975280763,0|8,0:0|0:0,0:0:0:0:
382,166,36969,1,2,0:0:0:0:
382,166,37138,2,0,L|373:264,1,80.9999975280763
465,72,37475,1,8,0:0:0:0:
465,72,37644,2,0,L|474:170,1,80.9999975280763,2|0,0:0|0:0,0:0:0:0:
313,109,37981,6,0,P|350:83|398:80,1,80.9999975280763,0|8,0:0|0:0,0:0:0:0:
238,140,38318,1,0,0:0:0:0:
238,140,38486,2,0,P|233:94|255:51,1,80.9999975280763
304,186,38823,2,0,P|308:231|286:274,1,80.9999975280763,8|0,0:0|0:0,0:0:0:0:
77,212,39160,54,0,B|146:204|146:204|178:220|178:220|266:212,1,161.999995056153,6|8,0:0|0:0,0:0:0:0:
2,243,39666,1,0,0:0:0:0:
2,243,39835,2,0,P|-2:197|19:154,1,80.9999975280763,2|2,0:0|0:0,0:0:0:0:
133,288,40172,1,8,0:0:0:0:
133,288,40341,2,0,P|137:333|115:376,1,80.9999975280763,2|2,0:0|0:0,0:0:0:0:
83,136,40677,5,0,0:0:0:0:
83,136,40846,2,0,L|169:125,1,80.9999975280763,8|0,0:0|0:0,0:0:0:0:
307,91,41183,2,0,L|221:80,1,80.9999975280763,2|0,0:0|0:0,0:0:0:0:
350,163,41520,2,0,L|436:152,1,80.9999975280763,8|0,0:0|0:0,0:0:0:0:
266,164,41857,6,0,P|258:223|268:259,1,80.9999975280763
339,299,42194,1,8,0:0:0:0:
181,304,42363,1,2,0:0:0:0:
181,304,42531,54,0,P|228:340|264:349,1,80.9999975280763
405,255,42868,2,0,P|357:291|321:300,1,80.9999975280763,8|0,0:0|0:0,0:0:0:0:
167,224,43205,6,0,L|156:119,1,80.9999975280763
237,126,43542,1,8,0:0:0:0:
182,66,43711,1,2,0:0:0:0:
320,173,43879,5,2,0:0:0:0:
311,93,44047,1,0,0:0:0:0:
359,259,44217,53,8,0:0:0:0:
399,189,44385,1,2,0:0:0:0:
414,338,44554,6,0,B|345:346|345:346|313:330|313:330|225:338,1,161.999995056153,4|8,0:0|0:0,0:0:0:0:
74,354,45059,1,0,0:0:0:0:
111,269,45228,1,2,0:0:0:0:
165,344,45396,1,2,0:0:0:0:
20,279,45565,2,0,P|31:225|56:193,1,80.9999975280763,8|0,0:0|0:0,0:0:0:0:
164,61,45902,5,2,0:0:0:0:
164,61,46070,2,0,P|183:96|188:135,1,80.9999975280763,2|8,0:0|0:0,0:0:0:0:
44,204,46408,2,0,B|92:233|142:204|142:204|174:227|228:210,1,161.999995056153,2|2,0:0|0:0,0:0:0:0:
349,182,46913,2,0,P|308:181|271:166,1,80.9999975280763,10|0,0:0|0:0,0:0:0:0:
314,23,47250,54,0,P|318:65|327:126,1,80.9999975280763,2|0,0:0|0:0,0:0:0:0:
441,260,47587,2,0,P|446:219|450:179,1,80.9999975280763,8|0,0:0|0:0,0:0:0:0:
266,209,47924,2,0,P|308:213|369:222,1,80.9999975280763,2|0,0:0|0:0,0:0:0:0:
503,336,48261,2,0,P|462:341|422:345,1,80.9999975280763,8|0,0:0|0:0,0:0:0:0:
243,323,48599,5,2,0:0:0:0:
243,323,48767,2,0,P|202:328|162:332,1,80.9999975280763,0|8,0:0|0:0,0:0:0:0:
0,236,49104,2,0,B|69:244|69:244|101:228|101:228|189:236,1,161.999995056153,2|2,0:0|0:0,0:0:0:0:
168,58,49610,2,0,P|127:61|87:67,1,80.9999975280763,8|0,0:0|0:0,0:0:0:0:
213,148,49947,5,0,0:0:0:0:
268,64,50115,1,0,0:0:0:0:
168,58,50284,1,8,0:0:0:0:
313,154,50452,1,0,0:0:0:0:
313,154,50621,2,0,P|353:156|393:162,1,80.9999975280763,2|2,0:0|0:0,0:0:0:0:
113,142,50958,2,0,P|72:144|32:150,1,80.9999975280763,8|0,0:0|0:0,0:0:0:0:
258,238,51295,53,0,0:0:0:0:
213,148,51464,1,0,0:0:0:0:
113,142,51632,1,8,0:0:0:0:
203,322,51801,2,2,B|250:349|301:331|301:331|339:345|387:320,1,161.999995056153
338,173,52306,2,0,P|328:232|335:261,1,80.9999975280763,8|0,0:0|0:0,0:0:0:0:
425,112,52644,6,0,P|378:73|350:65,1,80.9999975280763,2|0,0:0|0:0,0:0:0:0:
212,152,52981,2,0,L|196:38,1,80.9999975280763,8|0,0:0|0:0,0:0:0:0:
61,280,53318,5,0,0:0:0:0:
61,280,53486,1,0,0:0:0:0:
110,138,53655,2,0,P|72:132|29:132,1,80.9999975280763,8|0,0:0|0:0,0:0:0:0:
178,360,53992,53,0,0:0:0:0:
227,218,54329,5,0,0:0:0:0:
462,207,54666,5,0,0:0:0:0:
432,197,54750,1,0,0:0:0:0:
402,196,54834,1,0,0:0:0:0:
372,200,54918,1,0,0:0:0:0:
344,212,55003,1,0,0:0:0:0:
317,224,55087,1,0,0:0:0:0:
287,229,55172,1,0,0:0:0:0:
256,226,55256,1,0,0:0:0:0:
227,218,55340,6,0,B|214:172|214:172|223:67,1,148.50000453186,4|2,0:0|0:0,0:0:0:0:
277,13,55677,2,0,P|299:80|287:119,1,99.0000030212403,8|0,0:0|0:0,0:0:0:0:
130,214,56014,2,0,B|202:205|202:205|236:222|236:222|329:214,1,198.000006042481,2|8,0:0|0:0,0:0:0:0:
447,264,56520,1,0,0:0:0:0:
447,264,56604,1,0,0:0:0:0:
447,264,56688,6,0,P|455:332|454:362,1,99.0000030212403,4|0,0:0|0:0,0:0:0:0:
415,156,57026,2,0,P|477:183|503:198,1,99.0000030212403,8|0,0:0|0:0,0:0:0:0:
312,127,57363,2,0,P|366:86|393:71,1,99.0000030212403,2|2,0:0|0:0,0:0:0:0:
370,328,57700,2,0,P|315:368|288:383,1,99.0000030212403,8|0,0:0|0:0,0:0:0:0:
80,306,58037,6,0,P|128:287|262:322,1,148.50000453186,4|2,0:0|0:0,0:0:0:0:
270,242,58374,2,0,P|222:221|156:214,1,99.0000030212403,8|0,0:0|0:0,0:0:0:0:
64,224,58711,1,2,0:0:0:0:
105,47,58879,1,2,0:0:0:0:
176,213,59048,1,8,0:0:0:0:
18,120,59217,2,0,P|-4:48|3:15,1,99.0000030212403
198,104,59554,1,2,0:0:0:0:
198,104,59638,1,0,0:0:0:0:
198,104,59722,54,0,L|303:89,1,99.0000030212403,8|0,0:0|0:0,0:0:0:0:
394,201,60059,2,0,L|289:186,1,99.0000030212403
226,303,60396,2,0,L|331:288,1,99.0000030212403,8|0,0:0|0:0,0:0:0:0:
464,102,60733,6,2,B|477:123|463:161|463:161|481:212|461:246,1,148.50000453186,6|2,0:0|0:0,0:0:0:0:
394,201,61070,2,0,P|340:190|289:186,1,99.0000030212403,8|0,0:0|0:0,0:0:0:0:
165,228,61408,1,0,0:0:0:0:
246,117,61576,1,0,0:0:0:0:
246,254,61745,1,8,0:0:0:0:
166,143,61914,1,0,0:0:0:0:
166,143,61997,1,0,0:0:0:0:
166,143,62082,6,0,P|167:85|194:48,1,99.0000030212403,2|0,0:0|0:0,0:0:0:0:
246,117,62419,1,8,0:0:0:0:
165,228,62587,2,0,P|110:208|83:171,1,99.0000030212403,2|0,0:0|0:0,0:0:0:0:
166,143,62924,1,0,0:0:0:0:
246,254,63093,2,0,P|211:299|167:313,1,99.0000030212403,8|0,0:0|0:0,0:0:0:0:
296,186,63430,54,0,B|368:177|368:177|402:194|402:194|495:186,1,198.000006042481,6|8,0:0|0:0,0:0:0:0:
424,20,63936,1,0,0:0:0:0:
424,20,64104,2,2,P|416:82|417:132,1,99.0000030212403
345,257,64441,1,8,0:0:0:0:
288,87,64610,1,0,0:0:0:0:
288,87,64694,1,0,0:0:0:0:
288,87,64778,6,2,P|296:149|295:199,1,99.0000030212403,4|0,0:0|0:0,0:0:0:0:
192,230,65115,1,8,0:0:0:0:
205,117,65284,1,0,0:0:0:0:
282,297,65452,1,2,0:0:0:0:
101,163,65621,1,2,0:0:0:0:
179,343,65790,1,8,0:0:0:0:
144,356,65874,1,2,0:0:0:0:
107,360,65958,1,2,0:0:0:0:
71,354,66042,1,2,0:0:0:0:
38,338,66127,6,0,P|29:294|23:227,1,99.0000030212403,6|0,0:0|0:0,0:0:0:0:
205,117,66464,1,8,0:0:0:0:
192,230,66632,1,0,0:0:0:0:
101,163,66801,2,0,P|110:118|116:51,1,99.0000030212403,2|2,0:0|0:0,0:0:0:0:
192,230,67138,1,8,0:0:0:0:
309,71,67306,1,0,0:0:0:0:
309,71,67391,1,0,0:0:0:0:
309,71,67475,54,0,P|415:65|436:66,1,99.0000030212403,2|0,0:0|0:0,0:0:0:0:
290,236,67812,2,0,P|240:230|191:229,1,99.0000030212403,8|0,0:0|0:0,0:0:0:0:
57,324,68149,1,2,0:0:0:0:
109,169,68319,1,2,0:0:0:0:
159,325,68486,1,8,0:0:0:0:
26,228,68655,1,0,0:0:0:0:
26,228,68739,1,0,0:0:0:0:
26,228,68823,6,0,P|8:145|48:80,1,148.50000453186,4|0,0:0|0:0,0:0:0:0:
111,89,69160,2,0,P|176:76|229:78,1,99.0000030212403,8|0,0:0|0:0,0:0:0:0:
389,67,69497,1,0,0:0:0:0:
247,180,69665,1,0,0:0:0:0:
294,4,69834,1,8,0:0:0:0:
359,174,70003,2,0,P|358:253|350:293,1,99.0000030212403
389,67,70340,1,0,0:0:0:0:
389,67,70424,1,0,0:0:0:0:
389,67,70509,6,0,P|462:92|498:112,1,99.0000030212403,8|0,0:0|0:0,0:0:0:0:
265,303,70846,1,2,0:0:0:0:
247,180,71014,1,0,0:0:0:0:
168,381,71183,1,8,0:0:0:0:
150,258,71351,1,0,0:0:0:0:
150,258,71436,1,0,0:0:0:0:
150,258,71520,54,0,P|134:199|150:108,1,148.50000453186,4|0,0:0|0:0,0:0:0:0:
88,67,71857,2,0,P|65:131|62:192,1,99.0000030212403,8|0,0:0|0:0,0:0:0:0:
271,94,72194,2,0,P|263:45|244:0,1,99.0000030212403,2|0,0:0|0:0,0:0:0:0:
247,180,72531,1,8,0:0:0:0:
405,123,72700,1,0,0:0:0:0:
405,123,72784,1,0,0:0:0:0:
405,123,72868,6,0,P|414:74|412:25,1,99.0000030212403,2|0,0:0|0:0,0:0:0:0:
394,259,73205,1,8,0:0:0:0:
467,209,73374,2,0,P|492:166|507:119,1,99.0000030212403,2|0,0:0|0:0,0:0:0:0:
271,94,73711,1,0,0:0:0:0:
247,180,73880,2,0,P|259:227|281:271,1,99.0000030212403,8|0,0:0|0:0,0:0:0:0:
271,94,74217,6,2,B|234:85|207:101|207:101|179:78|129:60|81:94|72:116,1,198.000006042481,6|8,0:0|0:0,0:0:0:0:
109,259,74722,1,0,0:0:0:0:
109,259,74891,2,0,P|131:215|143:167,1,99.0000030212403,2|2,0:0|0:0,0:0:0:0:
5,293,75228,1,8,0:0:0:0:
5,293,75312,1,0,0:0:0:0:
5,293,75396,54,0,P|31:334|67:369,1,99.0000030212403,0|2,0:0|0:0,0:0:0:0:
277,336,75733,1,0,0:0:0:0:
277,336,75902,2,0,P|229:349|180:351,1,99.0000030212403,8|2,0:0|0:0,0:0:0:0:
289,252,76239,5,8,0:0:0:0:
312,260,76323,1,0,0:0:0:0:
332,274,76407,1,0,0:0:0:0:
347,293,76491,1,0,0:0:0:0:
355,315,76576,5,8,0:0:0:0:
360,270,76660,1,0,0:0:0:0:
378,230,76744,1,0,0:0:0:0:
407,197,76828,1,0,0:0:0:0:
445,174,76913,6,0,B|385:167|385:167|353:183|353:183|265:175,1,161.999995056153,6|8,0:0|0:0,0:0:0:0:
232,50,77419,1,0,0:0:0:0:
334,22,77587,2,0,P|335:88|323:108,1,80.9999975280763,2|2,0:0|0:0,0:0:0:0:
205,152,77924,1,8,0:0:0:0:
130,77,78093,6,0,P|95:152|142:245,1,161.999995056153,2|2,0:0|0:0,0:0:0:0:
208,340,78599,1,8,0:0:0:0:
208,340,78767,2,2,P|213:292|215:252,1,80.9999975280763
319,120,79104,1,2,0:0:0:0:
319,120,79272,2,2,P|321:160|325:200,1,80.9999975280763,8|0,0:0|0:0,0:0:0:0:
214,259,79610,6,0,B|154:266|154:266|122:250|122:250|34:258,1,161.999995056153,6|8,0:0|0:0,0:0:0:0:
303,282,80115,1,0,0:0:0:0:
303,282,80284,2,2,P|300:225|271:187,1,80.9999975280763
208,340,80621,1,8,0:0:0:0:
371,354,80790,54,2,P|390:284|383:184,1,161.999995056153
319,120,81295,1,8,0:0:0:0:
319,120,81464,2,0,P|310:71|309:39,1,80.9999975280763
202,219,81801,1,2,0:0:0:0:
202,219,81970,2,0,P|211:170|211:138,1,80.9999975280763,8|0,0:0|0:0,0:0:0:0:
116,384,82306,38,0,P|107:335|106:303,1,80.9999975280763,0|4,0:0|0:0,0:0:0:0:
202,219,82644,1,8,0:0:0:0:
225,331,82812,1,0,0:0:0:0:
303,174,82981,1,0,0:0:0:0:
306,299,83149,1,0,0:0:0:0:
405,152,83318,1,8,0:0:0:0:
384,287,83486,6,0,P|413:292|473:279,1,80.9999975280763,4|0,0:0|0:0,0:0:0:0:
512,135,83823,1,0,0:0:0:0:
426,17,83992,1,8,0:0:0:0:
405,152,84161,1,0,0:0:0:0:
300,49,84329,1,0,0:0:0:0:
303,174,84497,1,0,0:0:0:0:
179,107,84666,1,8,0:0:0:0:
202,219,84834,1,0,0:0:0:0:
30,383,85003,6,0,P|23:338|30:299,1,80.9999975280763,0|4,0:0|0:0,0:0:0:0:
225,331,85340,1,8,0:0:0:0:
107,343,85509,1,0,0:0:0:0:
202,219,85677,1,0,0:0:0:0:
71,209,85846,1,0,0:0:0:0:
179,107,86014,1,8,0:0:0:0:
38,71,86183,54,0,P|66:98|106:118,1,80.9999975280763,4|0,0:0|0:0,0:0:0:0:
160,1,86520,1,0,0:0:0:0:
320,143,86688,1,8,0:0:0:0:
179,107,86856,1,0,0:0:0:0:
333,229,87026,1,0,0:0:0:0:
202,219,87195,1,0,0:0:0:0:
343,319,87363,1,8,0:0:0:0:
225,331,87532,1,0,0:0:0:0:
333,229,87700,5,2,0:0:0:0:
441,80,97138,22,0,P|439:124|433:166,1,80.9999975280763
383,240,97475,1,8,0:0:0:0:
256,194,97644,6,0,P|258:238|264:280,1,80.9999975280763
314,354,97981,1,0,0:0:0:0:
156,247,98149,1,8,0:0:0:0:
148,221,98233,1,2,0:0:0:0:
148,194,98318,1,2,0:0:0:0:
156,168,98402,1,2,0:0:0:0:
171,144,98486,6,0,P|181:95|171:44,1,80.9999975280763,4|0,0:0|0:0,0:0:0:0:
13,135,98823,2,0,P|50:168|99:185,1,80.9999975280763,8|0,0:0|0:0,0:0:0:0:
99,2,99160,2,0,P|51:17|12:52,1,80.9999975280763,2|2,0:0|0:0,0:0:0:0:
95,93,99497,1,8,0:0:0:0:
250,40,99666,1,0,0:0:0:0:
250,40,99835,54,0,P|301:36|357:36,1,80.9999975280763,2|0,0:0|0:0,0:0:0:0:
420,94,100172,1,8,0:0:0:0:
326,300,100340,2,0,B|334:231|334:231|318:199|318:199|326:111,1,161.999995056153,2|2,0:0|0:0,0:0:0:0:
236,239,100846,1,8,0:0:0:0:
228,347,101014,1,0,0:0:0:0:
138,286,101183,6,0,P|129:238|129:176,1,80.9999975280763,6|0,0:0|0:0,0:0:0:0:
231,73,101520,2,0,P|228:113|220:153,1,80.9999975280763,8|0,0:0|0:0,0:0:0:0:
316,228,101857,2,0,P|268:237|206:237,1,80.9999975280763,2|0,0:0|0:0,0:0:0:0:
43,96,102194,2,0,P|83:98|123:106,1,80.9999975280763,8|0,0:0|0:0,0:0:0:0:
335,34,102531,5,2,0:0:0:0:
335,34,102700,2,0,P|330:74|321:114,1,80.9999975280763,0|8,0:0|0:0,0:0:0:0:
427,269,103037,2,0,B|415:200|415:200|429:167|429:167|421:111,1,161.999995056153,2|2,0:0|0:0,0:0:0:0:
512,262,103542,2,0,P|504:301|499:342,1,80.9999975280763,8|0,0:0|0:0,0:0:0:0:
324,188,103879,54,0,P|331:227|337:267,1,80.9999975280763,2|0,0:0|0:0,0:0:0:0:
260,329,104217,1,8,0:0:0:0:
245,232,104385,1,0,0:0:0:0:
169,294,104554,2,0,P|161:333|155:373,1,80.9999975280763,2|2,0:0|0:0,0:0:0:0:
62,175,104891,2,0,P|69:214|75:254,1,80.9999975280763,10|2,0:0|0:0,0:0:0:0:
6,96,105228,5,0,0:0:0:0:
6,96,105396,2,0,P|88:84|115:98,1,80.9999975280763,2|8,0:0|0:0,0:0:0:0:
297,144,105733,2,0,P|212:162|108:140,1,161.999995056153,2|2,0:0|0:0,0:0:0:0:
259,0,106239,2,0,P|257:45|251:97,1,80.9999975280763,8|0,0:0|0:0,0:0:0:0:
403,213,106576,6,0,P|398:172|397:132,1,80.9999975280763,2|0,0:0|0:0,0:0:0:0:
425,53,106913,1,8,0:0:0:0:
320,304,107250,54,2,P|324:263|325:223,1,80.9999975280763
298,144,107587,1,10,0:0:0:0:
435,326,107924,5,2,0:0:0:0:
47,383,108599,5,2,0:0:0:0:
36,354,108683,1,0,0:0:0:0:
32,324,108767,1,0,0:0:0:0:
35,294,108851,1,0,0:0:0:0:
45,265,108936,1,2,0:0:0:0:
55,236,109021,1,0,0:0:0:0:
58,206,109105,1,0,0:0:0:0:
54,176,109189,1,0,0:0:0:0:
43,147,109273,6,0,P|33:93|63:-4,1,151.200001845703,6|0,0:0|0:0,0:0:0:0:
132,12,109610,2,0,P|183:30|230:67,1,100.800001230469,8|0,0:0|0:0,0:0:0:0:
125,161,109947,2,0,B|173:138|216:153|216:153|275:173|326:144,1,201.600002460938,2|8,0:0|0:0,0:0:0:0:
391,261,110452,1,0,0:0:0:0:
391,261,110537,1,0,0:0:0:0:
391,261,110621,6,0,P|390:334|385:365,1,100.800001230469,2|0,0:0|0:0,0:0:0:0:
388,150,110958,2,0,P|450:187|475:207,1,100.800001230469,8|0,0:0|0:0,0:0:0:0:
290,97,111295,2,0,P|353:61|383:50,1,100.800001230469,2|0,0:0|0:0,0:0:0:0:
297,320,111632,2,0,P|233:355|203:366,1,100.800001230469,8|0,0:0|0:0,0:0:0:0:
47,239,111969,6,0,B|108:231|108:231|137:245|137:245|216:239,1,151.200001845703,6|0,0:0|0:0,0:0:0:0:
260,193,112306,2,0,P|197:162|150:168,1,100.800001230469,8|0,0:0|0:0,0:0:0:0:
88,319,112644,1,2,0:0:0:0:
61,147,112813,1,2,0:0:0:0:
184,268,112981,1,8,0:0:0:0:
12,242,113149,2,0,P|2:310|4:348,1,100.800001230469
167,163,113486,1,0,0:0:0:0:
167,163,113570,1,0,0:0:0:0:
167,163,113655,54,0,P|167:112|158:63,1,100.800001230469,8|0,0:0|0:0,0:0:0:0:
308,6,113992,2,0,P|298:55|299:105,1,100.800001230469,2|0,0:0|0:0,0:0:0:0:
431,180,114329,2,0,P|431:129|422:80,1,100.800001230469,8|0,0:0|0:0,0:0:0:0:
336,211,114666,6,0,P|321:302|335:383,1,151.200001845703,4|0,0:0|0:0,0:0:0:0:
256,362,115003,2,0,P|249:295|256:244,1,100.800001230469,8|0,0:0|0:0,0:0:0:0:
85,222,115341,1,0,0:0:0:0:
242,155,115509,1,0,0:0:0:0:
155,302,115678,1,8,0:0:0:0:
140,131,115847,1,0,0:0:0:0:
140,131,115930,1,0,0:0:0:0:
140,131,116015,6,0,P|178:69|230:47,1,100.800001230469,2|0,0:0|0:0,0:0:0:0:
242,155,116352,1,8,0:0:0:0:
85,222,116520,2,0,P|39:165|33:108,1,100.800001230469,2|0,0:0|0:0,0:0:0:0:
140,131,116857,1,0,0:0:0:0:
155,302,117026,2,0,P|88:327|32:314,1,100.800001230469,8|0,0:0|0:0,0:0:0:0:
250,265,117363,54,0,P|316:239|452:272,1,201.600002460938,6|8,0:0|0:0,0:0:0:0:
213,204,117868,1,0,0:0:0:0:
213,204,118037,2,0,P|279:175|335:166,1,100.800001230469,2|2,0:0|0:0,0:0:0:0:
344,336,118374,1,8,0:0:0:0:
435,122,118542,1,0,0:0:0:0:
435,122,118627,1,0,0:0:0:0:
435,122,118711,6,2,P|380:97|327:88,1,100.800001230469,2|0,0:0|0:0,0:0:0:0:
213,204,119048,1,8,0:0:0:0:
37,154,119217,1,0,0:0:0:0:
243,102,119385,1,8,0:0:0:0:
186,307,119554,1,0,0:0:0:0:
140,128,119722,1,8,0:0:0:0:
140,97,119806,1,0,0:0:0:0:
148,68,119890,1,2,0:0:0:0:
164,43,119974,1,2,0:0:0:0:
183,28,120059,6,0,P|245:23|303:26,1,100.800001230469,4|0,0:0|0:0,0:0:0:0:
286,280,120396,1,8,0:0:0:0:
213,204,120565,1,0,0:0:0:0:
316,179,120733,2,0,P|378:184|436:181,1,100.800001230469
286,280,121070,1,8,0:0:0:0:
110,231,121239,1,0,0:0:0:0:
110,231,121323,1,0,0:0:0:0:
110,231,121408,54,0,P|106:146|118:102,1,100.800001230469
357,142,121745,2,0,P|362:191|355:241,1,100.800001230469,8|0,0:0|0:0,0:0:0:0:
244,384,122082,1,2,0:0:0:0:
250,203,122250,1,2,0:0:0:0:
351,353,122418,1,8,0:0:0:0:
181,291,122587,1,0,0:0:0:0:
181,291,122672,1,0,0:0:0:0:
181,291,122756,6,0,P|90:276|12:300,1,151.200001845703,4|0,0:0|0:0,0:0:0:0:
22,220,123093,2,0,P|64:208|125:207,1,100.800001230469,8|0,0:0|0:0,0:0:0:0:
287,77,123430,1,2,0:0:0:0:
76,83,123599,1,2,0:0:0:0:
250,203,123767,1,8,0:0:0:0:
179,4,123936,1,0,0:0:0:0:
179,4,124020,1,0,0:0:0:0:
179,4,124104,6,0,P|171:94|172:113,1,100.800001230469,2|0,0:0|0:0,0:0:0:0:
380,186,124441,2,0,P|379:135|372:85,1,100.800001230469,8|0,0:0|0:0,0:0:0:0:
250,203,124778,1,2,0:0:0:0:
271,353,124947,1,2,0:0:0:0:
143,187,125115,1,8,0:0:0:0:
140,327,125284,1,0,0:0:0:0:
140,327,125368,1,0,0:0:0:0:
140,327,125452,54,0,P|42:283|6:214,1,151.200001845703,4|0,0:0|0:0,0:0:0:0:
56,184,125790,2,0,P|49:110|55:71,1,100.800001230469,8|0,0:0|0:0,0:0:0:0:
237,217,126127,2,0,P|240:267|233:316,1,100.800001230469,2|0,0:0|0:0,0:0:0:0:
143,187,126464,1,8,0:0:0:0:
289,112,126632,1,0,0:0:0:0:
289,112,126717,1,0,0:0:0:0:
289,112,126801,6,0,P|317:153|335:200,1,100.800001230469
192,69,127138,1,8,0:0:0:0:
263,0,127306,2,0,P|308:21|347:53,1,100.800001230469,2|0,0:0|0:0,0:0:0:0:
143,187,127644,1,0,0:0:0:0:
47,160,127812,2,0,P|43:109|50:60,1,100.800001230469,8|0,0:0|0:0,0:0:0:0:
226,129,128149,6,0,B|230:201|230:201|213:236|213:236|221:330,1,201.600002460938,4|8,0:0|0:0,0:0:0:0:
342,241,128655,1,0,0:0:0:0:
342,241,128823,2,0,P|345:291|338:340,1,100.800001230469
456,167,129160,1,8,0:0:0:0:
456,167,129245,1,0,0:0:0:0:
456,167,129329,54,0,P|410:145|371:113,1,100.800001230469
179,99,129666,1,0,0:0:0:0:
179,99,129835,2,0,P|224:77|263:45,1,100.800001230469,8|0,0:0|0:0,0:0:0:0:
92,52,130172,5,0,0:0:0:0:
80,73,130256,1,0,0:0:0:0:
74,98,130340,1,0,0:0:0:0:
77,123,130424,1,0,0:0:0:0:
85,146,130509,5,0,0:0:0:0:
98,184,130594,1,0,0:0:0:0:
103,226,130678,1,0,0:0:0:0:
93,268,130762,1,0,0:0:0:0:
73,303,130846,37,4,0:0:0:0:
364,60,141632,5,4,0:0:0:0:
364,60,141801,1,0,0:0:0:0:
327,217,141969,2,0,P|316:166|323:123,1,80.9999975280763,8|0,0:0|0:0,0:0:0:0:
416,167,142306,1,2,0:0:0:0:
415,270,142475,1,2,0:0:0:0:
325,320,142644,1,8,0:0:0:0:
236,267,142812,6,0,P|164:251|73:272,1,161.999995056153,4|2,0:0|0:0,0:0:0:0:
0,137,143318,1,8,0:0:0:0:
0,137,143486,2,0,P|78:118|157:134,1,161.999995056153,4|2,0:0|0:0,0:0:0:0:
306,45,143992,2,0,P|254:30|219:29,1,80.9999975280763,8|0,0:0|0:0,0:0:0:0:
407,103,144329,6,0,P|393:50|377:19,1,80.9999975280763,2|0,0:0|0:0,0:0:0:0:
330,170,144666,1,8,0:0:0:0:
421,229,144835,1,0,0:0:0:0:
421,229,145003,2,0,P|459:191|478:161,1,80.9999975280763,2|2,0:0|0:0,0:0:0:0:
318,304,145340,1,8,0:0:0:0:
318,304,145509,2,0,P|370:319|405:320,1,80.9999975280763
203,339,145846,53,0,0:0:0:0:
203,339,146015,2,0,P|150:354|115:355,1,80.9999975280763,8|0,0:0|0:0,0:0:0:0:
175,176,146351,2,0,P|213:213|232:243,1,80.9999975280763,2|2,0:0|0:0,0:0:0:0:
66,264,146688,2,0,B|70:213|70:213|57:187|57:187|64:117,1,121.499996292114,8|0,0:0|0:0,0:0:0:0:
120,93,147026,6,0,P|187:79|230:84,1,80.9999975280763,4|0,0:0|0:0,0:0:0:0:
365,166,147363,2,0,P|298:152|255:157,1,80.9999975280763,8|0,0:0|0:0,0:0:0:0:
386,263,147700,1,2,0:0:0:0:
460,197,147868,1,2,0:0:0:0:
440,100,148037,1,8,0:0:0:0:
345,68,148205,6,0,B|293:54|293:54|167:78,1,161.999995056153,4|2,0:0|0:0,0:0:0:0:
54,203,148711,1,8,0:0:0:0:
54,203,148879,2,0,B|106:189|106:189|232:213,1,161.999995056153,4|2,0:0|0:0,0:0:0:0:
298,316,149385,2,0,B|268:308|268:308|197:321,1,80.9999975280763,8|0,0:0|0:0,0:0:0:0:
436,227,149722,54,0,P|432:267|421:306,1,80.9999975280763,4|0,0:0|0:0,0:0:0:0:
291,138,150059,2,0,P|277:80|279:33,1,80.9999975280763,8|0,0:0|0:0,0:0:0:0:
212,209,150396,2,0,P|170:165|149:124,1,80.9999975280763,2|0,0:0|0:0,0:0:0:0:
179,310,150733,1,8,0:0:0:0:
179,310,150902,2,0,P|121:293|82:267,1,80.9999975280763
46,171,151239,5,0,0:0:0:0:
46,171,151408,2,0,P|37:125|32:80,1,80.9999975280763,8|0,0:0|0:0,0:0:0:0:
224,129,151745,2,0,P|219:168|211:209,1,80.9999975280763,2|2,0:0|0:0,0:0:0:0:
357,207,152082,2,0,P|345:140|337:78,1,121.499996292114,8|0,0:0|0:0,0:0:0:0:
277,38,152419,22,0,P|329:11|415:68,1,153.000002918243,2|8,0:0|0:0,0:0:0:0:
376,328,153093,1,2,0:0:0:0:
376,328,153262,1,2,0:0:0:0:
357,207,153430,1,8,0:0:0:0:
472,248,153599,6,0,B|464:184|464:184|480:152|480:152|472:80,1,153.000002918243,2|2,0:0|0:0,0:0:0:0:
357,207,154104,2,0,P|318:210|280:211,1,76.5000014591217,8|2,0:0|0:0,0:0:0:0:
169,123,154441,1,0,0:0:0:0:
169,123,154610,1,2,0:0:0:0:
132,260,154778,2,0,P|170:263|208:264,1,76.5000014591217,8|0,0:0|0:0,0:0:0:0:
49,199,155115,6,0,P|33:260|69:344,1,153.000002918243,2|8,0:0|0:0,0:0:0:0:
280,211,155790,1,2,0:0:0:0:
280,211,155958,1,2,0:0:0:0:
132,260,156127,1,8,0:0:0:0:
169,123,156295,54,0,B|221:128|221:128|253:112|253:112|317:120,1,153.000002918243,2|2,0:0|0:0,0:0:0:0:
204,46,156801,2,0,P|160:36|116:44,1,76.5000014591217,8|0,0:0|0:0,0:0:0:0:
132,260,157138,1,2,0:0:0:0:
132,260,157306,1,2,0:0:0:0:
280,211,157475,2,0,P|317:207|354:217,1,76.5000014591217,8|0,0:0|0:0,0:0:0:0:
469,311,157812,6,0,B|417:306|417:306|385:322|385:322|321:314,1,153.000002918243,2|8,0:0|0:0,0:0:0:0:
354,217,158486,1,2,0:0:0:0:
354,217,158655,1,2,0:0:0:0:
431,384,158824,1,8,0:0:0:0:
247,367,158992,6,0,P|234:285|294:227,1,153.000002918243,2|2,0:0|0:0,0:0:0:0:
423,158,159498,2,0,P|423:119|420:81,1,76.5000014591217,8|2,0:0|0:0,0:0:0:0:
261,41,159835,1,0,0:0:0:0:
261,41,160003,1,2,0:0:0:0:
168,94,160172,2,0,P|164:132|165:170,1,76.5000014591217,8|0,0:0|0:0,0:0:0:0:
247,367,160509,54,0,P|255:297|241:215,1,153.000002918243,2|8,0:0|0:0,0:0:0:0:
119,291,161183,1,2,0:0:0:0:
119,291,161351,1,2,0:0:0:0:
85,112,161520,1,8,0:0:0:0:
241,216,161688,6,0,L|323:221,1,76.5000014591217,2|0,0:0|0:0,0:0:0:0:
161,107,162026,2,0,L|79:112,1,76.5000014591217,2|8,0:0|0:0,0:0:0:0:
5,209,162363,1,0,0:0:0:0:
418,59,163205,6,0,P|432:122|427:162,1,87.749995983124,4|0,0:0|0:0,0:0:0:0:
395,156,163542,6,0,P|376:217|376:280,1,107.999996704102,8|0,0:0|0:0,0:0:0:0:
511,334,163879,2,8,B|421:327|421:327|382:346|382:346|297:340,1,215.999993408203,2|8,0:0|0:0,0:0:0:0:
151,224,164385,1,0,0:0:0:0:
151,224,164469,1,0,0:0:0:0:
151,224,164554,6,0,P|169:285|169:348,1,107.999996704102
26,197,164891,2,0,P|29:143|46:91,1,107.999996704102,8|0,0:0|0:0,0:0:0:0:
215,156,165228,2,0,P|248:210|264:271,1,107.999996704102,2|2,0:0|0:0,0:0:0:0:
254,79,165565,2,0,P|300:122|332:178,1,107.999996704102,8|0,0:0|0:0,0:0:0:0:
285,5,165902,6,0,P|341:35|414:137,1,161.999995056153,4|2,0:0|0:0,0:0:0:0:
433,123,166239,2,0,L|429:243,1,107.999996704102,8|0,0:0|0:0,0:0:0:0:
264,351,166576,1,0,0:0:0:0:
327,155,166744,1,0,0:0:0:0:
390,351,166912,1,8,0:0:0:0:
224,230,167082,2,0,P|190:166|192:118,1,107.999996704102
264,351,167419,1,0,0:0:0:0:
264,351,167503,1,0,0:0:0:0:
264,351,167587,54,0,P|202:355|130:354,1,107.999996704102,8|0,0:0|0:0,0:0:0:0:
16,204,167924,2,0,P|78:200|150:201,1,107.999996704102,2|2,0:0|0:0,0:0:0:0:
251,51,168261,2,0,P|189:47|117:48,1,107.999996704102,8|2,0:0|0:0,0:0:0:0:
340,109,168599,6,8,B|411:113|411:113|443:98|443:98|514:103,1,161.999995056153,6|2,0:0|0:0,0:0:0:0:
459,170,168936,2,0,P|467:241|458:285,1,107.999996704102,8|0,0:0|0:0,0:0:0:0:
249,157,169273,2,0,P|242:103|250:50,1,107.999996704102,2|2,0:0|0:0,0:0:0:0:
340,109,169610,1,8,0:0:0:0:
267,259,169778,1,0,0:0:0:0:
267,259,169863,1,0,0:0:0:0:
267,259,169947,6,0,P|214:249|166:224,1,107.999996704102,2|2,0:0|0:0,0:0:0:0:
249,157,170284,1,8,0:0:0:0:
370,274,170452,2,0,P|344:321|306:359,1,107.999996704102
267,259,170790,1,0,0:0:0:0:
415,180,170958,2,0,P|452:219|476:267,1,107.999996704102,8|0,0:0|0:0,0:0:0:0:
340,109,171295,54,0,P|388:85|543:97,1,161.999995056153,6|2,0:0|0:0,0:0:0:0:
500,10,171632,2,0,P|384:14|353:26,1,107.999996704102,8|0,0:0|0:0,0:0:0:0:
257,79,171969,2,2,P|249:141|250:191,1,107.999996704102
178,316,172306,1,8,0:0:0:0:
102,170,172475,1,0,0:0:0:0:
102,170,172559,1,0,0:0:0:0:
102,170,172643,6,2,P|110:232|109:282,1,107.999996704102,4|0,0:0|0:0,0:0:0:0:
6,123,172981,1,8,0:0:0:0:
94,63,173149,1,0,0:0:0:0:
109,277,173318,1,6,0:0:0:0:
13,230,173486,1,2,0:0:0:0:
195,163,173655,5,12,0:0:0:0:
220,194,173739,1,0,0:0:0:0:
239,230,173823,1,0,0:0:0:0:
249,269,173907,1,0,0:0:0:0:
251,309,173992,6,0,P|322:298|348:303,1,80.9999975280763,4|2,0:0|0:0,0:0:0:0:
358,336,174329,38,0,P|417:341|481:321,1,107.999996704102,8|0,0:0|0:0,0:0:0:0:
402,44,174666,2,8,B|395:134|395:134|414:173|414:173|408:255,1,215.999993408203,2|8,0:0|0:0,0:0:0:0:
481,118,175172,1,0,0:0:0:0:
481,118,175256,1,0,0:0:0:0:
481,118,175340,6,0,P|483:64|501:13,1,107.999996704102
207,94,175677,2,0,P|216:146|210:199,1,107.999996704102,8|0,0:0|0:0,0:0:0:0:
301,366,176014,1,2,0:0:0:0:
325,177,176183,1,2,0:0:0:0:
194,315,176351,1,8,0:0:0:0:
400,289,176520,1,0,0:0:0:0:
400,289,176604,1,2,0:0:0:0:
400,289,176688,6,0,P|315:255|259:260,1,107.999996704102,6|0,0:0|0:0,0:0:0:0:
42,221,177026,2,0,P|95:212|142:186,1,107.999996704102,8|0,0:0|0:0,0:0:0:0:
300,49,177363,1,0,0:0:0:0:
254,253,177532,1,0,0:0:0:0:
171,60,177700,1,8,0:0:0:0:
351,168,177869,1,0,0:0:0:0:
351,168,177953,1,0,0:0:0:0:
351,168,178037,54,0,P|434:169|470:174,1,107.999996704102
397,325,178374,2,0,P|343:330|289:329,1,107.999996704102,8|0,0:0|0:0,0:0:0:0:
189,152,178711,1,2,0:0:0:0:
162,241,178879,1,0,0:0:0:0:
59,85,179048,1,8,0:0:0:0:
32,174,179216,1,0,0:0:0:0:
32,174,179301,1,0,0:0:0:0:
32,174,179385,6,8,B|98:172|98:172|128:153|128:153|195:151,1,161.999995056153,4|0,0:0|0:0,0:0:0:0:
254,191,179722,2,0,P|259:132|232:87,1,107.999996704102,8|0,0:0|0:0,0:0:0:0:
261,280,180059,2,0,P|314:254|340:208,1,107.999996704102,2|2,0:0|0:0,0:0:0:0:
188,150,180396,1,8,0:0:0:0:
190,325,180565,1,0,0:0:0:0:
190,325,180649,1,0,0:0:0:0:
190,325,180733,6,0,P|238:358|291:357,1,107.999996704102
255,192,181070,1,8,0:0:0:0:
105,283,181239,2,0,P|100:342|127:387,1,107.999996704102
256,277,181576,1,0,0:0:0:0:
188,150,181745,2,0,P|139:116|86:117,1,107.999996704102,8|0,0:0|0:0,0:0:0:0:
255,192,182082,54,0,P|351:211|448:177,1,161.999995056153,4|2,0:0|0:0,0:0:0:0:
471,151,182419,2,0,P|490:244|487:280,1,107.999996704102,8|0,0:0|0:0,0:0:0:0:
337,126,182756,2,0,P|340:72|356:21,1,107.999996704102
406,280,183093,1,8,0:0:0:0:
255,192,183261,1,0,0:0:0:0:
255,192,183346,1,0,0:0:0:0:
255,192,183430,6,0,P|236:285|239:321,1,107.999996704102
215,113,183767,2,0,P|163:178|147:241,1,135,8|2,0:0|0:0,0:0:0:0:
110,238,184104,5,0,0:0:0:0:
111,204,184188,1,0,0:0:0:0:
104,171,184272,1,0,0:0:0:0:
88,141,184356,1,0,0:0:0:0:
66,116,184441,53,8,0:0:0:0:
50,159,184525,1,0,0:0:0:0:
44,203,184609,1,0,0:0:0:0:
45,248,184693,1,0,0:0:0:0:
55,292,184778,37,2,0:0:0:0:
