osu file format v14

[General]
AudioFilename: audio.mp3
AudioLeadIn: 0
PreviewTime: 91500
Countdown: 1
SampleSet: Soft
StackLeniency: 1
Mode: 0
LetterboxInBreaks: 0
WidescreenStoryboard: 1

[Editor]
DistanceSpacing: 1
BeatDivisor: 4
GridSize: 4
TimelineZoom: 1.46

[Metadata]
Title:The Perfect World (TV Size)
TitleUnicode:The Perfect World (TV Size)
Artist:Marty Friedman
ArtistUnicode:Marty Friedman
Creator:Lolist
Version:Normal
Source:B:The Beginning
Tags:TV Size some day I'll be gone
BeatmapID:1763006
BeatmapSetID:841642

[Difficulty]
HPDrainRate:3
CircleSize:3
OverallDifficulty:4
ApproachRate:6
SliderMultiplier:1
SliderTickRate:2

[Events]
//Background and Video events
0,0,"bthebeginning-blogroll-2-1520284094429_1280w[1].jpg",0,0
//Break Periods
2,32674,33924
2,49174,58924
//Storyboard Layer 0 (Background)
//Storyboard Layer 1 (Fail)
//Storyboard Layer 2 (Pass)
//Storyboard Layer 3 (Foreground)
//Storyboard Sound Samples

[TimingPoints]
1099,500,4,2,0,100,1,0

[HitObjects]
256,191,1099,5,0,0:0:0:0:
184,260,1474,2,0,L|73:279,1,100
69,178,2474,1,0,0:0:0:0:
108,86,2974,2,0,L|231:73,1,100
248,166,3974,1,0,0:0:0:0:
404,290,4974,2,0,P|272:297|269:338,1,200
77,51,8974,5,0,0:0:0:0:
275,77,9974,1,0,0:0:0:0:
358,258,10974,1,0,0:0:0:0:
119,333,12224,2,0,L|70:217,4,125
461,41,16974,6,0,P|444:86|472:124,1,100
156,241,18724,2,0,P|128:186|151:152,1,100
427,255,20724,6,0,P|420:195|390:170,1,100
61,286,22724,2,0,B|109:247|73:215|128:189,1,100
237,122,23974,1,0,0:0:0:0:
294,313,24974,1,0,0:0:0:0:
456,64,26974,5,0,0:0:0:0:
397,144,27474,1,0,0:0:0:0:
329,70,27974,1,0,0:0:0:0:
285,160,28474,1,0,0:0:0:0:
319,253,28974,2,0,P|197:249|186:186,1,200
38,157,30724,2,0,L|0:45,1,100
155,52,31974,2,0,L|196:144,1,100
84,52,34974,6,0,P|70:154|130:235,2,200
181,73,37474,2,0,P|196:127|163:178,1,100
95,108,38474,1,0,0:0:0:0:
59,201,38974,2,0,B|130:280|229:279|229:128|344:130|432:220,1,400
457,312,42974,6,0,B|367:369|362:261|271:332,1,200
239,134,44974,6,0,B|330:63|335:171|425:114,1,200
364,193,46474,2,0,P|319:215|151:216,2,200
270,157,48974,1,0,0:0:0:0:
33,85,59974,5,0,0:0:0:0:
111,269,60974,1,0,0:0:0:0:
310,252,61974,1,0,0:0:0:0:
209,79,62974,1,0,0:0:0:0:
408,83,63974,5,0,0:0:0:0:
335,152,64474,2,0,L|252:230,1,100
165,192,65474,5,0,0:0:0:0:
244,131,65974,2,0,L|324:62,2,100
44,118,67974,6,0,P|42:212|125:271,1,200
312,211,69974,2,0,P|331:104|287:26,1,200
190,43,71474,1,0,0:0:0:0:
172,141,71974,1,0,0:0:0:0:
260,186,72474,1,0,0:0:0:0:
420,305,73474,5,0,0:0:0:0:
364,221,73974,1,0,0:0:0:0:
298,296,74474,1,0,0:0:0:0:
69,142,75849,6,0,B|140:69|202:76|206:197|278:202|348:134,1,325
413,209,77974,1,0,0:0:0:0:
325,257,78474,1,0,0:0:0:0:
255,184,78974,1,0,0:0:0:0:
316,262,79474,6,0,B|154:328|154:328|172:236|172:236|37:289,1,400
51,184,81974,2,0,L|114:163,2,50
209,62,83474,6,0,L|290:144,1,100
223,216,84474,2,0,L|139:130,1,100
71,201,85474,2,0,L|151:286,1,100
68,343,86474,2,0,L|-9:259,1,100
23,172,87474,2,0,P|141:61|366:96,1,400
60,51,91474,6,0,P|27:134|38:152,1,100
124,108,92474,1,0,0:0:0:0:
197,175,92974,1,0,0:0:0:0:
259,97,93474,1,0,0:0:0:0:
354,126,93974,1,0,0:0:0:0:
440,76,94474,2,0,L|510:5,2,100
429,175,95974,6,0,P|296:202|207:347,1,300
81,179,99474,6,0,B|115:87|115:87|166:176|166:176|212:106|212:106|255:196|255:196|306:103|306:103|343:219|343:219|345:218,1,600
419,148,102974,1,0,0:0:0:0:
386,53,103474,1,0,0:0:0:0:
334,138,103974,1,0,0:0:0:0:
283,51,104474,1,0,0:0:0:0:
232,137,104974,1,0,0:0:0:0:
143,90,105474,6,0,P|92:176|129:273,1,200
256,192,107099,12,0,109599,0:0:0:0:
