osu file format v14

[General]
AudioFilename: audio.mp3
AudioLeadIn: 0
PreviewTime: 91500
Countdown: 1
SampleSet: Soft
StackLeniency: 0.9
Mode: 0
LetterboxInBreaks: 0
WidescreenStoryboard: 1

[Editor]
DistanceSpacing: 1.5
BeatDivisor: 4
GridSize: 4
TimelineZoom: 1.46

[Metadata]
Title:The Perfect World (TV Size)
TitleUnicode:The Perfect World (TV Size)
Artist:Marty Friedman
ArtistUnicode:Marty Friedman
Creator:Lolist
Version:Hard
Source:B:The Beginning
Tags:TV Size some day I'll be gone
BeatmapID:1763005
BeatmapSetID:841642

[Difficulty]
HPDrainRate:5
CircleSize:4
OverallDifficulty:6
ApproachRate:8
SliderMultiplier:1
SliderTickRate:2

[Events]
//Background and Video events
0,0,"b-the-beginning-season-2-release-date-story-2018[1].jpg",0,0
//Break Periods
//Storyboard Layer 0 (Background)
//Storyboard Layer 1 (Fail)
//Storyboard Layer 2 (Pass)
//Storyboard Layer 3 (Foreground)
//Storyboard Sound Samples

[TimingPoints]
1099,500,4,2,2,70,1,0
4625,-153.846153846153,4,2,2,70,0,0
22500,-76.9230769230769,4,2,2,100,0,0
30625,-83.3333333333333,4,2,2,100,0,0
33625,-66.6666666666667,4,2,2,100,0,0
34750,-62.5,4,2,2,100,0,0
46000,-55.5555555555556,4,2,2,100,0,0
54875,-55.5555555555556,4,2,2,100,0,0
60000,-66.6666666666667,4,2,2,100,0,0
75000,-62.5,4,2,2,100,0,0
79500,-100,4,2,2,100,0,0
83375,-50,4,2,2,100,0,1
83625,-50,4,2,2,100,0,1
88125,-58.8235294117647,4,2,2,100,0,0
88875,-66.6666666666667,4,2,2,70,0,0

[HitObjects]
2,30,1099,5,0,0:0:0:0:
61,134,1599,1,0,0:0:0:0:
128,34,2099,1,0,0:0:0:0:
312,52,3099,5,0,0:0:0:0:
252,156,3599,1,0,0:0:0:0:
196,49,4099,1,0,0:0:0:0:
62,130,5099,6,0,P|31:273|125:162,1,389.999982147218
466,350,9099,5,0,0:0:0:0:
410,244,9599,1,0,0:0:0:0:
345,356,10099,1,0,0:0:0:0:
192,349,11099,5,0,0:0:0:0:
250,253,11599,1,0,0:0:0:0:
339,142,12599,5,0,0:0:0:0:
302,163,12849,2,0,L|267:183,2,32.4999985122681
338,140,13599,2,0,L|375:113,2,32.4999985122681
338,140,14349,5,0,0:0:0:0:
272,108,14599,1,0,0:0:0:0:
199,147,14849,1,0,0:0:0:0:
107,108,15099,1,0,0:0:0:0:
21,21,17099,5,0,0:0:0:0:
166,340,18849,1,0,0:0:0:0:
166,340,19099,1,0,0:0:0:0:
306,20,20849,1,0,0:0:0:0:
306,20,21099,1,0,0:0:0:0:
397,295,23099,2,0,L|511:358,1,129.999994049073
449,270,23849,1,0,0:0:0:0:
391,239,24099,1,0,0:0:0:0:
219,196,25099,6,0,L|164:160,1,64.9999970245363
253,142,25599,1,0,0:0:0:0:
310,179,25849,1,0,0:0:0:0:
390,112,27099,2,0,L|450:140,1,64.9999970245363
415,58,27474,1,0,0:0:0:0:
383,48,27599,1,0,0:0:0:0:
113,229,28849,5,0,0:0:0:0:
113,229,29099,1,0,0:0:0:0:
113,229,29349,1,0,0:0:0:0:
166,248,31099,2,0,B|202:182|106:144|167:73|256:59|292:101|328:179,2,300.000011444092
128,102,33849,6,0,L|128:50,2,37.5000014305115
260,31,34349,2,0,L|261:91,2,37.5000014305115
365,201,34849,2,0,P|360:256|294:300,1,120
217,191,35599,1,0,0:0:0:0:
127,258,35974,5,0,0:0:0:0:
127,258,36099,2,0,B|181:302|181:302|254:285,1,120
322,139,36849,5,0,0:0:0:0:
322,139,36974,2,0,P|257:150|199:88,1,120
115,272,37599,2,0,P|183:330|272:318,2,160
306,102,39099,5,0,0:0:0:0:
179,85,39349,1,0,0:0:0:0:
54,68,39599,2,0,P|27:120|82:80,2,160
276,70,40849,1,0,0:0:0:0:
109,153,41099,6,0,P|179:214|223:205,1,120
210,217,41599,2,0,P|278:132|271:51,1,160
280,84,42349,1,0,0:0:0:0:
280,84,42599,1,0,0:0:0:0:
280,84,42849,1,0,0:0:0:0:
278,184,43099,6,0,L|178:221,1,80
79,260,43599,2,0,L|-13:300,1,80
120,164,44099,6,0,L|197:129,1,80
198,132,44474,1,0,0:0:0:0:
198,132,44599,1,0,0:0:0:0:
348,68,45099,2,0,L|422:25,1,80
211,56,45599,5,0,0:0:0:0:
211,56,45849,1,0,0:0:0:0:
78,72,46099,6,0,B|87:169|87:169|-19:235|91:308|91:308|193:247,1,359.999989013672
183,251,47224,1,0,0:0:0:0:
212,238,47349,1,0,0:0:0:0:
271,151,47599,2,0,P|230:185|183:169,1,89.9999972534181
200,35,48099,1,0,0:0:0:0:
168,55,48224,1,0,0:0:0:0:
183,89,48349,1,0,0:0:0:0:
219,72,48474,1,0,0:0:0:0:
63,231,48849,6,0,P|135:271|161:262,1,89.9999972534181
299,139,49349,1,0,0:0:0:0:
203,325,49599,1,0,0:0:0:0:
212,115,49849,1,0,0:0:0:0:
430,322,50099,5,0,0:0:0:0:
410,114,50349,1,0,0:0:0:0:
338,311,50599,1,0,0:0:0:0:
277,109,50849,1,0,0:0:0:0:
51,39,51099,6,0,L|107:46,1,44.999998626709
20,149,51474,2,0,L|99:158,1,44.999998626709
287,49,51849,6,0,L|267:97,1,44.999998626709
398,78,52224,2,0,L|373:144,1,44.999998626709
476,366,52599,6,0,L|425:343,1,44.999998626709
512,263,52975,2,0,L|465:241,1,44.999998626709
228,362,53349,6,0,L|285:326,1,44.999998626709
141,291,53724,2,0,L|192:258,1,44.999998626709
53,226,54099,2,0,L|116:187,1,44.999998626709
254,111,54474,2,0,L|216:139,3,44.999998626709
90,78,55099,6,0,B|110:131|145:103|168:182,2,89.9999972534181
362,125,55849,6,0,P|393:80|402:108,2,89.9999972534181
204,108,56599,6,0,P|129:101|59:34,1,134.999995880127
81,67,57099,5,0,0:0:0:0:
81,67,57224,1,0,0:0:0:0:
134,245,57599,5,0,0:0:0:0:
134,245,57724,1,0,0:0:0:0:
354,269,58099,5,0,0:0:0:0:
354,269,58224,1,0,0:0:0:0:
293,52,58599,5,0,0:0:0:0:
293,52,58724,1,0,0:0:0:0:
100,168,59099,6,0,L|184:186,1,44.999998626709
174,185,59349,2,0,L|224:258,1,44.999998626709
380,319,59724,2,0,L|305:302,1,44.999998626709
306,302,59974,2,0,L|261:242,1,44.999998626709
278,122,60349,2,0,B|246:80|246:80|206:106,1,75.0000028610231
143,135,60849,2,0,B|170:184|170:184|213:158,2,75.0000028610231
416,38,61599,5,0,0:0:0:0:
295,85,61849,2,0,P|275:156|339:208,2,150.000005722046
392,115,63099,1,0,0:0:0:0:
384,267,63474,1,0,0:0:0:0:
384,267,63599,2,0,L|301:307,1,75.0000028610231
176,320,64099,5,0,0:0:0:0:
81,282,64349,2,0,P|25:215|62:152,1,150.000005722046
157,119,65099,2,0,P|147:33|68:11,1,150.000005722046,0|0,0:0|0:0,0:3:0:0:
295,26,65849,5,0,0:0:0:0:
357,112,66099,1,0,0:0:0:0:
295,26,66349,1,0,0:0:0:0:
237,112,66599,1,0,0:0:0:0:
293,202,66849,1,0,0:0:0:0:
237,112,67099,1,0,0:0:0:0:
22,9,67599,5,0,0:0:0:0:
126,172,67849,2,0,L|200:224,3,75.0000028610231
190,217,68724,1,0,0:0:0:0:
23,265,68974,2,0,L|66:294,1,37.5000014305115
159,294,69349,1,0,0:0:0:0:
21,341,69599,5,0,0:0:0:0:
122,337,69849,1,0,0:0:0:0:
226,348,70099,2,0,L|311:312,3,75.0000028610231
301,316,70974,1,0,0:0:0:0:
398,83,71349,5,0,0:0:0:0:
291,113,71599,1,0,0:0:0:0:
387,166,71849,2,0,P|342:217|240:195,1,150.000005722046
113,94,72599,1,0,0:0:0:0:
234,9,73099,1,0,0:0:0:0:
113,94,73599,5,0,0:0:0:0:
24,185,73849,1,0,0:0:0:0:
143,229,74099,1,0,0:0:0:0:
322,70,74349,1,0,0:0:0:0:
413,160,74599,1,0,0:0:0:0:
268,200,74849,1,0,0:0:0:0:
154,84,75099,1,0,0:0:0:0:
154,84,75224,2,0,L|154:139,4,40
24,11,75974,5,0,0:0:0:0:
24,11,76099,2,0,L|23:208,1,160
206,344,76849,5,0,0:0:0:0:
206,344,76974,2,0,L|399:344,1,160
380,190,77724,5,0,0:0:0:0:
380,190,77849,2,0,P|261:203|210:165,1,160
284,75,78599,1,0,0:0:0:0:
179,65,78849,1,0,0:0:0:0:
95,142,79099,2,0,P|130:192|183:192,1,80
284,170,79599,5,0,0:0:0:0:
201,297,79849,1,0,0:0:0:0:
377,299,80099,1,0,0:0:0:0:
204,173,80349,5,0,0:0:0:0:
292,341,80599,1,0,0:0:0:0:
395,139,80849,1,0,0:0:0:0:
164,285,81099,1,0,0:0:0:0:
164,285,81224,2,0,P|107:252|136:196,1,125
164,167,81974,2,0,B|301:225|245:151|245:151|194:88|336:151,1,275
335,150,83474,2,0,L|362:160,3,25
152,318,83849,6,0,L|91:281,2,50
356,260,84349,2,0,L|415:221,2,50
156,185,84849,2,0,L|104:153,2,50
351,131,85349,2,0,L|412:90,2,50
147,35,85849,5,0,0:0:0:0:
344,143,86099,1,0,0:0:0:0:
231,154,86349,5,0,0:0:0:0:
413,48,86599,1,0,0:0:0:0:
294,47,86849,5,0,0:0:0:0:
483,168,87099,1,0,0:0:0:0:
455,63,87349,5,0,0:0:0:0:
313,237,87599,1,0,0:0:0:0:
111,296,87849,6,0,P|48:232|61:192,1,100
49,232,88224,1,0,0:0:0:0:
69,106,88474,2,0,P|180:102|196:71,1,127.50000243187
266,25,89099,2,0,B|165:122|330:165|324:37|454:120|520:242|235:348|166:318|218:66|395:18|443:24|462:24,1,600.000022888185
404,25,91224,1,0,0:0:0:0:
404,25,91349,1,0,0:0:0:0:
410,137,91599,5,0,0:0:0:0:
279,195,91849,1,0,0:0:0:0:
410,250,92099,1,0,0:0:0:0:
278,305,92349,1,0,0:0:0:0:
138,332,92599,2,0,L|-4:257,1,150.000005722046
81,50,93349,5,0,0:0:0:0:
218,109,93599,1,0,0:0:0:0:
73,148,93849,1,0,0:0:0:0:
208,211,94099,1,0,0:0:0:0:
320,112,94349,2,0,L|375:57,1,75.0000028610231
492,149,94849,2,0,B|444:209|444:209|349:208,1,150.000005722046
430,346,95599,2,0,B|282:290|282:290|451:281|392:124|355:69|354:189|219:166|219:166|299:228,1,600.000022888185
162,309,97849,5,0,0:0:0:0:
79,232,98099,2,0,P|51:182|78:130,1,112.500004291535
165,73,98724,1,0,0:0:0:0:
244,152,98974,2,0,P|337:145|345:110,1,112.500004291535
448,31,99599,6,0,B|361:67|293:78|170:36|170:36|347:200|308:325|180:139|-70:190|391:248|201:351,1,750.000028610231
21,37,102599,5,0,0:0:0:0:
91,134,102849,2,0,P|71:206|56:215,1,75.0000028610231
18,308,103349,1,0,0:0:0:0:
129,351,103599,2,0,L|221:328,1,75.0000028610231
188,273,103974,2,0,L|265:251,1,75.0000028610231
235,197,104349,2,0,L|311:182,1,75.0000028610231
289,125,104724,2,0,L|366:108,1,75.0000028610231
362,108,105099,1,0,0:0:0:0:
205,20,105474,5,0,0:0:0:0:
215,154,105724,1,0,0:0:0:0:
319,46,105974,5,0,0:0:0:0:
179,101,106224,1,0,0:0:0:0:
322,136,106474,5,0,0:0:0:0:
180,24,106724,1,0,0:0:0:0:
157,40,106849,1,0,0:0:0:0:
135,57,106974,1,0,0:0:0:0:
112,74,107099,1,0,0:0:0:0:
90,91,107224,1,0,0:0:0:0:
256,192,107724,12,0,109724,0:0:0:0:
