osu file format v14

[General]
AudioFilename: audio.mp3
AudioLeadIn: 0
PreviewTime:113918
Countdown: 0
SampleSet: Soft
StackLeniency: 0.7
Mode: 0
LetterboxInBreaks: 0
WidescreenStoryboard: 1

[Editor]
Bookmarks: 56418,82000,85205,114018,162002,184413,209950
DistanceSpacing: 0.7
BeatDivisor: 4
GridSize: 4
TimelineZoom: 1.7

[Metadata]
Title:Chto podelat'?
TitleUnicode:Что поделать?
Artist:Marto
ArtistUnicode:Marto
Creator:Florescence
Version:aishiteiru's Hyper
Source:
Tags:shoegaze underground indie alternative rock jessy джесси сияние юность севера siyaniye yunost' severa марто russian русский aishiteiru-
BeatmapID:3895286
BeatmapSetID:1865665

[Difficulty]
HPDrainRate:6
CircleSize:4
OverallDifficulty:7
ApproachRate:7
SliderMultiplier:1.4
SliderTickRate:1

[Events]
//Background and Video events
0,0,"dGorPWXxlyw.jpg",0,0
//Break Periods
2,82200,83704
//Storyboard Layer 0 (Background)
//Storyboard Layer 1 (Fail)
//Storyboard Layer 2 (Pass)
//Storyboard Layer 3 (Foreground)
//Storyboard Layer 4 (Overlay)
//Storyboard Sound Samples

[TimingPoints]
30785,404.040404040404,4,2,1,80,1,0
30785,-100,4,2,1,80,0,0
34017,387.096774193548,4,2,1,80,1,0
34791,398.671096345515,4,2,1,80,1,0
35590,398.009950248756,4,2,1,80,1,0
37185,402.684563758389,4,2,1,80,1,0
37185,-100,4,2,1,80,0,0
40406,-100,4,2,1,80,0,0
42016,388.349514563107,4,2,1,80,1,0
42016,-100,4,2,1,80,0,0
43600,406.779661016949,4,2,1,80,1,0
43600,-100,4,2,1,80,0,0
45227,397.350993377483,4,2,1,80,1,0
45227,-100,4,2,1,80,0,0
48405,405.405405405405,4,2,1,80,1,0
51648,396.039603960396,4,2,1,80,1,0
51648,-100,4,2,1,80,0,0
54816,400.667779632721,4,2,1,80,1,0
54816,-100,4,2,1,80,0,0
56418,397.088021178028,4,2,1,80,1,0
56418,-100,4,2,1,80,0,0
57212,-100,4,2,1,100,0,0
58006,396.694214876033,4,2,1,100,1,0
58006,-100,4,2,1,100,0,0
59592,405.405405405405,4,2,1,100,1,0
59592,-100,4,2,1,100,0,0
61213,397.350993377483,4,2,1,100,1,0
61213,-100,4,2,1,100,0,0
65980,-100,4,2,1,100,0,0
65981,401.33779264214,4,2,1,100,1,0
72402,405.405405405405,4,2,1,100,1,0
74022,397.350993377483,4,2,1,100,1,0
74022,-100,4,2,1,100,0,0
75611,399.334442595673,4,2,1,100,1,0
75611,-100,4,2,1,100,0,0
82000,400.667779632721,4,2,1,100,1,0
82000,-100,4,2,1,100,0,0
84617,-100,4,2,1,80,0,0
85205,399.999999999999,4,2,1,80,1,0
91004,410.958904109589,4,2,1,80,1,0
91620,402.684563758388,4,2,1,80,1,0
91620,-100,4,2,1,80,0,0
94841,394.736842105262,4,2,1,80,1,0
94841,-100,4,2,1,80,0,0
96419,398.671096345514,4,2,1,80,1,0
96419,-100,4,2,1,80,0,0
98013,405.405405405405,4,2,1,80,1,0
98013,-100,4,2,1,80,0,0
99634,400,4,2,1,80,1,0
99634,-100,4,2,1,80,0,0
101234,399.254990188309,4,2,1,80,1,0
101234,-100,4,2,1,80,0,0
102831,400,4,2,1,80,1,0
102831,-100,4,2,1,80,0,0
106031,397.350993377483,4,2,1,80,1,0
106031,-100,4,2,1,80,0,0
107620,400,4,2,1,80,1,0
107620,-100,4,2,1,80,0,0
109220,394.736842105263,4,2,1,80,1,0
109220,-100,4,2,1,80,0,0
110798,402.684563758389,4,2,1,80,1,0
110798,-100,4,2,1,80,0,0
114018,397.350993377483,4,2,1,100,1,0
114018,-100,4,2,1,100,0,0
115607,400,4,2,1,100,1,0
115607,-100,4,2,1,100,0,0
117207,397.350993377483,4,2,1,100,1,0
117207,-100,4,2,1,100,0,0
120385,400.667779632721,4,2,1,100,1,0
120385,-100,4,2,1,100,0,0
123590,401.33779264214,4,2,1,100,1,0
123590,-100,4,2,1,100,0,0
125195,406.091370558375,4,2,1,100,1,0
125195,-100,4,2,1,100,0,0
126819,400,4,2,1,100,1,0
126819,-100,4,2,1,100,0,0
128419,397.350993377483,4,2,1,100,1,0
128419,-100,4,2,1,100,0,0
134776,402.684563758389,4,2,1,100,1,0
134776,-100,4,2,1,100,0,0
136386,407.470288624788,4,2,1,100,1,0
136386,-100,4,2,1,100,0,0
138015,397.350993377483,4,2,1,100,1,0
138015,-100,4,2,1,100,0,0
139604,406.091370558375,4,2,1,100,1,0
139604,-100,4,2,1,100,0,0
141228,404.721753794266,4,2,1,100,1,0
141228,-100,4,2,1,100,0,0
142846,397.350993377483,4,2,1,100,1,0
142846,-100,4,2,1,100,0,0
144435,394.736842105263,4,2,1,100,1,0
144435,-100,4,2,1,100,0,0
146013,400,4,2,1,100,1,0
146013,-100,4,2,1,100,0,0
147613,398.009950248756,4,2,1,100,1,0
147613,-100,4,2,1,100,0,0
149205,399.334442595674,4,2,1,100,1,0
149205,-100,4,2,1,100,0,0
153996,401.33779264214,4,2,1,100,1,0
153996,-100,4,2,1,100,0,0
155601,396.694214876033,4,2,1,100,1,0
155601,-100,4,2,1,100,0,0
157187,398.671096345515,4,2,1,100,1,0
157187,-100,4,2,1,100,0,0
160375,406.779661016949,4,2,1,100,1,0
160375,-100,4,2,1,100,0,0
162408,-100,4,2,1,70,0,0
163629,406.091370558376,4,2,1,70,1,0
163629,-100,4,2,1,70,0,0
165253,387.096774193548,4,2,1,70,1,0
165253,-100,4,2,1,70,0,0
166801,391.517128874388,4,2,1,70,1,0
166801,-100,4,2,1,70,0,0
168367,425.531914893617,4,2,1,70,1,0
168367,-100,4,2,1,70,0,0
169218,402.684563758389,4,2,1,70,1,0
169218,-100,4,2,1,70,0,0
170025,408.163265306122,4,2,1,70,1,0
170025,-100,4,2,1,70,0,0
171657,379.746835443038,4,2,1,70,1,0
171657,-100,4,2,1,70,0,0
173175,380.348652931854,4,2,1,70,1,0
173175,-100,4,2,1,70,0,0
174725,419.580419580419,4,2,1,70,1,0
176403,405.405405405405,4,2,1,70,1,0
176403,-100,4,2,1,70,0,0
178024,413.793103448275,4,2,1,70,1,0
178024,-100,4,2,1,70,0,0
179679,381.558028616852,4,2,1,70,1,0
179679,-100,4,2,1,70,0,0
181205,402.010050251256,4,2,1,70,1,0
181205,-100,4,2,1,70,0,0
182813,399.999999999999,4,2,1,70,1,0
182813,-100,4,2,1,70,0,0
184413,-100,4,2,1,80,0,0
186013,394.736842105263,4,2,1,80,1,0
186013,-100,4,2,1,80,0,0
187591,399.999999999999,4,2,1,86,1,0
187591,-100,4,2,1,86,0,0
189191,398.009950248755,4,2,1,86,1,0
189191,-100,4,2,1,86,0,0
190783,396.694214876032,4,2,1,86,1,0
190783,-100,4,2,1,86,0,0
192369,399.999999999999,4,2,1,86,1,0
192369,-100,4,2,1,86,0,0
193969,-100,4,2,1,93,0,0
195569,379.746835443038,4,2,1,93,1,0
195569,-100,4,2,1,93,0,0
197140,413.793103448275,4,2,1,93,1,0
197140,-100,4,2,1,93,0,0
198795,398.671096345514,4,2,1,93,1,0
198795,-100,4,2,1,93,0,0
200389,392.156862745097,4,2,1,93,1,0
200389,-100,4,2,1,93,0,0
201957,403.361344537814,4,2,1,93,1,0
201957,-100,4,2,1,93,0,0
203973,-100,4,2,1,96,0,0
205183,394.736842105261,4,2,1,96,1,0
205183,-100,4,2,1,96,0,0
206761,399.999999999998,4,2,1,100,1,0
208361,382.165605095541,4,2,1,100,1,0
209950,372.670807453415,4,2,1,100,1,0
209950,-100,4,2,1,100,0,0
210136,-100,4,2,1,20,0,0

[Colours]
Combo1 : 17,254,176
Combo2 : 173,255,95
Combo3 : 255,88,100
Combo4 : 255,94,55

[HitObjects]
0,192,30784,5,4,3:1:0:0:
75,216,30987,1,0,3:0:0:0:
143,177,31190,1,0,1:0:0:0:
210,134,31391,6,0,B|281:139|261:201|337:208,1,140,0|0,3:0|3:0,0:0:0:0:
421,77,31997,2,0,P|374:96|333:112,1,70,0|0,1:0|0:0,0:0:0:0:
343,124,32300,1,0,1:0:0:0:
331,92,32401,6,0,P|323:45|318:16,1,70,0|0,3:0|3:0,0:0:0:0:
465,208,32805,1,0,1:0:0:0:
462,226,33007,2,0,P|381:213|294:202,1,140,0|0,3:0|3:0,0:0:0:0:
277,308,33613,1,0,1:0:0:0:
395,373,33815,1,0,0:0:0:0:
395,373,33916,1,0,0:0:0:0:
395,373,34017,5,4,3:1:0:0:
437,307,34210,1,0,3:0:0:0:
379,254,34404,1,0,1:0:0:0:
282,321,34597,6,0,B|231:317|231:317|210:282|210:282|137:262,1,142,0|0,3:0|3:0,0:0:0:0:
71,329,35189,2,0,P|58:295|48:205,1,105,0|0,1:0|1:0,0:0:0:0:
71,158,35588,6,0,P|126:147|171:147,1,70,0|0,3:0|3:0,0:0:0:0:
237,169,35988,1,0,1:0:0:0:
316,83,36187,1,0,3:0:0:0:
218,43,36386,5,0,3:0:0:0:
215,62,36485,1,0,1:0:0:0:
392,8,36784,5,0,1:0:0:0:
376,178,36983,1,0,0:0:0:0:
376,178,37082,1,0,0:0:0:0:
376,178,37182,5,4,3:1:0:0:
444,218,37386,1,0,3:0:0:0:
482,147,37587,1,0,1:0:0:0:
300,98,37789,6,0,P|294:148|283:248,1,140,0|0,3:0|3:0,0:0:0:0:
433,365,38393,2,0,B|445:335|445:335|409:291,1,70,0|0,1:0|0:0,0:0:0:0:
401,274,38695,1,0,1:0:0:0:
381,299,38795,6,0,P|341:304|291:308,1,70,0|0,3:0|3:0,0:0:0:0:
221,357,39198,1,0,1:0:0:0:
128,265,39399,6,0,P|134:220|240:185,1,140,0|0,3:0|1:0,0:0:0:0:
271,128,40003,1,0,1:0:0:0:
186,60,40205,1,0,0:0:0:0:
186,60,40305,1,0,1:0:0:0:
186,60,40406,5,4,1:1:0:0:
289,10,40607,1,0,0:0:0:0:
358,35,40809,1,0,1:0:0:0:
494,14,41010,6,0,P|459:41|432:157,1,140,4|0,3:2|3:0,0:0:0:0:
483,228,41614,2,0,B|442:238|438:273|393:284,1,105,0|0,1:0|1:0,0:0:0:0:
378,273,42016,6,0,P|371:223|367:196,1,70,0|8,3:0|0:3,0:0:0:0:
257,269,42404,1,8,0:3:0:0:
297,331,42598,1,4,0:3:0:0:
278,195,42792,1,0,1:0:0:0:
231,133,42986,1,0,3:0:0:0:
231,133,43083,1,0,3:0:0:0:
231,133,43181,2,0,B|221:87|254:85|242:23,1,105,0|0,3:0|0:0,0:0:0:0:
233,23,43600,6,0,P|181:25|87:56,1,140,4|0,3:1|1:0,0:0:0:0:
26,170,44210,2,0,P|27:221|56:282,1,105,0|0,3:0|0:0,0:0:0:0:
62,279,44616,1,0,3:0:0:0:
221,179,44820,2,0,P|174:185|144:194,1,70,0|0,1:0|3:0,0:0:0:0:
130,215,45125,1,0,1:0:0:0:
111,186,45227,5,0,3:0:0:0:
216,264,45425,1,0,3:0:0:0:
157,371,45624,1,0,1:0:0:0:
103,309,45823,6,0,P|191:323|278:336,1,175,0|0,3:0|0:0,0:0:0:0:
285,330,46419,2,0,P|318:290|316:247,1,70,0|0,1:0|0:0,0:0:0:0:
301,248,46717,1,0,0:0:0:0:
336,235,46816,6,0,P|375:221|417:232,1,70,4|0,3:1|3:0,0:0:0:0:
458,281,47213,1,0,1:0:0:0:
352,148,47412,2,0,P|354:77|373:2,1,140,0|0,3:0|3:0,0:0:0:0:
265,125,48008,2,0,P|252:81|181:57,1,105,0|0,1:0|1:0,0:0:0:0:
180,61,48405,6,0,P|143:74|102:89,1,70,0|0,3:0|3:0,0:0:0:0:
37,66,48810,1,0,1:0:0:0:
201,209,49013,2,0,P|151:193|129:187,1,70,0|0,3:0|3:0,0:0:0:0:
111,193,49317,1,0,1:0:0:0:
364,317,49621,2,0,P|316:331|250:366,1,105,0|0,1:0|1:0,0:0:0:0:
252,364,50026,6,0,B|262:334|234:325|250:288,1,70,4|0,3:1|3:0,0:0:0:0:
313,236,50432,1,0,1:0:0:0:
168,352,50635,2,0,P|128:347|94:241,1,140,0|0,3:0|3:0,0:0:0:0:
192,121,51243,2,0,P|199:160|199:201,1,70,0|0,1:0|0:0,0:0:0:0:
181,213,51547,1,0,1:0:0:0:
210,233,51648,5,0,3:0:0:0:
279,182,51846,1,0,3:0:0:0:
246,85,52044,1,0,1:0:0:0:
133,142,52242,1,0,3:0:0:0:
123,260,52440,1,0,0:0:0:0:
230,339,52638,1,0,3:0:0:0:
350,293,52836,1,0,1:0:0:0:
362,167,53034,1,0,0:0:0:0:
362,167,53133,1,0,1:0:0:0:
362,167,53232,5,4,1:1:0:0:
440,123,53430,1,0,0:0:0:0:
502,189,53628,1,0,1:0:0:0:
423,272,53826,6,0,P|363:260|262:239,1,140,0|0,3:0|3:0,0:0:0:0:
154,151,54420,2,0,P|161:110|221:61,1,105,0|0,1:0|1:0,0:0:0:0:
228,56,54816,6,0,P|261:75|271:118,1,70,0|0,3:0|3:0,0:0:0:0:
228,191,55216,1,0,1:0:0:0:
302,358,55417,2,0,P|296:313|295:299,2,35,0|0|0,0:0|1:0|3:0,0:0:0:0:
369,238,55817,1,0,3:0:0:0:
369,238,55917,1,0,0:0:0:0:
369,238,56018,2,0,P|373:199|378:163,1,70,0|0,1:0|3:0,0:0:0:0:
213,279,56418,5,4,3:1:0:0:
135,295,56616,1,0,0:0:0:0:
288,156,56815,5,0,1:0:0:0:
210,172,57013,1,0,0:0:0:0:
387,25,57212,5,0,1:0:0:0:
309,41,57410,1,2,3:1:0:0:
244,85,57609,1,0,3:0:0:0:
169,63,57807,1,2,1:1:0:0:
91,79,58006,5,0,0:0:0:0:
16,62,58204,1,0,3:0:0:0:
194,208,58402,5,2,1:1:0:0:
119,191,58600,1,0,0:0:0:0:
293,343,58799,5,0,3:0:0:0:
218,326,58997,1,0,1:0:0:0:
218,326,59096,1,0,1:0:0:0:
218,326,59196,2,0,P|192:335|167:342,2,35,4|0|0,3:3|3:0|3:1,0:0:0:0:
335,252,59592,6,0,P|382:263|409:270,1,70,4|0,3:1|0:0,0:0:0:0:
284,127,59997,2,0,P|323:105|352:91,1,70,0|0,1:1|1:1,0:0:0:0:
181,89,60402,2,0,P|189:52|197:14,1,70,0|0,3:1|3:1,0:0:0:0:
104,146,60808,2,0,P|80:112|56:75,1,70,0|0,1:1|3:1,0:0:0:0:
122,227,61213,2,0,P|75:235|37:241,1,70,2|0,0:1|3:0,0:0:0:0:
196,227,61610,2,0,P|193:267|190:305,1,70,0|2,1:0|1:1,0:0:0:0:
196,164,62007,2,0,P|227:145|265:122,1,70,0|0,3:0|3:0,0:0:0:0:
165,168,62405,2,0,P|148:137|125:94,1,70,0|0,1:0|0:0,0:0:0:0:
190,196,62802,5,4,3:1:0:0:
203,191,63001,1,0,3:0:0:0:
309,188,63199,5,0,1:0:0:0:
376,222,63398,1,2,3:1:0:0:
446,142,63597,5,0,1:0:0:0:
419,70,63795,1,2,0:1:0:0:
323,41,63994,5,0,3:0:0:0:
293,59,64193,1,2,1:1:0:0:
187,81,64391,5,0,0:0:0:0:
147,5,64590,1,0,0:0:0:0:
84,124,64789,5,2,1:1:0:0:
71,194,64987,1,0,0:0:0:0:
139,265,65186,5,2,3:1:0:0:
213,289,65385,1,8,0:3:0:0:
213,289,65484,1,8,0:3:0:0:
213,289,65583,2,0,P|234:285|258:281,3,35,4|0|0|0,3:3|1:0|1:1|1:0,0:0:0:0:
266,301,65981,6,0,P|316:311|407:330,1,140,4|0,3:1|1:1,0:0:0:0:
475,285,66583,1,0,1:1:0:0:
495,362,66783,1,0,1:1:0:0:
483,374,66984,1,0,3:1:0:0:
489,276,67185,1,0,1:1:0:0:
508,374,67385,1,0,3:1:0:0:
462,294,67586,1,2,0:1:0:0:
495,362,67787,1,0,3:1:0:0:
494,305,67987,1,0,1:1:0:0:
478,324,68188,1,0,3:1:0:0:
500,348,68389,1,0,3:0:0:0:
451,237,68589,5,0,3:0:0:0:
451,237,68690,1,0,3:0:0:0:
451,237,68790,2,0,P|456:215|460:194,2,35,4|0|8,3:3|0:0|3:3,0:0:0:0:
422,113,69191,2,0,P|430:75|437:40,1,70,4|0,3:1|0:0,0:0:0:0:
318,149,69593,2,0,P|315:99|313:66,1,70,2|0,1:1|3:0,0:0:0:0:
220,195,69994,2,0,P|204:140|195:106,1,70,2|0,1:1|3:0,0:0:0:0:
129,247,70395,1,0,3:0:0:0:
129,247,70596,2,0,P|103:207|84:178,1,70,0|0,1:0|0:0,0:0:0:0:
56,328,70997,5,0,3:0:0:0:
159,362,71198,1,2,1:1:0:0:
230,329,71399,1,0,0:0:0:0:
309,326,71599,1,0,0:0:0:0:
378,363,71800,5,2,3:1:0:0:
483,370,72001,1,0,1:1:0:0:
507,268,72201,1,2,3:1:0:0:
428,199,72402,5,4,3:1:0:0:
331,186,72604,1,0,0:0:0:0:
291,96,72807,1,0,1:0:0:0:
350,19,73010,1,0,1:0:0:0:
435,73,73212,1,0,3:0:0:0:
376,116,73415,1,0,3:0:0:0:
354,92,73618,1,0,1:0:0:0:
368,78,73819,1,0,3:0:0:0:
379,96,74022,5,2,0:1:0:0:
354,128,74220,1,0,3:0:0:0:
276,108,74419,1,0,1:0:0:0:
275,27,74618,1,0,0:0:0:0:
275,27,74717,1,0,1:0:0:0:
275,27,74816,5,2,3:1:0:0:
284,123,75015,1,0,3:0:0:0:
203,179,75214,1,2,1:1:0:0:
113,137,75412,1,0,3:0:0:0:
99,43,75611,6,0,P|141:50|184:58,1,70,4|0,3:1|3:0,0:0:0:0:
266,77,76010,2,0,P|308:84|351:92,1,70,0|0,1:0|3:0,0:0:0:0:
444,108,76409,2,0,P|486:115|529:123,1,70,0|0,1:0|3:0,0:0:0:0:
415,190,76809,1,0,3:0:0:0:
415,190,77008,1,0,1:0:0:0:
415,190,77208,6,0,P|373:197|330:205,1,70,2|0,0:1|3:0,0:0:0:0:
246,222,77607,2,0,P|204:229|161:237,1,70,2|0,1:1|0:0,0:0:0:0:
68,253,78006,2,0,P|26:260|-17:268,1,70,0|2,0:0|3:1,0:0:0:0:
143,306,78406,1,8,3:3:0:0:
258,335,78606,1,4,3:3:0:0:
375,365,78805,6,0,P|371:300|365:196,1,140,4|0,3:1|1:0,0:0:0:0:
308,176,79404,1,0,1:0:0:0:
380,148,79604,2,0,P|427:163|454:171,1,70,0|0,3:0|3:0,0:0:0:0:
295,249,80003,2,0,P|248:234|221:226,1,70,0|0,1:0|3:0,0:0:0:0:
323,97,80403,6,0,P|343:46|355:17,1,70,2|0,0:1|3:0,0:0:0:0:
426,241,80802,1,0,1:0:0:0:
235,151,81002,1,2,0:1:0:0:
235,151,81101,1,0,1:0:0:0:
235,151,81201,1,0,3:0:0:0:
414,74,81401,1,0,0:0:0:0:
348,31,81601,2,0,P|353:91|362:188,1,140,0|0,1:0|3:1,0:0:0:0:
56,345,84604,5,0,3:0:0:0:
165,362,84804,1,0,1:0:0:0:
165,362,85205,6,0,P|170:309|161:210,1,140,4|0,3:1|1:0,0:0:0:0:
102,120,85805,2,0,B|169:84|183:177|256:157,1,140,4|0,3:2|3:0,0:0:0:0:
333,87,86405,2,0,P|325:45|253:14,1,105,0|0,1:0|0:0,0:0:0:0:
256,0,86805,6,0,P|252:45|249:76,1,70,0|0,3:0|3:0,0:0:0:0:
317,169,87205,1,0,1:0:0:0:
133,234,87405,2,0,P|147:187|246:167,1,140,0|0,3:0|3:0,0:0:0:0:
315,301,88005,2,0,B|273:283|258:342|193:330,1,105,0|0,1:0|0:0,0:0:0:0:
213,320,88404,6,0,P|223:276|232:239,1,70,4|0,3:1|3:0,0:0:0:0:
126,305,88804,1,0,1:0:0:0:
315,301,89004,2,0,P|352:279|359:179,1,140,4|0,3:2|3:0,0:0:0:0:
257,52,89604,2,0,B|236:82|236:82|247:128,1,70,0|0,1:0|0:0,0:0:0:0:
268,126,89904,1,0,1:0:0:0:
248,147,90004,5,0,3:0:0:0:
171,69,90204,1,0,3:0:0:0:
343,21,90404,1,0,1:0:0:0:
329,184,90604,2,0,P|351:224|388:291,1,105,0|0,3:0|1:0,0:0:0:0:
398,277,91004,2,0,P|388:314|381:347,1,70,0|0,3:0|3:0,0:0:0:0:
302,297,91414,1,0,0:0:0:0:
418,186,91620,6,0,P|452:200|491:223,1,70,4|0,3:1|3:0,0:0:0:0:
329,184,92022,1,0,1:0:0:0:
479,122,92224,2,0,P|461:78|353:49,1,140,4|0,3:2|3:0,0:0:0:0:
314,8,92828,2,0,P|266:18|229:77,1,105,0|0,1:0|0:0,0:0:0:0:
237,80,93230,5,0,3:0:0:0:
271,153,93432,1,0,3:0:0:0:
233,220,93633,1,0,1:0:0:0:
156,205,93834,1,0,3:0:0:0:
156,205,94237,5,0,3:0:0:0:
262,294,94438,1,0,1:0:0:0:
175,367,94640,1,0,0:0:0:0:
183,289,94841,5,4,1:1:0:0:
275,372,95038,1,0,0:0:0:0:
332,244,95235,1,0,1:0:0:0:
233,165,95433,2,0,P|191:174|92:194,1,140,4|0,3:2|3:0,0:0:0:0:
12,104,96025,2,0,B|0:55|0:55|36:12,1,105,0|0,1:0|1:0,0:0:0:0:
47,7,96419,5,0,1:0:0:0:
178,62,96618,1,8,0:3:0:0:
253,55,96817,1,0,0:3:0:0:
324,81,97017,1,4,3:3:0:0:
433,145,97216,1,0,1:0:0:0:
484,85,97415,1,0,3:0:0:0:
484,85,97515,1,0,3:0:0:0:
484,85,97615,1,0,3:0:0:0:
351,139,97814,1,0,0:0:0:0:
484,216,98013,6,0,P|483:254|475:332,1,105,4|0,3:1|0:0,0:0:0:0:
467,338,98418,2,0,P|431:348|388:351,1,70,0|0,1:0|3:0,0:0:0:0:
398,351,99026,5,0,3:0:0:0:
301,296,99229,1,0,1:0:0:0:
228,322,99431,1,0,0:0:0:0:
228,322,99533,1,0,1:0:0:0:
228,322,99634,5,0,3:0:0:0:
314,371,99834,1,0,3:0:0:0:
379,283,100034,1,0,3:0:0:0:
287,223,100234,1,0,3:0:0:0:
287,223,100634,5,0,3:0:0:0:
222,176,100834,1,0,1:0:0:0:
255,106,101034,1,0,0:0:0:0:
255,106,101134,1,0,0:0:0:0:
255,106,101234,5,4,3:1:0:0:
356,131,101433,1,0,3:0:0:0:
356,131,101633,1,0,1:0:0:0:
440,73,101832,2,0,P|451:116|454:225,1,140,4|0,3:2|3:0,0:0:0:0:
305,369,102431,2,0,P|305:331|320:271,1,70,0|0,1:0|0:0,0:0:0:0:
335,284,102731,1,0,1:0:0:0:
301,264,102831,6,0,P|246:267|212:268,1,70,0|0,3:0|3:0,0:0:0:0:
483,286,103231,2,0,P|446:301|407:328,1,70,0|0,1:0|3:0,0:0:0:0:
305,370,103631,1,0,3:0:0:0:
296,351,103731,1,0,1:0:0:0:
354,212,104031,1,0,1:0:0:0:
318,108,104231,1,0,0:0:0:0:
318,108,104331,1,0,1:0:0:0:
318,108,104431,5,4,3:1:0:0:
358,42,104631,1,0,3:0:0:0:
237,77,104831,1,0,1:0:0:0:
124,106,105031,2,0,P|116:146|112:256,1,140,4|0,3:2|3:0,0:0:0:0:
271,364,105631,2,0,B|292:315|292:315|237:267,1,105,0|0,1:0|1:0,0:0:0:0:
226,276,106031,6,0,P|207:320|196:349,1,70,0|0,3:0|3:0,0:0:0:0:
193,199,106428,1,0,1:0:0:0:
319,236,106627,2,0,P|362:229|471:211,1,140,0|0,3:0|3:0,0:0:0:0:
493,91,107223,2,0,P|472:49|439:31,1,70,0|0,1:0|0:0,0:0:0:0:
437,12,107521,1,0,0:0:0:0:
421,42,107620,5,4,1:1:0:0:
318,97,107820,1,0,0:0:0:0:
246,52,108020,1,0,1:0:0:0:
170,58,108220,1,4,3:2:0:0:
170,58,108620,5,0,3:0:0:0:
119,172,108820,1,0,1:0:0:0:
12,106,109020,1,0,0:0:0:0:
12,106,109120,1,0,1:0:0:0:
12,106,109220,5,0,3:0:0:0:
78,141,109417,1,0,3:0:0:0:
92,24,109614,1,0,1:0:0:0:
15,201,109812,1,0,0:0:0:0:
15,201,109910,1,0,1:0:0:0:
15,201,110009,2,0,P|21:249|24:276,1,70,0|0,3:0|3:0,0:0:0:0:
175,160,110404,2,0,P|181:208|184:235,1,70,0|0,1:0|3:0,0:0:0:0:
241,343,110798,5,4,3:1:0:0:
168,318,110999,1,0,3:0:0:0:
93,205,111200,5,0,1:0:0:0:
91,126,111402,1,0,0:0:0:0:
159,27,111603,5,0,1:0:0:0:
232,7,111804,1,0,3:0:0:0:
360,25,112006,5,0,3:0:0:0:
425,71,112207,1,0,1:0:0:0:
457,195,112408,5,0,0:0:0:0:
443,275,112610,1,0,3:0:0:0:
363,359,112811,5,0,1:0:0:0:
284,363,113012,1,0,0:0:0:0:
165,312,113214,5,0,3:0:0:0:
129,237,113415,1,0,1:0:0:0:
129,237,113516,1,0,1:0:0:0:
129,237,113616,2,0,P|133:212|137:188,2,35,8|8|4,3:3|0:3|0:3,0:0:0:0:
30,173,114018,6,0,P|25:130|100:57,1,140,4|0,3:1|1:0,0:0:0:0:
181,14,114614,1,0,1:0:0:0:
147,170,114812,1,0,3:0:0:0:
216,132,115011,1,0,3:0:0:0:
94,61,115210,1,0,1:0:0:0:
82,251,115408,6,0,B|75:289|75:289|88:331,1,70,0|2,3:0|0:1,0:0:0:0:
246,260,115807,5,0,3:0:0:0:
171,285,116007,1,0,1:0:0:0:
121,224,116207,1,2,1:1:0:0:
279,145,116407,5,0,3:0:0:0:
195,153,116607,1,0,3:0:0:0:
354,78,116807,5,2,1:1:0:0:
267,31,117007,1,0,3:0:0:0:
262,234,117207,6,0,P|253:287|248:313,1,70,4|0,3:1|3:0,0:0:0:0:
341,246,117604,2,0,P|332:299|327:325,1,70,0|0,1:0|0:0,0:0:0:0:
134,179,118001,6,0,P|143:232|148:258,1,70,2|2,1:1|3:1,0:0:0:0:
55,191,118398,2,0,P|64:244|69:270,1,70,0|2,3:0|1:1,0:0:0:0:
366,166,118796,6,0,P|357:219|352:245,2,70,0|0|2,0:0|3:0|1:1,0:0:0:0:
412,82,119392,1,0,0:0:0:0:
312,107,119591,1,0,3:0:0:0:
232,128,119789,1,8,0:3:0:0:
220,131,119889,1,8,0:3:0:0:
207,133,119988,1,0,1:0:0:0:
195,137,120087,1,0,1:0:0:0:
183,141,120187,1,0,1:1:0:0:
171,144,120286,1,0,1:0:0:0:
160,148,120386,5,4,0:1:0:0:
91,120,120585,1,0,3:0:0:0:
88,43,120785,1,0,1:0:0:0:
159,11,120986,1,0,1:0:0:0:
220,57,121186,1,0,3:0:0:0:
211,134,121386,1,0,3:0:0:0:
261,193,121587,1,0,1:0:0:0:
336,176,121787,1,0,3:0:0:0:
346,102,121987,6,0,P|382:108|438:118,1,70,2|0,0:1|3:0,0:0:0:0:
422,110,122388,2,0,P|387:103|353:98,1,70,0|2,1:1|3:1,0:0:0:0:
254,212,122789,6,0,P|218:218|162:228,1,70,0|8,1:1|0:3,0:0:0:0:
178,220,123190,2,0,P|212:213|246:208,1,70,4|0,3:3|0:0,0:0:0:0:
360,149,123590,6,0,P|379:186|363:308,1,140,6|2,3:1|1:1,0:0:0:0:
312,319,124192,1,0,3:0:0:0:
360,149,124392,6,0,P|379:186|363:308,1,140,0|0,1:0|1:0,0:0:0:0:
312,319,124994,1,0,1:0:0:0:
236,251,125195,6,0,B|193:251|196:297|131:298,1,105,2|0,0:1|0:0,0:0:0:0:
133,295,125601,2,0,B|160:321|160:321|151:352,1,70,2|0,1:1|0:0,0:0:0:0:
69,241,126007,1,0,0:0:0:0:
115,177,126210,1,0,3:1:0:0:
53,142,126413,1,0,1:0:0:0:
116,111,126616,1,2,3:1:0:0:
92,144,126819,6,0,P|171:133|250:129,1,140,4|0,3:1|1:0,0:0:0:0:
339,136,127419,1,0,1:0:0:0:
442,97,127619,2,0,P|441:60|430:19,1,70,0|0,3:0|3:0,0:0:0:0:
409,182,128019,2,0,P|410:219|421:260,1,70,0|0,1:0|3:0,0:0:0:0:
482,351,128419,5,2,0:1:0:0:
485,345,128617,1,0,3:0:0:0:
481,339,128816,1,0,1:0:0:0:
475,337,129015,1,0,0:0:0:0:
468,340,129213,1,2,3:1:0:0:
469,346,129412,1,0,3:0:0:0:
477,352,129611,1,2,1:1:0:0:
481,350,129809,1,0,3:0:0:0:
478,344,130008,5,4,3:1:0:0:
468,340,130207,1,0,3:0:0:0:
451,345,130405,1,0,1:0:0:0:
431,360,130604,1,0,3:0:0:0:
397,363,130803,1,0,1:0:0:0:
361,343,131001,1,0,3:0:0:0:
346,303,131200,1,0,3:0:0:0:
356,255,131399,1,0,1:0:0:0:
395,222,131597,6,0,B|434:229|435:260|484:269,1,70,2|0,0:1|3:0,0:0:0:0:
334,132,131995,2,0,P|293:136|256:206,1,105,2|0,1:1|0:0,0:0:0:0:
260,199,132392,2,0,P|214:213|183:223,1,70,0|0,0:1|3:0,0:0:0:0:
119,200,132789,1,8,0:3:0:0:
34,238,132988,1,4,3:3:0:0:
95,278,133187,6,0,P|86:206|78:114,1,140,4|0,3:1|1:0,0:0:0:0:
48,70,133783,1,0,0:0:0:0:
133,0,133981,2,0,B|155:28|155:28|144:66,1,70,0|0,3:0|3:0,0:0:0:0:
231,130,134379,2,0,B|236:165|236:165|207:192,1,70,0|0,1:0|3:0,0:0:0:0:
247,281,134776,5,2,0:1:0:0:
247,281,134977,1,0,3:0:0:0:
163,258,135178,1,0,1:1:0:0:
304,213,135380,2,0,P|320:248|336:284,1,70,2|0,0:1|3:0,0:0:0:0:
228,141,135782,2,0,P|195:131|145:115,1,70,8|0,0:3|1:0,0:0:0:0:
136,120,136084,1,0,1:0:0:0:
110,128,136185,1,0,1:0:0:0:
85,140,136286,1,0,1:0:0:0:
58,151,136386,5,4,3:1:0:0:
40,225,136589,1,0,0:0:0:0:
44,235,136793,5,0,1:0:0:0:
26,309,136996,1,0,0:0:0:0:
175,117,137200,5,2,3:1:0:0:
186,189,137404,1,2,3:1:0:0:
198,261,137608,1,0,1:0:0:0:
211,333,137812,1,0,3:1:0:0:
365,198,138015,5,2,1:1:0:0:
372,212,138213,1,0,3:0:0:0:
362,220,138412,1,2,1:1:0:0:
350,209,138611,1,0,1:0:0:0:
446,164,138809,5,2,3:1:0:0:
464,241,139008,1,0,3:0:0:0:
274,162,139207,5,2,1:1:0:0:
256,239,139406,1,0,3:0:0:0:
156,324,139604,6,0,P|113:299|97:195,1,140,4|0,3:1|1:0,0:0:0:0:
144,161,140213,1,0,1:0:0:0:
71,77,140416,2,0,P|33:88|-6:99,1,70,0|0,3:0|3:0,0:0:0:0:
219,36,140822,2,0,P|181:47|142:58,1,70,0|0,1:0|3:0,0:0:0:0:
299,13,141228,6,0,P|342:30|387:122,1,140,2|0,0:1|1:0,0:0:0:0:
360,178,141835,1,2,1:1:0:0:
410,263,142037,1,0,0:0:0:0:
403,341,142239,1,4,0:3:0:0:
479,361,142442,2,0,B|498:331|498:331|456:301,1,70,0|0,1:0|3:0,0:0:0:0:
320,366,142846,6,0,B|258:346|287:292|207:280,1,140,4|0,3:1|1:0,0:0:0:0:
148,324,143442,1,0,0:0:0:0:
47,242,143640,2,0,P|42:200|56:160,1,70,2|2,0:1|3:1,0:0:0:0:
97,117,144038,1,0,1:0:0:0:
97,117,144236,1,2,3:1:0:0:
195,249,144435,5,2,0:1:0:0:
121,215,144632,1,0,3:0:0:0:
217,131,144829,2,0,P|256:151|290:229,1,105,2|0,1:1|1:0,0:0:0:0:
296,217,145224,2,0,P|332:210|377:201,1,70,2|0,3:1|3:0,0:0:0:0:
454,150,145619,1,2,1:1:0:0:
379,127,145816,1,0,3:0:0:0:
447,300,146013,6,0,P|407:295|306:299,1,140,4|0,0:1|1:0,0:0:0:0:
250,350,146613,1,0,1:0:0:0:
133,289,146813,1,0,3:0:0:0:
202,251,147013,1,0,3:0:0:0:
176,281,147213,1,0,1:0:0:0:
161,258,147413,1,0,3:0:0:0:
269,203,147613,5,2,0:1:0:0:
349,293,147812,1,0,3:0:0:0:
460,313,148011,5,0,1:0:0:0:
397,374,148210,1,2,0:1:0:0:
378,151,148409,5,0,3:0:0:0:
409,232,148608,1,2,3:1:0:0:
419,237,148707,1,0,3:0:0:0:
423,230,148807,1,4,3:3:0:0:
416,227,148906,1,0,3:0:0:0:
406,226,149006,1,0,3:0:0:0:
402,234,149105,1,0,3:0:0:0:
403,242,149205,6,0,B|414:281|444:288|456:363,1,105,4|0,3:1|0:0,0:0:0:0:
453,348,149604,2,0,P|405:354|371:359,1,70,0|0,1:0|3:0,0:0:0:0:
240,202,150003,2,0,P|272:231|277:306,1,105,0|0,3:0|0:0,0:0:0:0:
274,299,150403,2,0,P|226:305|192:310,1,70,0|0,1:0|3:0,0:0:0:0:
49,346,150802,6,0,B|31:300|31:300|61:245,1,105,2|0,0:1|0:0,0:0:0:0:
74,247,151201,1,2,1:1:0:0:
30,122,151501,1,0,1:0:0:0:
35,111,151601,2,0,B|72:118|56:145|110:164,1,70,0|2,3:0|3:1,0:0:0:0:
161,168,152000,1,0,1:0:0:0:
200,76,152200,1,2,3:1:0:0:
297,98,152399,6,0,P|306:140|311:214,1,105,4|0,0:1|0:0,0:0:0:0:
306,217,152799,1,0,1:0:0:0:
328,295,152998,1,0,1:0:0:0:
322,373,153198,1,0,3:0:0:0:
322,373,153398,1,0,3:0:0:0:
224,287,153597,2,0,P|180:278|141:271,1,70,0|0,1:0|3:0,0:0:0:0:
46,105,153996,6,0,P|93:127|105:213,1,140,2|0,0:1|1:0,0:0:0:0:
78,279,154598,1,2,1:1:0:0:
162,374,154798,2,0,B|180:345|180:345|162:303,1,70,0|2,0:0|3:1,0:0:0:0:
0,251,155200,2,0,B|-17:305|-17:305|26:351,1,105,0|0,1:0|0:0,0:0:0:0:
25,349,155601,6,0,P|77:339|104:334,1,70,4|0,3:1|0:0,0:0:0:0:
207,232,155997,2,0,P|257:249|322:295,1,105,0|0,1:0|1:0,0:0:0:0:
309,283,156394,2,0,P|307:228|305:197,1,70,0|0,3:0|3:0,0:0:0:0:
278,140,156791,1,0,1:0:0:0:
360,161,156989,1,0,3:0:0:0:
225,208,157187,6,0,B|181:140|133:281|93:250,2,140,2|2|0,0:1|1:1|3:0,0:0:0:0:
289,253,158183,1,0,3:1:0:0:
223,295,158383,1,2,1:1:0:0:
145,205,158582,1,2,3:1:0:0:
225,108,158781,6,0,P|271:120|360:162,1,140,4|0,3:1|1:0,0:0:0:0:
416,213,159379,1,0,1:0:0:0:
474,99,159579,2,0,P|447:61|412:45,1,70,0|0,3:0|3:0,0:0:0:0:
354,158,159977,2,0,P|304:161|274:174,1,70,0|0,1:0|3:0,0:0:0:0:
284,304,160375,5,2,0:1:0:0:
284,304,160578,1,2,1:1:0:0:
362,253,160781,1,0,1:1:0:0:
211,230,160985,1,2,3:1:0:0:
132,243,161188,1,0,1:0:0:0:
56,210,161391,1,8,0:3:0:0:
56,210,161493,1,8,0:3:0:0:
56,210,161595,1,4,3:3:0:0:
128,213,161798,1,4,3:3:0:0:
200,243,162002,5,4,3:1:0:0:
272,224,162205,1,0,0:0:0:0:
345,255,162408,2,0,B|374:301|374:301|344:373,1,105,0|0,3:0|0:0,0:0:0:0:
349,357,162815,2,0,P|303:340|274:329,2,70,0|0|0,1:0|3:0|0:0,0:0:0:0:
349,357,163629,5,0,3:0:0:0:
426,352,163832,1,0,0:0:0:0:
500,342,164035,2,0,P|500:303|468:201,1,140,0|0,3:0|1:0,0:0:0:0:
400,187,164644,1,0,0:0:0:0:
311,263,164847,2,0,P|315:292|318:310,3,35,0|0|0|0,1:0|1:0|3:0|1:0,0:0:0:0:
319,315,165253,6,0,P|281:342|174:332,2,140,4|0|0,3:1|3:0|1:0,0:0:0:0:
378,266,166414,1,0,3:0:0:0:
378,266,166607,1,0,1:0:0:0:
319,315,166801,6,0,P|281:342|174:332,2,140,0|0|0,0:0|3:0|3:0,0:0:0:0:
378,266,167779,1,0,0:0:0:0:
302,238,167975,1,0,1:0:0:0:
397,341,168171,1,0,3:0:0:0:
423,201,168367,6,0,P|418:160|427:60,2,140,4|0|0,3:1|3:0|1:0,0:0:0:0:
423,201,169620,1,0,3:0:0:0:
326,163,169822,1,0,1:0:0:0:
326,163,169922,1,0,1:0:0:0:
326,163,170025,6,0,P|331:122|322:21,2,140,0|0|0,3:1|3:0|1:0,0:0:0:0:
326,161,171249,1,0,0:0:0:0:
256,136,171453,1,0,3:0:0:0:
195,174,171657,5,4,3:1:0:0:
195,174,172226,5,0,3:0:0:0:
92,141,172416,1,0,1:0:0:0:
92,141,172796,5,0,1:0:0:0:
152,93,172986,1,0,3:0:0:0:
219,48,173175,5,0,1:1:0:0:
231,48,173270,1,0,0:0:0:0:
242,56,173365,1,8,0:3:0:0:
243,68,173460,1,8,0:3:0:0:
244,90,173555,2,0,P|240:115|236:136,3,35,4|0|8|0,3:3|3:0|0:3|3:0,0:0:0:0:
225,200,173935,5,0,1:0:0:0:
230,226,174030,1,0,3:0:0:0:
216,245,174125,1,0,1:0:0:0:
221,268,174220,1,0,3:0:0:0:
210,277,174316,1,4,3:3:0:0:
218,284,174411,2,0,P|266:291|275:293,2,35,0|0|0,3:0|3:0|3:0,2:0:0:0:
215,299,174725,6,0,P|148:299|74:307,3,140,4|0|0|0,3:1|3:0|1:0|3:0,0:0:0:0:
215,299,176193,1,0,1:0:0:0:
221,313,176298,1,0,1:0:0:0:
229,331,176403,6,0,P|296:331|370:323,3,140,0|0|0|0,3:1|3:0|1:0|0:0,0:0:0:0:
229,331,177821,1,0,3:0:0:0:
246,227,178024,2,0,B|237:177|282:161|277:108|222:80,2,140,4|0|0,3:1|3:0|1:0,0:0:0:0:
246,225,179265,2,0,P|189:224|154:223,1,70,0|0,3:0|3:0,0:0:0:0:
310,277,179679,6,0,P|348:273|385:168,1,140,0|4,0:0|3:3,0:0:0:0:
344,137,180251,1,0,3:0:0:0:
440,52,180442,2,0,B|461:83|461:83|446:134,1,70,0|0,1:0|3:0,0:0:0:0:
436,130,180728,1,0,3:0:0:0:
461,140,180823,2,0,P|467:179|473:220,1,70,4|0,3:3|0:0,0:0:0:0:
292,68,181205,6,0,P|303:145|315:227,1,140,4|0,3:1|3:0,0:0:0:0:
291,279,181808,1,0,0:0:0:0:
388,172,182009,2,0,P|435:194|462:207,1,70,0|0,1:0|0:0,0:0:0:0:
222,188,182411,2,0,P|185:224|163:245,1,70,0|0,3:0|1:0,0:0:0:0:
170,261,182712,1,0,1:0:0:0:
145,239,182813,6,0,P|124:212|130:94,2,140,0|0|0,3:0|0:0|3:0,0:0:0:0:
164,250,183713,1,0,0:0:0:0:
170,261,183813,1,8,0:3:0:0:
173,272,183913,1,8,0:3:0:0:
168,282,184013,1,4,3:3:0:0:
159,291,184113,1,0,3:0:0:0:
158,302,184213,1,0,3:0:0:0:
163,312,184313,1,0,3:0:0:0:
169,324,184413,6,0,P|246:326|339:322,1,140,4|0,3:1|1:0,0:0:0:0:
383,346,185013,1,0,3:0:0:0:
460,325,185213,1,0,3:0:0:0:
386,325,185413,1,0,3:0:0:0:
280,354,185613,1,0,1:0:0:0:
194,340,185813,1,0,3:0:0:0:
112,352,186013,5,4,3:2:0:0:
28,335,186210,1,0,3:0:0:0:
141,319,186407,1,0,1:0:0:0:
214,343,186605,1,0,3:0:0:0:
291,323,186802,2,0,P|336:322|386:326,1,70,0|0,3:0|3:0,0:0:0:0:
495,355,187197,1,0,1:0:0:0:
420,371,187394,1,0,3:0:0:0:
353,332,187591,5,4,3:1:0:0:
275,331,187791,1,0,3:0:0:0:
181,373,187991,2,0,P|147:375|103:371,1,70,0|0,1:0|3:0,0:0:0:0:
35,347,188391,1,0,3:0:0:0:
113,344,188591,1,0,3:0:0:0:
216,365,188791,1,0,1:0:0:0:
294,356,188991,1,0,1:0:0:0:
370,351,189191,5,4,3:2:0:0:
446,372,189390,1,0,3:0:0:0:
296,368,189589,2,0,P|256:368|209:370,1,70,0|0,1:0|3:0,0:0:0:0:
84,344,189987,2,0,P|119:343|154:346,1,70,0|0,3:0|3:0,0:0:0:0:
305,374,190385,2,0,P|346:377|384:374,1,70,0|0,1:0|3:0,0:0:0:0:
449,352,190783,5,4,3:1:0:0:
449,352,190981,1,0,3:0:0:0:
292,351,191179,2,0,P|251:348|213:351,1,70,0|0,1:0|3:0,0:0:0:0:
151,364,191576,2,0,P|110:367|72:364,1,70,0|0,3:0|3:0,0:0:0:0:
303,369,191973,1,0,1:0:0:0:
303,369,192171,1,0,3:0:0:0:
378,340,192369,5,4,3:2:0:0:
454,356,192569,1,0,3:0:0:0:
301,346,192769,1,0,1:0:0:0:
223,341,192969,1,0,3:0:0:0:
145,350,193169,1,0,3:0:0:0:
68,340,193369,1,0,3:0:0:0:
225,319,193569,1,0,1:0:0:0:
301,346,193769,1,0,3:0:0:0:
379,329,193969,5,4,3:1:0:0:
460,338,194169,1,8,0:3:0:0:
460,338,194269,1,4,3:3:0:0:
460,338,194369,2,0,P|417:341|380:337,1,70,0|0,3:0|1:0,0:0:0:0:
281,344,194769,1,4,3:3:0:0:
281,344,194869,1,0,3:0:0:0:
281,344,194969,2,0,P|246:341|211:344,1,70,0|0,3:0|1:0,0:0:0:0:
136,358,195369,1,0,3:0:0:0:
10,335,195569,1,4,1:2:0:0:
109,330,195758,1,0,3:0:0:0:
126,336,195853,1,0,3:0:0:0:
143,331,195948,1,4,3:3:0:0:
159,341,196043,1,0,1:0:0:0:
181,331,196138,1,0,1:0:0:0:
190,344,196233,1,0,1:0:0:0:
213,333,196328,1,0,1:0:0:0:
221,344,196423,1,0,1:0:0:0:
235,339,196518,2,0,P|255:333|272:327,2,35,8|8|4,0:3|0:3|3:3,0:0:0:0:
265,345,196803,2,0,P|281:350|298:355,2,35,0|0|0,3:0|3:0|3:0,0:0:0:0:
321,352,197140,5,4,3:1:0:0:
394,365,197346,1,0,0:0:0:0:
464,341,197553,2,0,P|417:328|323:337,1,140,0|0,1:0|3:0,0:0:0:0:
256,368,198174,1,0,3:0:0:0:
161,338,198381,2,0,P|112:333|47:338,1,105,0|0,1:0|0:0,0:0:0:0:
40,343,198795,5,4,0:2:0:0:
130,359,198994,1,0,3:0:0:0:
256,329,199193,2,0,P|305:324|370:329,1,105,0|0,1:0|1:0,0:0:0:0:
381,339,199592,2,0,P|431:344|472:338,1,70,0|0,3:0|3:0,0:0:0:0:
256,329,199991,2,0,P|207:324|142:329,1,105,0|0,1:0|0:0,0:0:0:0:
135,338,200389,5,4,3:1:0:0:
60,318,200585,1,0,0:0:0:0:
264,252,200781,2,0,P|303:249|343:258,1,70,0|0,1:0|0:0,0:0:0:0:
357,265,201075,1,0,1:0:0:0:
384,255,201173,1,0,3:0:0:0:
476,232,201369,1,0,3:0:0:0:
251,244,201565,2,0,P|213:234|167:241,1,70,0|0,1:0|3:0,0:0:0:0:
64,222,201957,6,0,B|34:175|34:175|58:130,1,105,4|0,0:2|0:0,0:0:0:0:
88,115,202360,2,0,P|131:108|165:110,1,70,0|0,1:0|0:0,0:0:0:0:
177,94,202662,1,0,1:0:0:0:
207,111,202763,2,0,P|255:117|285:114,1,70,0|0,3:0|3:0,0:0:0:0:
355,174,203167,2,0,P|402:179|469:170,1,105,0|0,1:0|1:0,0:0:0:0:
487,188,203570,6,0,B|501:224|501:224|482:268,1,70,4|0,3:1|3:0,0:0:0:0:
359,320,203973,2,0,P|311:323|241:318,1,105,0|0,1:0|1:0,0:0:0:0:
230,300,204377,2,0,P|196:296|137:306,1,70,0|0,1:0|3:0,0:0:0:0:
7,302,204780,1,0,1:0:0:0:
108,239,204982,1,0,0:0:0:0:
108,239,205083,1,0,1:0:0:0:
108,239,205183,5,4,3:2:0:0:
169,182,205381,1,0,3:0:0:0:
242,219,205577,1,0,1:0:0:0:
227,302,205775,1,0,0:0:0:0:
227,302,205873,1,0,1:0:0:0:
227,302,205972,1,0,3:0:0:0:
293,342,206169,1,0,3:0:0:0:
363,297,206367,2,0,P|413:293|479:295,1,105,0|0,1:0|0:0,0:0:0:0:
486,275,206761,6,0,B|509:223|509:223|472:170,1,105,4|4,1:1|3:3,0:0:0:0:
380,148,207161,1,0,3:0:0:0:
311,205,207361,1,0,1:0:0:0:
150,173,207661,5,8,0:3:0:0:
150,173,207761,1,4,3:3:0:0:
125,73,207961,5,0,1:0:0:0:
190,16,208161,1,0,3:0:0:0:
296,17,208361,6,0,P|301:59|299:100,1,70,4|8,3:1|0:3,0:0:0:0:
310,113,208647,1,8,0:3:0:0:
300,143,208743,1,4,3:3:0:0:
276,169,208838,1,0,1:0:0:0:
246,179,208934,1,0,1:0:0:0:
215,175,209029,1,0,1:0:0:0:
195,162,209125,5,0,1:0:0:0:
189,150,209220,1,0,1:0:0:0:
195,139,209316,1,8,0:3:0:0:
209,140,209411,1,8,0:3:0:0:
212,152,209507,1,4,3:3:0:0:
206,153,209603,1,0,3:0:0:0:
192,150,209698,1,0,3:0:0:0:
201,141,209794,1,0,3:0:0:0:
256,192,209950,12,0,230074,0:0:0:0:
