osu file format v14

[General]
AudioFilename: audio.mp3
AudioLeadIn: 0
PreviewTime:113918
Countdown: 0
SampleSet: Soft
StackLeniency: 0.7
Mode: 0
LetterboxInBreaks: 0
WidescreenStoryboard: 1

[Editor]
Bookmarks: 56418,82000,85221,114018,162002,184413
DistanceSpacing: 1
BeatDivisor: 4
GridSize: 4
TimelineZoom: 1.7

[Metadata]
Title:Chto podelat'?
TitleUnicode:Что поделать?
Artist:Marto
ArtistUnicode:Marto
Creator:Florescence
Version:Normal
Source:
Tags:shoegaze underground indie alternative rock jessy джесси сияние юность севера siyaniye yunost' severa марто russian русский aishiteiru-
BeatmapID:3881866
BeatmapSetID:1865665

[Difficulty]
HPDrainRate:4
CircleSize:3
OverallDifficulty:5
ApproachRate:5.5
SliderMultiplier:1
SliderTickRate:1

[Events]
//Background and Video events
0,0,"dGorPWXxlyw.jpg",0,0
//Break Periods
2,82000,84080
//Storyboard Layer 0 (Background)
//Storyboard Layer 1 (Fail)
//Storyboard Layer 2 (Pass)
//Storyboard Layer 3 (Foreground)
//Storyboard Layer 4 (Overlay)
//Storyboard Sound Samples

[TimingPoints]
30785,404.040404040404,4,2,1,80,1,0
34017,387.096774193548,4,2,1,80,1,0
34791,398.671096345515,4,2,1,80,1,0
35590,398.009950248756,4,2,1,80,1,0
35590,-100,4,2,1,80,0,0
37185,402.684563758389,4,2,1,80,1,0
37185,-100,4,2,1,80,0,0
40406,-100,4,2,1,80,0,0
42016,388.349514563107,4,2,1,80,1,0
42016,-100,4,2,1,80,0,0
43600,406.779661016949,4,2,1,80,1,0
45227,397.350993377483,4,2,1,80,1,0
45227,-100,4,2,1,80,0,0
48405,405.405405405405,4,2,1,80,1,0
51648,396.039603960396,4,2,1,80,1,0
51648,-100,4,2,1,80,0,0
54816,400.667779632721,4,2,1,80,1,0
54816,-100,4,2,1,80,0,0
56418,397.088021178028,4,2,1,80,1,0
56418,-83.3333333333333,4,2,1,80,0,0
57212,-83.3333333333333,4,2,1,100,0,0
58006,396.694214876033,4,2,1,100,1,0
58006,-83.3333333333333,4,2,1,100,0,0
59592,405.405405405405,4,2,1,100,1,0
59592,-83.3333333333333,4,2,1,100,0,0
61213,397.350993377483,4,2,1,100,1,0
61213,-83.3333333333333,4,2,1,100,0,0
65980,-83.3333333333333,4,2,1,100,0,0
65981,401.33779264214,4,2,1,100,1,0
66382,-83.3333333333333,4,2,1,100,0,0
72402,405.405405405405,4,2,1,100,1,0
72806,-83.3333333333333,4,2,1,100,0,0
74022,397.350993377483,4,2,1,100,1,0
74022,-83.3333333333333,4,2,1,100,0,0
75611,399.334442595673,4,2,1,100,1,0
75611,-83.3333333333333,4,2,1,100,0,0
82000,400.667779632721,4,2,1,100,1,0
82000,-100,4,2,1,100,0,0
84617,-100,4,2,1,80,0,0
85205,399.999999999999,4,2,1,80,1,0
85221,-100,4,2,1,80,0,0
91004,410.958904109589,4,2,1,80,1,0
91620,402.684563758388,4,2,1,80,1,0
91620,-100,4,2,1,80,0,0
94841,394.736842105262,4,2,1,80,1,0
94841,-100,4,2,1,80,0,0
96419,398.671096345514,4,2,1,80,1,0
96419,-100,4,2,1,80,0,0
98013,405.405405405405,4,2,1,80,1,0
98013,-100,4,2,1,80,0,0
99634,400,4,2,1,80,1,0
99634,-100,4,2,1,80,0,0
101234,399.254990188309,4,2,1,80,1,0
101234,-100,4,2,1,80,0,0
102831,400,4,2,1,80,1,0
102831,-100,4,2,1,80,0,0
106031,397.350993377483,4,2,1,80,1,0
106031,-100,4,2,1,80,0,0
107620,400,4,2,1,80,1,0
107620,-100,4,2,1,80,0,0
109220,394.736842105263,4,2,1,80,1,0
109220,-100,4,2,1,80,0,0
110798,402.684563758389,4,2,1,80,1,0
110798,-100,4,2,1,80,0,0
114018,397.350993377483,4,2,1,100,1,0
114018,-83.3333333333333,4,2,1,100,0,0
115607,400,4,2,1,100,1,0
115607,-83.3333333333333,4,2,1,100,0,0
117207,397.350993377483,4,2,1,100,1,0
117207,-83.3333333333333,4,2,1,100,0,0
120385,400.667779632721,4,2,1,100,1,0
120385,-83.3333333333333,4,2,1,100,0,0
123590,401.33779264214,4,2,1,100,1,0
123590,-83.3333333333333,4,2,1,100,0,0
125195,406.091370558375,4,2,1,100,1,0
125195,-83.3333333333333,4,2,1,100,0,0
126819,400,4,2,1,100,1,0
126819,-83.3333333333333,4,2,1,100,0,0
128419,397.350993377483,4,2,1,100,1,0
128419,-83.3333333333333,4,2,1,100,0,0
134776,402.684563758389,4,2,1,100,1,0
134776,-83.3333333333333,4,2,1,100,0,0
136386,407.470288624788,4,2,1,100,1,0
136386,-83.3333333333333,4,2,1,100,0,0
138015,397.350993377483,4,2,1,100,1,0
138015,-83.3333333333333,4,2,1,100,0,0
139604,406.091370558375,4,2,1,100,1,0
139604,-83.3333333333333,4,2,1,100,0,0
141228,404.721753794266,4,2,1,100,1,0
141228,-83.3333333333333,4,2,1,100,0,0
142846,397.350993377483,4,2,1,100,1,0
142846,-83.3333333333333,4,2,1,100,0,0
144435,394.736842105263,4,2,1,100,1,0
144435,-83.3333333333333,4,2,1,100,0,0
146013,400,4,2,1,100,1,0
146013,-83.3333333333333,4,2,1,100,0,0
147613,398.009950248756,4,2,1,100,1,0
147613,-83.3333333333333,4,2,1,100,0,0
149205,399.334442595674,4,2,1,100,1,0
149205,-83.3333333333333,4,2,1,100,0,0
153996,401.33779264214,4,2,1,100,1,0
153996,-83.3333333333333,4,2,1,100,0,0
155601,396.694214876033,4,2,1,100,1,0
155601,-83.3333333333333,4,2,1,100,0,0
157187,398.671096345515,4,2,1,100,1,0
157187,-83.3333333333333,4,2,1,100,0,0
160375,406.779661016949,4,2,1,100,1,0
160375,-83.3333333333333,4,2,1,100,0,0
162002,-100,4,2,1,100,0,0
162408,-100,4,2,1,70,0,0
163629,406.091370558376,4,2,1,70,1,0
163629,-100,4,2,1,70,0,0
165253,387.096774193548,4,2,1,70,1,0
165253,-100,4,2,1,70,0,0
166801,391.517128874388,4,2,1,70,1,0
166801,-100,4,2,1,70,0,0
168367,425.531914893617,4,2,1,70,1,0
168367,-100,4,2,1,70,0,0
169218,402.684563758389,4,2,1,70,1,0
169218,-100,4,2,1,70,0,0
170025,408.163265306122,4,2,1,70,1,0
170025,-100,4,2,1,70,0,0
171657,379.746835443038,4,2,1,70,1,0
171657,-100,4,2,1,70,0,0
173175,380.348652931854,4,2,1,70,1,0
173175,-100,4,2,1,70,0,0
174725,419.580419580419,4,2,1,70,1,0
174725,-100,4,2,1,70,0,0
176403,405.405405405405,4,2,1,70,1,0
176403,-100,4,2,1,70,0,0
178024,413.793103448275,4,2,1,70,1,0
178024,-100,4,2,1,70,0,0
179679,381.558028616852,4,2,1,70,1,0
179679,-100,4,2,1,70,0,0
181205,402.010050251256,4,2,1,70,1,0
181205,-100,4,2,1,70,0,0
182813,399.999999999999,4,2,1,70,1,0
182813,-100,4,2,1,70,0,0
184413,-90.9090909090909,4,2,1,80,0,0
186013,394.736842105263,4,2,1,80,1,0
186013,-90.9090909090909,4,2,1,80,0,0
187591,399.999999999999,4,2,1,86,1,0
187591,-90.9090909090909,4,2,1,86,0,0
189191,398.009950248755,4,2,1,86,1,0
189191,-90.9090909090909,4,2,1,86,0,0
190783,396.694214876032,4,2,1,86,1,0
190783,-90.9090909090909,4,2,1,86,0,0
192369,399.999999999999,4,2,1,86,1,0
192369,-90.9090909090909,4,2,1,86,0,0
193969,-90.9090909090909,4,2,1,93,0,0
195569,379.746835443038,4,2,1,93,1,0
195569,-90.9090909090909,4,2,1,93,0,0
197140,413.793103448275,4,2,1,93,1,0
197140,-83.3333333333333,4,2,1,93,0,0
198795,398.671096345514,4,2,1,93,1,0
198795,-83.3333333333333,4,2,1,93,0,0
200389,392.156862745097,4,2,1,93,1,0
200389,-83.3333333333333,4,2,1,93,0,0
201957,403.361344537814,4,2,1,93,1,0
201957,-83.3333333333333,4,2,1,93,0,0
203973,-83.3333333333333,4,2,1,96,0,0
205183,394.736842105261,4,2,1,96,1,0
205183,-83.3333333333333,4,2,1,96,0,0
206761,399.999999999998,4,2,1,100,1,0
206761,-83.3333333333333,4,2,1,100,0,0
208361,382.165605095541,4,2,1,100,1,0
208361,-83.3333333333333,4,2,1,100,0,0
209950,372.670807453415,4,2,1,100,1,0
210136,-100,4,2,1,20,0,0

[Colours]
Combo1 : 17,254,176
Combo2 : 173,255,95
Combo3 : 255,88,100
Combo4 : 255,94,55

[HitObjects]
488,32,30785,6,0,P|452:52|391:80,1,100,4|0,3:1|1:0,0:0:0:0:
298,70,31593,2,0,P|268:112|285:171,1,100,0|0,0:0|1:0,0:0:0:0:
356,215,32401,2,0,P|423:223|472:222,1,100,0|0,3:0|1:0,0:0:0:0:
493,255,33007,2,0,P|505:285|460:336,1,100,0|0,3:0|3:0,0:0:0:0:
418,323,33613,1,0,1:0:0:0:
309,333,34017,5,4,3:1:0:0:
259,312,34210,2,0,L|193:331,1,50,0|0,3:0|1:0,0:0:0:0:
161,318,34597,2,0,P|125:303|141:207,1,153,0|0,3:0|1:0,0:0:0:0:
77,131,35590,6,0,P|111:117|145:105,1,50,0|0,3:0|3:0,3:0:0:0:
173,108,35988,1,0,1:0:0:0:
217,85,36187,1,0,3:0:0:0:
308,124,36585,2,0,P|346:131|376:138,2,50,0|0|0,0:0|1:0|0:0,0:0:0:0:
268,158,37185,2,0,P|271:191|272:270,1,100,4|0,3:1|1:0,0:0:0:0:
290,304,37789,2,0,P|292:346|294:366,1,50,0|0,3:0|0:0,0:0:0:0:
388,382,38393,1,0,1:0:0:0:
482,350,38795,6,0,B|501:303|501:303|472:244,1,100,0|0,3:0|1:0,0:0:0:0:
439,228,39399,2,0,P|429:168|428:118,1,100,0|0,3:0|1:0,0:0:0:0:
436,79,40003,1,0,0:0:0:0:
350,26,40406,5,4,1:1:0:0:
260,70,40809,2,0,P|211:81|191:83,2,50,0|4|0,1:0|3:2|0:0,1:0:0:0:
340,130,41614,1,0,1:0:0:0:
298,222,42016,6,0,B|238:245|238:245|205:286|205:286|111:315,1,200,0|0,3:0|1:0,0:0:0:0:
78,307,42986,2,0,P|38:263|53:221,1,100,0|0,3:0|0:0,0:0:0:0:
85,198,43600,6,0,L|74:140,1,50,4|0,3:1|3:0,0:0:0:0:
108,111,44006,2,0,P|147:94|208:76,1,100,0|0,1:0|0:0,0:0:0:0:
277,11,44820,1,0,1:0:0:0:
362,65,45227,6,0,P|417:70|442:122,1,100,0|0,3:0|1:0,0:0:0:0:
470,144,45823,1,0,3:0:0:0:
423,232,46220,2,0,P|390:224|378:180,1,50,0|0,3:0|1:0,0:0:0:0:
316,136,46816,6,0,P|256:156|148:181,1,150,4|0,3:1|3:0,0:0:0:0:
126,178,47611,1,0,0:0:0:0:
44,235,48008,1,0,1:0:0:0:
126,292,48405,6,0,P|181:300|245:310,1,100,0|0,3:0|1:0,0:0:0:0:
315,362,49215,1,0,3:0:0:0:
389,295,49621,1,0,1:0:0:0:
306,238,50027,1,4,3:1:0:0:
392,188,50432,6,0,P|410:127|425:70,1,100,0|0,1:0|0:0,0:0:0:0:
328,49,51243,1,0,1:0:0:0:
235,85,51648,2,0,P|186:97|128:105,1,100,0|0,3:0|1:0,0:0:0:0:
87,109,52242,2,0,P|56:150|65:196,1,100,0|0,3:0|3:0,0:0:0:0:
106,222,52836,1,0,1:0:0:0:
200,253,53232,6,0,P|256:244|314:244,2,100,4|0|0,1:1|1:0|0:0,0:0:0:0:
217,351,54420,1,0,1:0:0:0:
316,355,54816,6,0,P|376:345|435:331,1,100,0|0,3:0|1:0,0:0:0:0:
458,312,55417,1,0,0:2:0:0:
463,212,55817,2,0,P|447:149|443:141,1,50,0|0,3:0|1:0,0:0:0:0:
470,116,56218,1,0,3:0:0:0:
436,65,56418,6,0,P|346:83|298:94,1,119.999996337891,4|0,3:1|1:0,0:0:0:0:
204,128,57212,1,0,1:0:0:0:
169,78,57410,1,2,1:1:0:0:
57,121,57807,1,2,1:1:0:0:
24,171,58006,6,0,P|44:224|54:242,1,59.9999981689454,0|0,0:0|3:0,0:0:0:0:
86,270,58402,2,0,P|121:259|157:247,1,59.9999981689454,2|0,1:1|0:0,0:0:0:0:
186,209,58799,2,0,P|260:201|303:299,1,179.999994506836,0|0,3:0|3:1,0:0:0:0:
284,338,59592,5,4,3:1:0:0:
394,291,59997,2,0,L|467:282,1,59.9999981689454,0|0,1:1|1:1,0:0:0:0:
446,224,60402,2,0,L|504:170,1,59.9999981689454,0|0,3:1|3:1,0:0:0:0:
474,124,60808,2,0,L|502:61,1,59.9999981689454,0|0,1:1|3:1,0:0:0:0:
448,30,61213,6,0,P|380:24|332:48,1,119.999996337891,2|0,0:1|1:0,0:0:0:0:
217,21,62007,2,0,P|161:13|113:13,1,59.9999981689454,0|0,3:0|3:0,0:0:0:0:
112,53,62405,2,0,B|72:64|72:64|24:77,1,59.9999981689454,0|0,1:0|0:0,0:0:0:0:
82,121,62802,2,0,P|64:196|62:291,1,119.999996337891,4|0,3:1|1:0,0:0:0:0:
63,358,63597,1,0,1:0:0:0:
120,372,63795,1,2,0:1:0:0:
206,288,64193,2,0,P|201:205|190:147,1,119.999996337891,2|0,1:1|3:1,0:0:0:0:
228,119,64789,2,0,B|276:54|365:98|318:207|483:199|499:123,1,299.999990844727,2|0,1:1|1:1,0:0:0:0:
478,86,65980,5,4,3:1:0:0:
363,50,66382,2,0,P|302:65|293:68,1,59.9999981689454,0|0,1:0|1:0,0:0:0:0:
283,120,66783,2,0,P|301:171|306:194,1,59.9999981689454,0|0,1:0|3:0,0:0:0:0:
259,218,67185,1,0,1:0:0:0:
145,179,67586,6,0,P|59:126|1:105,2,119.999996337891,2|0|0,0:1|1:1|3:0,0:0:0:0:
183,132,68589,2,0,L|248:127,1,59.9999981689454,0|4,3:0|3:3,0:0:0:0:
302,123,68991,1,8,3:3:0:0:
349,159,69191,6,0,P|425:190|433:261,1,119.999996337891,4|2,3:1|1:1,0:0:0:0:
359,311,69994,1,2,1:1:0:0:
244,347,70395,2,0,P|172:350|156:350,1,59.9999981689454,0|0,3:0|1:0,0:0:0:0:
132,322,70797,2,0,P|72:330|9:344,1,119.999996337891,0|2,0:0|1:1,0:0:0:0:
0,221,71599,1,0,0:0:0:0:
34,106,72001,1,0,1:1:0:0:
9,52,72201,1,2,3:1:0:0:
56,14,72401,5,4,3:1:0:0:
175,18,72806,2,0,P|201:43|226:64,1,59.9999981689454,0|0,1:0|1:0,0:0:0:0:
278,69,73211,2,0,P|298:122|308:156,1,59.9999981689454,0|0,3:0|3:0,0:0:0:0:
352,152,73617,2,0,P|351:201|347:231,1,59.9999981689454,0|0,1:0|3:0,0:0:0:0:
403,235,74022,6,0,P|465:202|450:149,1,119.999996337891,2|0,0:1|1:0,0:0:0:0:
386,69,74816,1,2,3:1:0:0:
278,123,75214,1,2,1:1:0:0:
168,76,75611,6,0,P|83:83|16:79,1,119.999996337891,4|0,3:1|1:0,0:0:0:0:
3,193,76409,2,0,P|89:186|154:192,1,119.999996337891,0|0,1:0|3:0,0:0:0:0:
167,227,77008,1,0,1:0:0:0:
184,284,77208,2,0,P|251:293|287:296,1,59.9999981689454,2|0,0:1|3:0,0:0:0:0:
297,319,77607,1,2,1:1:0:0:
329,205,78206,1,2,3:1:0:0:
362,154,78406,2,0,P|347:88|347:81,1,59.9999981689454,8|4,3:3|3:3,3:3:0:0:
367,47,78805,5,4,3:1:0:0:
248,28,79205,2,0,P|213:88|207:98,1,59.9999981689454,0|0,1:0|1:0,0:0:0:0:
167,112,79604,2,0,P|176:189|176:209,1,59.9999981689454,0|0,3:0|3:0,3:0:0:0:
131,212,80003,2,0,P|115:256|104:286,1,59.9999981689454,0|0,1:0|3:0,0:0:0:0:
67,311,80403,6,0,P|145:330|202:341,1,119.999996337891,2|0,0:1|1:0,0:0:0:0:
239,315,81002,1,2,0:1:0:0:
290,344,81201,2,0,P|352:329|428:313,1,119.999996337891,0|0,3:0|1:0,0:0:0:0:
406,317,85205,6,0,P|420:253|427:234,1,50,4|0,3:1|3:0,0:0:0:0:
393,222,85605,2,0,P|385:173|379:142,1,50,0|4,1:0|3:2,0:0:0:0:
415,135,86005,2,0,P|362:115|304:120,1,100,0|0,0:0|1:0,0:0:0:0:
239,176,86805,6,0,P|176:176|131:154,1,100,0|0,3:0|1:0,0:0:0:0:
107,125,87405,1,0,3:0:0:0:
86,27,87805,2,0,L|14:49,2,50,0|0|0,3:0|1:0|0:0,0:0:0:0:
135,28,88404,6,0,P|191:23|266:52,1,100,4|0,3:1|1:0,0:0:0:0:
282,38,89004,2,0,P|287:108|299:219,1,150,4|0,3:2|1:0,0:0:0:0:
346,273,90004,6,0,P|403:287|436:294,1,50,0|0,3:0|3:0,0:0:0:0:
440,304,90404,1,0,1:0:0:0:
359,363,90804,2,0,P|265:372|241:377,1,101,0|0,3:0|3:0,0:0:0:0:
180,312,91620,6,0,P|135:285|148:228,1,100,4|0,3:1|1:0,0:0:0:0:
110,199,92224,1,4,3:2:0:0:
121,150,92425,2,0,P|195:154|247:167,1,100,0|0,0:0|1:0,0:0:0:0:
317,135,93230,2,0,P|352:98|332:51,1,100,0|0,3:0|1:0,0:0:0:0:
303,19,93834,1,0,3:0:0:0:
252,15,94036,2,0,P|192:23|127:36,1,100,0|0,0:0|1:0,0:0:0:0:
51,41,94841,5,4,1:1:0:0:
24,83,95038,2,0,P|26:143|81:169,1,100,0|4,0:0|3:2,0:0:0:0:
29,209,95630,2,0,P|35:269|44:329,1,100,0|0,0:0|1:0,0:0:0:0:
136,334,96419,6,0,P|197:349|229:324,1,100,0|0,1:0|0:3,0:0:0:0:
272,314,97017,2,0,P|297:318|332:326,1,50,4|0,3:3|1:0,0:0:0:0:
370,316,97415,2,0,P|425:300|485:350,1,100,0|0,3:0|0:0,0:0:0:0:
493,277,98013,6,0,P|487:223|485:198,1,50,4|0,3:1|3:0,0:0:0:0:
466,181,98418,1,0,1:0:0:0:
473,131,98621,1,0,3:0:0:0:
439,93,98823,2,0,P|372:85|312:91,1,100,0|0,0:0|1:0,0:0:0:0:
249,36,99634,5,0,3:0:0:0:
228,134,100034,1,0,3:0:0:0:
246,180,100234,2,0,P|242:254|244:303,1,100,0|0,3:0|3:0,0:0:0:0:
259,327,100834,1,0,1:0:0:0:
156,315,101234,6,0,P|84:326|65:330,1,50,4|0,3:1|3:0,0:0:0:0:
62,345,101633,2,0,P|6:361|1:363,2,50,0|4|0,1:0|3:2|0:0,0:0:0:0:
65,245,102431,1,0,1:0:0:0:
38,150,102831,6,0,P|47:89|169:97,1,200,0|0,3:0|3:0,0:0:0:0:
213,93,103831,2,0,P|214:149|212:156,1,50,0|0,0:0|1:0,0:0:0:0:
305,185,104431,6,0,P|307:129|324:65,1,100,4|0,3:1|1:0,0:0:0:0:
356,55,105031,2,0,P|418:46|475:132,1,150,4|0,3:2|1:0,0:0:0:0:
399,172,106031,6,0,P|400:232|416:285,1,100,0|0,3:0|1:0,0:0:0:0:
455,292,106627,1,0,3:0:0:0:
440,339,106825,2,0,P|378:346|313:360,1,100,0|0,0:0|1:0,0:0:0:0:
251,310,107620,1,4,1:1:0:0:
159,351,108020,2,0,P|106:368|97:374,2,50,0|4|0,1:0|3:2|0:0,0:0:0:0:
156,251,108820,5,0,1:0:0:0:
64,207,109220,2,0,P|55:144|55:95,1,100,0|0,3:0|1:0,0:0:0:0:
69,59,109812,1,0,3:0:0:0:
52,12,110009,2,0,P|114:5|175:17,1,100,0|0,3:0|1:0,0:0:0:0:
212,86,110798,5,4,3:1:0:0:
302,42,111200,1,0,1:0:0:0:
363,121,111603,2,0,B|378:171|378:171|359:229,1,100,0|0,1:0|3:0,0:0:0:0:
282,275,112408,2,0,B|262:229|262:229|287:166,1,100,0|0,0:0|1:0,0:0:0:0:
192,133,113214,2,0,B|128:127|121:187|36:210,1,150,0|4,3:0|0:3,0:0:0:0:
4,185,114018,5,4,3:1:0:0:
62,289,114415,2,0,L|128:307,1,59.9999981689454,0|0,1:0|1:0,0:0:0:0:
159,349,114812,2,0,L|232:318,1,59.9999981689454,0|0,3:0|3:0,0:0:0:0:
259,285,115210,1,0,1:0:0:0:
317,299,115408,1,0,3:0:0:0:
350,348,115607,6,0,P|407:321|388:246,1,119.999996337891,2|0,0:1|1:0,0:0:0:0:
366,227,116207,2,0,P|343:153|429:110,1,179.999994506836,2|2,1:1|1:1,0:0:0:0:
333,22,117207,6,0,P|253:30|191:42,1,119.999996337891,4|0,3:1|1:0,0:0:0:0:
94,26,118001,2,0,P|106:73|114:104,1,59.9999981689454,2|2,1:1|3:1,0:0:0:0:
62,194,118597,1,2,1:1:0:0:
118,213,118796,6,0,P|182:213|215:222,1,59.9999981689454,0|0,0:0|3:0,0:0:0:0:
228,180,119193,2,0,P|290:212|305:227,1,59.9999981689454,2|0,1:1|0:0,0:0:0:0:
342,204,119591,2,0,P|358:276|283:342,1,179.999994506836,0|0,3:0|1:1,0:0:0:0:
232,316,120385,5,4,0:1:0:0:
114,339,120785,2,0,P|108:290|105:268,1,59.9999981689454,0|0,1:0|1:0,0:0:0:0:
64,236,121186,2,0,P|84:176|92:157,1,59.9999981689454,0|0,3:2|3:0,0:0:0:0:
133,146,121587,1,0,1:0:0:0:
184,37,121987,6,0,B|258:24|257:118|359:109,1,179.999994506836,2|2,0:1|3:1,0:0:0:0:
391,76,122789,2,0,P|457:99|429:203,1,179.999994506836,0|0,1:1|0:0,0:0:0:0:
388,175,123590,5,6,3:1:0:0:
277,222,123991,1,2,1:1:0:0:
167,271,124392,1,0,1:0:0:0:
57,320,124794,2,0,P|36:254|39:229,1,59.9999981689454,0|0,1:0|1:0,0:0:0:0:
63,211,125195,6,0,P|68:142|62:75,1,119.999996337891,2|2,0:1|1:1,0:0:0:0:
179,125,126007,1,0,0:0:0:0:
228,91,126210,2,0,P|217:58|209:28,2,59.9999981689454,0|0|2,3:1|1:1|3:1,3:1:0:0:
282,123,126819,6,0,P|348:114|417:114,2,119.999996337891,4|0|0,3:1|1:0|3:0,0:0:0:0:
232,232,128019,1,0,1:0:0:0:
173,243,128219,1,0,3:0:0:0:
117,267,128419,6,0,P|61:223|98:172,1,119.999996337891,2|0,0:1|1:0,0:0:0:0:
121,76,129213,2,0,P|231:96|269:104,1,119.999996337891,2|2,3:1|1:1,0:0:0:0:
347,150,130008,6,0,P|392:82|426:36,1,119.999996337891,4|0,3:1|1:0,0:0:0:0:
483,149,130803,2,0,P|443:212|408:276,1,119.999996337891,0|0,1:0|3:0,0:0:0:0:
335,336,131597,6,0,P|253:345|200:355,1,119.999996337891,2|2,0:1|1:1,0:0:0:0:
96,343,132392,1,0,0:1:0:0:
51,302,132591,2,0,P|32:235|30:226,1,59.9999981689454,0|8,3:0|0:3,0:0:0:0:
79,204,132988,1,4,3:3:0:0:
137,216,133187,5,4,3:1:0:0:
233,145,133584,2,0,P|223:69|222:50,1,59.9999981689454,0|0,1:0|0:0,0:0:0:0:
277,58,133981,2,0,P|339:53|346:52,1,59.9999981689454,0|0,3:0|3:0,0:0:0:0:
377,97,134379,2,0,P|385:163|386:182,1,59.9999981689454,0|0,1:0|3:0,0:0:0:0:
346,202,134776,6,0,P|355:282|364:351,1,119.999996337891,2|0,0:1|1:1,0:0:0:0:
478,351,135581,2,0,P|497:268|465:163,1,179.999994506836,0|0,3:0|1:0,0:0:0:0:
429,138,136386,5,4,3:1:0:0:
471,25,136793,1,0,1:0:0:0:
353,51,137200,2,0,P|314:59|260:71,1,59.9999981689454,2|2,3:1|3:1,0:0:0:0:
234,58,137608,1,0,1:0:0:0:
198,106,137812,1,0,3:1:0:0:
217,164,138015,2,0,P|134:193|70:206,1,119.999996337891,2|2,1:1|1:1,0:0:0:0:
37,300,138809,2,0,P|88:355|162:319,1,119.999996337891,2|2,3:1|1:1,0:0:0:0:
231,297,139604,5,4,3:1:0:0:
350,297,140010,2,0,P|358:235|361:224,1,59.9999981689454,0|0,1:0|1:0,0:0:0:0:
319,191,140416,2,0,P|311:121|308:108,1,59.9999981689454,0|0,3:0|3:0,0:0:0:0:
347,82,140822,2,0,P|411:78|420:79,1,59.9999981689454,0|0,1:0|3:0,0:0:0:0:
460,103,141228,6,0,P|476:179|426:207,1,119.999996337891,2|0,0:1|1:0,0:0:0:0:
391,190,141835,1,2,1:1:0:0:
326,290,142239,2,0,P|271:279|232:277,2,59.9999981689454,4|0|0,0:3|1:0|3:0,0:0:0:0:
378,321,142846,5,4,3:1:0:0:
488,275,143243,1,0,1:0:0:0:
428,171,143640,2,0,P|435:106|437:91,1,59.9999981689454,2|2,0:1|3:1,0:0:0:0:
409,56,144038,1,0,1:0:0:0:
349,51,144236,1,2,3:1:0:0:
315,101,144435,6,0,P|224:95|181:96,1,119.999996337891,2|2,0:1|1:1,0:0:0:0:
91,156,145224,1,2,3:1:0:0:
49,199,145421,1,0,3:0:0:0:
80,250,145619,1,2,1:1:0:0:
164,333,146013,6,0,P|250:338|299:339,1,119.999996337891,4|0,0:1|1:0,0:0:0:0:
403,323,146813,2,0,P|470:322|486:321,1,59.9999981689454,0|0,3:0|3:0,0:0:0:0:
502,277,147213,2,0,P|503:211|505:189,1,59.9999981689454,0|0,1:0|3:0,0:0:0:0:
469,166,147613,6,0,P|409:147|356:177,1,119.999996337891,2|0,0:1|1:0,0:0:0:0:
305,195,148210,2,0,P|229:176|70:268,1,239.999992675781,2|0,0:1|3:0,0:0:0:0:
49,287,149205,5,4,3:1:0:0:
0,177,149604,1,0,1:0:0:0:
23,59,150003,2,0,P|92:39|117:41,1,59.9999981689454,0|0,3:0|3:0,0:0:0:0:
133,67,150403,2,0,P|206:84|220:81,1,59.9999981689454,0|0,1:0|3:0,0:0:0:0:
237,49,150802,6,0,P|306:31|387:57,1,119.999996337891,2|2,0:1|1:1,0:0:0:0:
467,75,151601,1,0,3:0:0:0:
499,124,151800,2,0,P|495:196|496:206,1,59.9999981689454,2|0,3:1|1:0,1:0:0:0:
461,234,152200,1,2,3:1:0:0:
470,292,152399,5,4,0:1:0:0:
358,336,152799,2,0,P|281:334|264:332,1,59.9999981689454,0|0,1:0|1:0,0:0:0:0:
260,288,153198,2,0,P|184:281|168:280,1,59.9999981689454,0|0,3:0|3:0,0:0:0:0:
165,232,153597,2,0,P|166:168|171:147,1,59.9999981689454,0|0,1:0|3:0,0:0:0:0:
201,125,153996,6,0,P|254:89|334:141,1,119.999996337891,2|0,0:1|1:0,0:0:0:0:
423,70,154798,2,0,P|423:145|418:200,1,119.999996337891,0|0,0:0|1:0,0:0:0:0:
467,301,155601,5,4,3:1:0:0:
353,338,155997,1,0,1:0:0:0:
242,290,156394,1,0,3:0:0:0:
131,337,156791,1,0,1:0:0:0:
77,310,156989,1,0,3:0:0:0:
77,250,157187,6,0,P|82:174|63:123,1,119.999996337891,2|2,0:1|1:1,0:0:0:0:
9,28,157984,1,0,3:0:0:0:
65,8,158183,2,0,P|129:8|154:11,1,59.9999981689454,0|2,3:1|1:1,0:0:0:0:
166,50,158582,1,2,3:1:0:0:
219,23,158781,6,0,P|293:34|347:61,1,119.999996337891,4|0,3:1|1:0,0:0:0:0:
454,54,159579,2,0,P|446:132|431:149,1,59.9999981689454,0|0,3:0|3:0,0:0:0:0:
401,138,159977,1,0,1:0:0:0:
417,195,160177,1,0,3:0:0:0:
369,228,160375,6,0,P|291:222|282:219,1,59.9999981689454,2|2,0:1|1:1,0:0:0:0:
251,242,160781,2,0,P|192:194|189:186,1,59.9999981689454,0|2,1:1|3:1,0:0:0:0:
141,206,161188,2,0,P|78:236|99:332,1,179.999994506836,0|4,1:0|3:3,0:0:0:0:
139,356,162002,6,0,P|224:340|348:321,1,200,4|0,3:1|1:0,0:0:0:0:
465,169,163629,5,0,3:0:0:0:
376,122,164035,1,0,3:0:0:0:
282,158,164441,1,0,1:0:0:0:
190,117,164847,1,0,1:0:0:0:
91,152,165253,5,4,3:1:0:0:
153,229,165640,2,0,P|137:290|129:339,2,100,0|0|0,3:0|1:0|3:0,0:0:0:0:
239,179,166801,2,0,P|317:137|350:137,1,100,0|0,0:0|3:0,0:0:0:0:
414,88,167584,1,0,3:0:0:0:
472,168,167975,1,0,1:0:0:0:
467,217,168171,1,0,3:0:0:0:
431,246,168367,6,0,P|368:252|321:260,1,100,4|0,3:1|3:0,0:0:0:0:
247,194,169218,2,0,P|174:186|106:173,1,100,0|0,1:0|3:0,0:0:0:0:
87,103,170025,5,0,3:1:0:0:
144,21,170433,1,0,3:0:0:0:
235,65,170841,2,0,P|310:43|345:47,1,100,0|0,1:0|0:0,0:0:0:0:
370,13,171453,1,0,3:0:0:0:
407,51,171657,5,4,3:1:0:0:
450,140,172036,1,0,0:0:0:0:
406,230,172416,2,0,P|365:256|291:258,1,100,0|0,1:0|1:0,0:0:0:0:
270,241,172986,1,0,3:0:0:0:
224,223,173175,6,0,B|200:268|200:268|220:318,1,100,0|4,1:1|3:3,0:0:0:0:
235,360,173745,2,0,P|164:357|105:368,1,100,8|0,0:3|1:0,0:0:0:0:
85,352,174316,1,4,3:3:0:0:
40,271,174725,6,0,B|63:225|63:225|40:165,1,100,4|0,3:1|3:0,0:0:0:0:
38,79,175564,2,0,P|99:67|146:133,1,150,0|0,1:0|1:0,0:0:0:0:
146,182,176403,5,0,3:1:0:0:
244,162,176808,1,0,3:0:0:0:
341,142,177213,1,0,1:0:0:0:
423,85,177619,2,0,P|473:118|473:134,1,50,0|0,0:0|3:0,0:0:0:0:
485,147,178024,6,0,P|471:220|469:291,1,100,4|0,3:1|3:0,0:0:0:0:
421,333,178851,1,0,1:0:0:0:
324,306,179265,1,0,3:0:0:0:
351,201,179679,6,0,P|290:204|216:216,1,100,0|4,0:0|3:3,0:0:0:0:
216,244,180251,1,0,3:0:0:0:
176,275,180442,2,0,P|119:288|70:302,1,100,0|4,1:0|3:3,0:0:0:0:
51,208,181205,5,4,3:1:0:0:
67,109,181607,1,0,3:0:0:0:
12,25,182009,2,0,P|96:24|189:54,1,150,0|0,1:0|1:0,0:0:0:0:
202,67,182813,5,0,3:0:0:0:
397,24,183613,2,0,P|368:117|367:187,1,150,0|0,3:0|3:0,0:0:0:0:
407,204,184413,5,4,3:1:0:0:
314,262,184813,1,0,1:0:0:0:
206,240,185213,1,0,3:0:0:0:
153,143,185613,1,0,1:0:0:0:
61,207,186013,6,0,P|31:272|40:325,1,110.000003356934,4|0,3:2|1:0,0:0:0:0:
129,364,186802,2,0,P|194:357|257:353,1,110.000003356934,0|0,3:0|1:0,0:0:0:0:
344,375,187591,5,4,3:1:0:0:
424,300,187991,2,0,P|406:241|404:232,1,55.0000016784668,0|0,1:0|3:0,0:0:0:0:
356,227,188391,2,0,P|380:165|381:154,1,55.0000016784668,0|0,3:0|3:0,0:0:0:0:
418,140,188791,2,0,P|380:83|378:73,1,55.0000016784668,0|0,1:0|1:0,0:0:0:0:
380,41,189191,5,4,3:2:0:0:
276,77,189589,1,0,1:0:0:0:
173,36,189987,2,0,L|163:107,1,55.0000016784668,0|0,3:0|3:0,0:0:0:0:
117,118,190385,2,0,P|123:180|124:199,1,55.0000016784668,0|0,1:0|3:0,0:0:0:0:
101,223,190783,6,0,P|168:238|184:241,1,55.0000016784668,4|0,3:1|3:0,3:0:0:0:
207,249,191179,2,0,P|275:230|280:228,1,55.0000016784668,0|0,1:0|3:0,1:0:0:0:
314,245,191576,2,0,P|405:250|466:253,1,110.000003356934,0|0,3:0|1:0,0:0:0:0:
471,152,192369,6,0,P|395:146|315:142,1,110.000003356934,4|0,3:2|1:0,0:0:0:0:
286,67,193169,2,0,P|294:39|303:2,2,55.0000016784668,0|0|0,3:0|3:0|1:0,0:0:0:0:
244,169,193969,6,0,P|203:208|210:262,1,110.000003356934,4|0,3:1|3:0,0:0:0:0:
235,304,194569,1,0,1:0:0:0:
289,300,194769,2,0,P|329:260|323:203,1,110.000003356934,4|0,3:3|1:0,0:0:0:0:
337,98,195569,2,0,B|226:23|131:78|139:212|0:203|-14:96,1,385.000011749268,4|0,1:2|3:0,0:0:0:0:
26,82,197140,5,4,3:1:0:0:
127,18,197553,1,0,1:0:0:0:
244,41,197967,2,0,P|245:83|248:128,1,59.9999981689454,0|0,3:0|3:0,0:0:0:0:
254,160,198381,2,0,P|252:193|249:231,1,59.9999981689454,0|0,1:0|3:0,0:0:0:0:
255,282,198795,6,0,P|259:317|262:360,2,59.9999981689454,4|0|0,0:2|3:0|1:0,0:0:0:0:
369,317,199592,1,0,3:0:0:0:
475,261,199991,1,0,1:0:0:0:
461,139,200389,6,0,P|391:172|348:187,1,119.999996337891,4|0,3:1|1:0,0:0:0:0:
230,186,201173,2,0,P|146:204|133:206,1,59.9999981689454,0|0,3:0|3:0,0:0:0:0:
127,240,201565,2,0,P|57:243|51:242,1,59.9999981689454,0|0,1:0|3:0,0:0:0:0:
14,219,201957,5,4,0:2:0:0:
24,338,202360,1,0,1:0:0:0:
143,339,202763,2,0,P|184:340|223:352,1,59.9999981689454,0|0,3:0|3:0,0:0:0:0:
249,306,203167,2,0,P|308:335|327:334,1,59.9999981689454,0|0,1:0|1:0,0:0:0:0:
357,316,203570,5,4,3:1:0:0:
470,278,203973,2,0,P|493:216|467:170,1,119.999996337891,0|0,1:0|1:0,0:0:0:0:
472,51,204780,2,0,P|430:56|408:68,1,59.9999981689454,0|0,1:0|0:0,0:0:0:0:
353,59,205183,2,0,P|286:107|276:162,1,119.999996337891,4|0,3:1|1:0,0:0:0:0:
169,84,205972,2,0,P|109:105|96:109,1,59.9999981689454,0|0,3:0|3:0,0:0:0:0:
74,151,206367,2,0,P|138:178|147:182,1,59.9999981689454,0|0,1:0|3:0,0:0:0:0:
136,233,206761,5,4,1:1:0:0:
171,346,207161,1,0,3:0:0:0:
229,357,207361,1,0,1:0:0:0:
330,292,207761,1,4,3:3:0:0:
321,232,207961,1,0,1:0:0:0:
234,146,208361,6,0,P|222:77|341:43,1,179.999994506836,4|0,3:1|1:0,0:0:0:0:
362,7,209125,2,0,P|402:70|337:149,1,179.999994506836,0|0,1:0|3:0,0:0:0:0:
256,192,209950,12,0,230074,0:0:0:0:
