osu file format v14

[General]
AudioFilename: audio.mp3
AudioLeadIn: 0
PreviewTime: 113918
Countdown: 0
SampleSet: Soft
StackLeniency: 0.7
Mode: 0
LetterboxInBreaks: 0
WidescreenStoryboard: 0

[Editor]
Bookmarks: 56406,82000,85205,114018,162002,184413,209950
DistanceSpacing: 0.7
BeatDivisor: 4
GridSize: 4
TimelineZoom: 3.499999

[Metadata]
Title:Chto podelat'?
TitleUnicode:Что поделать?
Artist:Marto
ArtistUnicode:Marto
Creator:Florescence
Version:Insane
Source:
Tags:shoegaze underground indie alternative rock jessy джесси сияние юность севера siyaniye yunost' severa марто russian русский aishiteiru-
BeatmapID:3837575
BeatmapSetID:1865665

[Difficulty]
HPDrainRate:7
CircleSize:4
OverallDifficulty:8
ApproachRate:8
SliderMultiplier:1.4
SliderTickRate:1

[Events]
//Background and Video events
0,0,"dGorPWXxlyw.jpg",0,0
//Break Periods
2,82000,83854
//Storyboard Layer 0 (Background)
//Storyboard Layer 1 (Fail)
//Storyboard Layer 2 (Pass)
//Storyboard Layer 3 (Foreground)
//Storyboard Layer 4 (Overlay)
//Storyboard Sound Samples

[TimingPoints]
30785,404.040404040404,4,2,1,80,1,0
30785,-100,4,2,1,80,0,0
31593,-133.333333333333,4,2,1,80,0,0
31997,-83.3333333333333,4,2,1,80,0,0
33007,-100,4,2,1,80,0,0
34017,387.096774193548,4,2,1,80,1,0
34017,-100,4,2,1,80,0,0
34791,398.671096345515,4,2,1,80,1,0
35590,398.009950248756,4,2,1,80,1,0
35590,-100,4,2,1,80,0,0
36386,-83.3333333333333,4,2,1,80,0,0
37185,402.684563758389,4,2,1,80,1,0
37185,-100,4,2,1,80,0,0
40406,-100,4,2,1,80,0,0
41614,-76.9230769230769,4,2,1,80,0,0
42016,388.349514563107,4,2,1,80,1,0
42016,-100,4,2,1,80,0,0
43181,-76.9230769230769,4,2,1,80,0,0
43600,406.779661016949,4,2,1,80,1,0
43600,-100,4,2,1,80,0,0
43803,-83.3333333333333,4,2,1,80,0,0
45227,397.350993377483,4,2,1,80,1,0
45227,-100,4,2,1,80,0,0
46816,-76.9230769230769,4,2,1,80,0,0
48405,405.405405405405,4,2,1,80,1,0
48405,-76.9230769230769,4,2,1,80,0,0
51648,396.039603960396,4,2,1,80,1,0
51648,-100,4,2,1,80,0,0
52242,-76.9230769230769,4,2,1,80,0,0
54024,-100,4,2,1,80,0,0
54816,400.667779632721,4,2,1,80,1,0
54816,-100,4,2,1,80,0,0
56418,397.088021178028,4,2,1,80,1,0
56418,-71.4285714285714,4,2,1,80,0,0
56815,-71.4285714285714,4,2,1,80,0,0
57206,-71.4285714285714,4,2,1,100,0,0
57406,-83.3333333333333,4,2,1,100,0,0
58006,396.694214876033,4,2,1,100,1,0
58006,-100,4,2,1,100,0,0
59592,405.405405405405,4,2,1,100,1,0
59592,-100,4,2,1,100,0,0
61213,397.350993377483,4,2,1,100,1,0
61213,-100,4,2,1,100,0,0
65980,-100,4,2,1,100,0,0
65981,401.33779264214,4,2,1,100,1,0
72402,405.405405405405,4,2,1,100,1,0
74022,397.350993377483,4,2,1,100,1,0
74022,-100,4,2,1,100,0,0
75611,399.334442595673,4,2,1,100,1,0
75611,-100,4,2,1,100,0,0
82000,400.667779632721,4,2,1,100,1,0
84604,-100,4,2,1,80,0,0
85205,399.999999999999,4,2,1,80,1,0
85221,-100,4,2,1,80,0,0
91004,410.958904109589,4,2,1,80,1,0
91620,402.684563758388,4,2,1,80,1,0
94841,394.736842105262,4,2,1,80,1,0
94841,-83.3333333333333,4,2,1,80,0,0
96419,398.671096345514,4,2,1,80,1,0
96419,-100,4,2,1,80,0,0
98013,405.405405405405,4,2,1,80,1,0
98013,-76.9230769230769,4,2,1,80,0,0
98823,-100,4,2,1,80,0,0
99229,-76.9230769230769,4,2,1,80,0,0
99634,400,4,2,1,80,1,0
99634,-100,4,2,1,80,0,0
100834,-83.3333333333333,4,2,1,80,0,0
101234,399.254990188309,4,2,1,80,1,0
101234,-100,4,2,1,80,0,0
102831,400,4,2,1,80,1,0
102831,-100,4,2,1,80,0,0
106031,397.350993377483,4,2,1,80,1,0
106031,-100,4,2,1,80,0,0
107620,400,4,2,1,80,1,0
107620,-100,4,2,1,80,0,0
109220,394.736842105263,4,2,1,80,1,0
109220,-100,4,2,1,80,0,0
110798,402.684563758389,4,2,1,80,1,0
110798,-76.9230769230769,4,2,1,80,0,0
114018,397.350993377483,4,2,1,100,1,0
114018,-100,4,2,1,100,0,0
115607,400,4,2,1,100,1,0
115607,-100,4,2,1,100,0,0
117207,397.350993377483,4,2,1,100,1,0
117207,-100,4,2,1,100,0,0
120385,400.667779632721,4,2,1,100,1,0
120385,-100,4,2,1,100,0,0
123590,401.33779264214,4,2,1,100,1,0
123590,-76.9230769230769,4,2,1,100,0,0
125195,406.091370558375,4,2,1,100,1,0
125195,-100,4,2,1,100,0,0
126819,400,4,2,1,100,1,0
126819,-83.3333333333333,4,2,1,100,0,0
127219,-100,4,2,1,100,0,0
128419,397.350993377483,4,2,1,100,1,0
128419,-100,4,2,1,100,0,0
134776,402.684563758389,4,2,1,100,1,0
134776,-83.3333333333333,4,2,1,100,0,0
136386,407.470288624788,4,2,1,100,1,0
136386,-100,4,2,1,100,0,0
138015,397.350993377483,4,2,1,100,1,0
138015,-100,4,2,1,100,0,0
139604,406.091370558375,4,2,1,100,1,0
139604,-100,4,2,1,100,0,0
141228,404.721753794266,4,2,1,100,1,0
141228,-100,4,2,1,100,0,0
142846,397.350993377483,4,2,1,100,1,0
142846,-100,4,2,1,100,0,0
144435,394.736842105263,4,2,1,100,1,0
144435,-100,4,2,1,100,0,0
145619,-76.9230769230769,4,2,1,100,0,0
146013,400,4,2,1,100,1,0
146013,-100,4,2,1,100,0,0
147613,398.009950248756,4,2,1,100,1,0
147613,-100,4,2,1,100,0,0
149205,399.334442595674,4,2,1,100,1,0
149205,-76.9230769230769,4,2,1,100,0,0
153996,401.33779264214,4,2,1,100,1,0
153996,-100,4,2,1,100,0,0
155601,396.694214876033,4,2,1,100,1,0
155601,-100,4,2,1,100,0,0
157187,398.671096345515,4,2,1,100,1,0
157187,-100,4,2,1,100,0,0
160375,406.779661016949,4,2,1,100,1,0
160375,-100,4,2,1,100,0,0
162408,-100,4,2,1,70,0,0
163629,406.091370558376,4,2,1,70,1,0
163629,-100,4,2,1,70,0,0
165253,387.096774193548,4,2,1,70,1,0
165253,-100,4,2,1,70,0,0
166801,391.517128874388,4,2,1,70,1,0
166801,-100,4,2,1,70,0,0
168367,425.531914893617,4,2,1,70,1,0
168367,-100,4,2,1,70,0,0
169218,402.684563758389,4,2,1,70,1,0
169218,-100,4,2,1,70,0,0
169253,-100,4,2,1,70,0,0
170025,408.163265306122,4,2,1,70,1,0
170025,-100,4,2,1,70,0,0
171657,379.746835443038,4,2,1,70,1,0
171657,-100,4,2,1,70,0,0
173175,380.348652931854,4,2,1,70,1,0
173175,-100,4,2,1,70,0,0
174725,419.580419580419,4,2,1,70,1,0
176403,405.405405405405,4,2,1,70,1,0
176403,-100,4,2,1,70,0,0
178024,413.793103448275,4,2,1,70,1,0
178024,-100,4,2,1,70,0,0
179679,381.558028616852,4,2,1,70,1,0
179679,-100,4,2,1,70,0,0
181205,402.010050251256,4,2,1,70,1,0
181205,-100,4,2,1,70,0,0
182813,399.999999999999,4,2,1,70,1,0
182813,-100,4,2,1,70,0,0
184413,-100,4,2,1,80,0,0
186013,394.736842105263,4,2,1,80,1,0
186013,-100,4,2,1,80,0,0
187591,399.999999999999,4,2,1,86,1,0
187591,-76.9230769230769,4,2,1,86,0,0
188391,-100,4,2,1,86,0,0
189191,398.009950248755,4,2,1,86,1,0
189191,-83.3333333333333,4,2,1,86,0,0
190783,396.694214876032,4,2,1,86,1,0
190783,-83.3333333333333,4,2,1,86,0,0
192369,399.999999999999,4,2,1,86,1,0
192369,-100,4,2,1,86,0,0
193969,-100,4,2,1,93,0,0
195569,379.746835443038,4,2,1,93,1,0
195569,-100,4,2,1,93,0,0
197140,413.793103448275,4,2,1,93,1,0
197140,-76.9230769230769,4,2,1,93,0,0
198795,398.671096345514,4,2,1,93,1,0
198795,-100,4,2,1,93,0,0
200389,392.156862745097,4,2,1,93,1,0
200389,-76.9230769230769,4,2,1,93,0,0
201957,403.361344537814,4,2,1,93,1,0
201957,-83.3333333333333,4,2,1,93,0,0
203973,-83.3333333333333,4,2,1,96,0,0
205183,394.736842105261,4,2,1,96,1,0
205183,-100,4,2,1,96,0,0
206761,399.999999999998,4,2,1,100,1,0
206761,-76.9230769230769,4,2,1,100,0,0
208361,382.165605095541,4,2,1,100,1,0
209950,372.670807453415,4,2,1,100,1,0
209950,-100,4,2,1,100,0,0
210136,-100,4,2,1,20,0,0

[Colours]
Combo1 : 17,254,176
Combo2 : 173,255,95
Combo3 : 255,88,100
Combo4 : 255,94,55

[HitObjects]
229,38,30784,5,4,3:1:0:0:
229,38,30987,1,0,3:0:0:0:
282,127,31189,1,0,1:0:0:0:
387,89,31391,1,0,3:0:0:0:
409,28,31593,2,0,P|401:56|391:96,1,52.5000020027161,0|0,0:0|3:0,0:0:0:0:
193,228,31997,2,0,P|184:187|175:147,1,83.9999974365235,0|0,1:0|0:0,0:0:0:0:
151,140,32300,1,0,1:0:0:0:
163,118,32401,5,0,3:0:0:0:
146,302,32603,1,0,3:0:0:0:
146,302,32805,1,0,1:0:0:0:
328,324,33007,2,0,P|314:260|296:203,1,105,0|0,3:0|0:0,0:0:0:0:
314,205,33411,1,0,3:0:0:0:
423,221,33613,1,0,1:0:0:0:
447,219,33714,1,0,0:0:0:0:
471,200,33815,1,0,0:0:0:0:
472,161,33916,1,0,0:0:0:0:
444,133,34017,5,4,3:1:0:0:
416,312,34210,1,0,3:0:0:0:
366,75,34404,1,0,1:0:0:0:
444,133,34597,1,0,3:0:0:0:
349,85,34791,2,0,P|283:98|198:113,1,140,0|0,0:0|1:0,0:0:0:0:
7,199,35389,5,0,3:0:0:0:
32,202,35488,1,0,1:0:0:0:
61,198,35588,1,0,3:0:0:0:
196,113,35789,1,0,3:0:0:0:
127,10,35988,1,0,1:0:0:0:
87,276,36187,1,0,3:0:0:0:
7,199,36386,1,0,3:0:0:0:
32,202,36485,1,0,1:0:0:0:
61,198,36585,1,0,0:0:0:0:
110,6,36784,2,0,P|79:53|87:96,1,83.9999974365235,0|0,1:0|0:0,0:0:0:0:
266,172,37185,5,4,3:1:0:0:
360,148,37386,1,0,3:0:0:0:
202,84,37587,1,0,1:0:0:0:
305,19,37789,1,0,3:0:0:0:
384,151,37990,2,0,P|407:112|404:71,1,70,0|0,0:0|3:0,0:0:0:0:
325,25,38393,1,0,1:0:0:0:
471,216,38594,5,0,0:0:0:0:
455,232,38695,1,0,1:0:0:0:
435,239,38795,1,0,3:0:0:0:
258,157,38997,1,0,3:0:0:0:
197,243,39198,1,0,1:0:0:0:
0,156,39399,2,0,P|55:165|116:179,1,105,0|0,3:0|0:0,0:0:0:0:
120,197,39802,1,0,1:0:0:0:
215,267,40003,1,0,1:0:0:0:
300,161,40205,1,0,0:0:0:0:
305,178,40305,1,0,1:0:0:0:
308,191,40406,1,4,1:1:0:0:
426,234,40607,5,0,0:0:0:0:
309,318,40809,1,0,1:0:0:0:
461,252,41010,1,4,3:2:0:0:
455,122,41211,1,0,0:0:0:0:
455,122,41413,1,0,3:0:0:0:
359,22,41614,2,0,P|303:22|244:33,1,90.9999958343508,0|0,1:0|0:0,0:0:0:0:
261,44,41916,1,0,1:0:0:0:
262,62,42017,1,0,3:0:0:0:
285,174,42210,5,8,0:3:0:0:
242,336,42404,5,8,0:3:0:0:
264,383,42598,5,4,0:3:0:0:
258,68,42792,5,0,1:0:0:0:
274,328,42986,5,0,3:0:0:0:
296,309,43083,1,0,3:0:0:0:
282,296,43181,2,0,P|284:240|284:203,1,90.9999958343508,0|0,3:0|0:0,0:0:0:0:
284,205,43600,5,4,3:1:0:0:
397,252,43803,2,0,B|410:293|410:293|385:333,1,83.9999974365235,0|0,3:0|1:0,0:0:0:0:
158,272,44210,2,0,B|145:231|145:231|170:191,1,83.9999974365235,0|0,3:0|0:0,0:0:0:0:
137,124,44616,1,0,3:0:0:0:
311,352,44820,1,0,1:0:0:0:
158,272,45023,5,0,3:0:0:0:
133,280,45125,1,0,1:0:0:0:
113,290,45227,1,0,3:0:0:0:
94,367,45425,1,0,3:0:0:0:
11,339,45624,1,0,1:0:0:0:
89,188,45823,5,0,3:0:0:0:
197,148,46021,1,0,0:0:0:0:
239,256,46220,1,0,3:0:0:0:
239,256,46419,1,0,1:0:0:0:
56,113,46617,1,0,0:0:0:0:
41,103,46717,1,0,0:0:0:0:
36,86,46816,1,4,3:1:0:0:
101,8,47015,1,0,3:0:0:0:
184,60,47213,2,0,P|240:67|283:72,1,90.9999958343508,0|0,1:0|3:0,0:0:0:0:
481,47,47611,2,0,P|448:82|475:168,1,136.499993751526
496,163,48008,5,0,1:0:0:0:
438,250,48207,1,0,0:0:0:0:
438,250,48306,1,0,1:0:0:0:
438,250,48405,2,0,P|311:281|265:303,1,181.999991668702,0|0,3:0|1:0,0:0:0:0:
451,333,49013,1,0,3:0:0:0:
255,298,49215,1,0,3:0:0:0:
272,284,49317,1,0,1:0:0:0:
277,263,49418,1,0,0:0:0:0:
180,213,49621,1,0,1:0:0:0:
234,129,49823,1,0,0:0:0:0:
234,129,49925,1,0,1:0:0:0:
234,129,50026,1,4,3:1:0:0:
328,177,50229,1,0,3:0:0:0:
85,249,50432,6,0,P|88:196|96:150,1,90.9999958343508,0|0,1:0|3:0,0:0:0:0:
70,68,50837,2,0,P|50:110|103:154,1,90.9999958343508,0|0,0:0|3:0,0:0:0:0:
254,31,51243,1,0,1:0:0:0:
162,7,51445,1,0,0:0:0:0:
153,26,51547,1,0,1:0:0:0:
164,42,51648,1,0,3:0:0:0:
320,83,51846,1,0,3:0:0:0:
396,51,52044,1,0,1:0:0:0:
483,148,52242,2,0,P|425:137|353:126,1,90.9999958343508,0|0,3:0|0:0,0:0:0:0:
285,245,52638,1,0,3:0:0:0:
365,299,52836,1,0,1:0:0:0:
435,266,53034,5,0,0:0:0:0:
443,254,53133,1,0,1:0:0:0:
442,242,53232,1,4,1:1:0:0:
241,244,53430,1,0,0:0:0:0:
351,342,53628,1,0,1:0:0:0:
137,232,53826,1,0,3:0:0:0:
212,321,54024,2,0,P|235:289|230:245,1,70,0|0,0:0|3:0,0:0:0:0:
41,319,54420,2,0,P|108:333|126:339,1,70,0|0,1:0|0:0,0:0:0:0:
116,350,54717,1,0,1:0:0:0:
116,367,54816,5,0,3:0:0:0:
37,237,55016,1,0,3:0:0:0:
126,162,55216,1,0,1:0:0:0:
73,14,55417,2,0,L|84:55,1,35,0|0,0:0|1:0,0:0:0:0:
126,162,55617,1,0,3:0:0:0:
46,125,55817,5,0,3:0:0:0:
166,83,56018,1,0,1:0:0:0:
247,113,56218,1,0,3:0:0:0:
401,57,56418,2,0,P|452:96|437:176,1,146.999995513916,4|0,3:1|0:0,0:0:0:0:
456,201,56815,6,0,P|406:187|359:172,1,97.9999970092774,0|0,1:0|0:0,0:0:0:0:
247,113,57212,1,0,1:0:0:0:
464,322,57410,2,0,P|388:296|347:283,1,83.9999974365235,2|0,3:1|3:0,0:0:0:0:
149,351,57807,1,2,1:1:0:0:
221,371,58006,1,0,0:0:0:0:
273,295,58204,1,0,3:0:0:0:
188,204,58402,5,2,1:1:0:0:
78,243,58601,1,0,0:0:0:0:
11,145,58799,1,0,3:0:0:0:
64,22,58997,5,0,1:0:0:0:
92,14,59096,1,0,1:0:0:0:
129,32,59196,1,4,3:3:0:0:
143,59,59295,1,0,3:0:0:0:
139,76,59394,1,0,3:1:0:0:
131,87,59493,1,0,3:0:0:0:
122,84,59592,6,0,P|178:88|253:95,1,105,4|0,3:1|0:0,0:0:0:0:
272,89,59997,2,0,P|274:128|275:172,1,70,0|0,1:1|1:1,0:0:0:0:
485,40,60402,2,0,P|432:43|408:44,1,70,0|0,3:1|3:1,0:0:0:0:
387,212,60808,2,0,P|385:168|382:129,1,70,0|0,1:1|3:1,0:0:0:0:
419,48,61213,5,2,0:1:0:0:
419,48,61411,1,0,3:0:0:0:
363,296,61610,1,0,1:0:0:0:
386,371,61809,1,2,1:1:0:0:
226,349,62007,2,0,P|226:280|222:211,1,105,0|0,3:0|0:0,0:0:0:0:
253,220,62405,2,0,P|195:220|173:221,1,70,0|0,1:0|0:0,0:0:0:0:
78,368,62802,2,0,P|27:339|30:241,1,140,4|0,3:1|1:0,0:0:0:0:
60,183,63398,5,2,3:1:0:0:
111,167,63597,5,0,1:0:0:0:
141,108,63795,5,2,0:1:0:0:
108,42,63994,5,0,3:0:0:0:
15,29,64193,5,2,1:1:0:0:
164,131,64391,6,0,L|250:135,1,70
502,13,64788,2,0,P|451:11|416:10,1,70,2|0,1:1|0:0,0:0:0:0:
164,131,65185,2,0,L|250:135,1,70,2|8,3:1|0:3,0:0:0:0:
500,230,65583,1,4,3:3:0:0:
464,221,65682,1,0,1:0:0:0:
440,194,65781,1,0,1:1:0:0:
438,156,65881,1,0,1:0:0:0:
468,123,65981,6,0,P|467:76|467:32,1,70,4|0,3:1|0:0,0:0:0:0:
331,308,66382,1,0,1:1:0:0:
331,308,66583,1,0,1:1:0:0:
172,200,66783,2,0,P|171:259|168:284,1,70,0|0,1:1|3:1,0:0:0:0:
52,295,67185,2,0,P|52:339|48:376,1,70,0|0,1:1|3:1,0:0:0:0:
29,157,67586,5,2,0:1:0:0:
173,199,67787,1,0,3:1:0:0:
271,152,67987,1,0,1:1:0:0:
336,205,68188,1,0,3:1:0:0:
424,181,68389,1,0,3:0:0:0:
507,213,68589,5,0,3:0:0:0:
468,219,68690,1,0,3:0:0:0:
424,223,68790,1,4,3:3:0:0:
265,265,68991,1,8,3:3:0:0:
39,213,69191,2,0,P|88:209|126:208,1,70,4|0,3:1|0:0,0:0:0:0:
222,61,69593,2,0,P|222:95|223:130,1,70,2|0,1:1|3:0,0:0:0:0:
279,352,69994,2,0,P|277:305|278:255,1,70,2|0,1:1|3:0,0:0:0:0:
240,45,70395,5,0,3:0:0:0:
328,126,70596,1,0,1:0:0:0:
241,200,70797,1,0,0:0:0:0:
149,134,70997,1,0,3:0:0:0:
257,345,71198,2,0,P|255:288|255:190,1,140,2|0,1:1|0:0,0:0:0:0:
266,366,71800,5,2,3:1:0:0:
234,224,72001,1,0,1:1:0:0:
280,57,72201,1,2,3:1:0:0:
63,56,72402,6,0,P|106:61|138:66,1,70,4|0,3:1|0:0,0:0:0:0:
380,128,72807,1,0,1:0:0:0:
466,107,73010,1,0,1:0:0:0:
234,224,73212,1,0,3:0:0:0:
234,224,73415,1,0,3:0:0:0:
463,270,73617,2,0,P|410:277|379:280,1,70,0|0,1:0|3:0,0:0:0:0:
315,352,74022,5,2,0:1:0:0:
230,326,74220,1,0,3:0:0:0:
129,384,74419,1,0,1:0:0:0:
187,224,74618,1,0,0:0:0:0:
179,208,74717,1,0,1:0:0:0:
171,194,74816,2,0,P|169:160|167:111,1,70,2|0,3:1|3:0,0:0:0:0:
334,87,75214,2,0,P|336:48|338:7,1,70,2|0,1:1|3:0,0:0:0:0:
270,311,75611,6,0,P|270:250|266:157,1,140,4|0,3:1|1:0,0:0:0:0:
268,180,76409,5,0,1:0:0:0:
164,104,76609,1,0,3:0:0:0:
235,9,76809,1,0,3:0:0:0:
334,87,77008,1,0,1:0:0:0:
122,173,77208,2,0,P|69:163|45:94,1,105,2|0,0:1|0:0,0:0:0:0:
0,100,77607,2,0,P|39:97|88:94,1,70,2|0,1:1|0:0,0:0:0:0:
261,178,78007,1,0,0:0:0:0:
359,206,78206,1,2,3:1:0:0:
426,224,78406,1,8,3:3:0:0:
452,230,78606,1,4,3:3:0:0:
502,172,78805,5,4,3:1:0:0:
361,155,79005,1,0,0:0:0:0:
244,247,79205,1,0,1:0:0:0:
132,202,79404,1,0,1:0:0:0:
12,238,79604,1,0,3:0:0:0:
12,238,79804,1,0,3:0:0:0:
244,135,80003,1,0,1:0:0:0:
465,227,80203,1,0,3:0:0:0:
384,268,80403,6,0,P|356:241|366:200,1,70,2|0,0:1|3:0,0:0:0:0:
263,44,80802,2,0,P|232:73|232:104,1,70,0|2,1:0|0:1,0:0:0:0:
217,123,81101,1,0,1:0:0:0:
244,135,81201,2,0,P|291:132|325:127,1,70,0|0,3:0|0:0,0:0:0:0:
256,262,81601,2,0,P|221:265|187:268,1,70,0|0,1:0|3:0,0:0:0:0:
252,373,84604,5,0,3:0:0:0:
253,187,84804,2,0,P|251:136|253:58,1,105,0|0,1:0|0:0,0:0:0:0:
270,62,85205,6,0,P|316:56|351:59,1,70,4|0,3:1|3:0,0:0:0:0:
191,15,85605,1,0,1:0:0:0:
160,99,85805,1,4,3:2:0:0:
43,59,86005,2,0,B|31:27|31:27|57:-3,1,70,0|0,0:0|3:0,0:0:0:0:
164,184,86405,2,0,P|137:183|48:177,1,105,0|0,1:0|0:0,0:0:0:0:
40,164,86805,5,0,3:0:0:0:
208,258,87005,1,0,3:0:0:0:
117,339,87205,1,0,1:0:0:0:
21,282,87405,1,0,3:0:0:0:
376,295,87805,1,0,3:0:0:0:
429,366,88005,1,0,1:0:0:0:
512,336,88204,1,0,0:0:0:0:
413,221,88404,6,0,P|414:177|425:132,1,70,4|0,3:1|3:0,0:0:0:0:
282,7,88804,2,0,P|332:15|367:17,1,70,0|4,1:0|3:2,0:0:0:0:
418,151,89204,1,0,0:0:0:0:
351,16,89404,1,0,3:0:0:0:
267,123,89604,2,0,P|261:191|261:221,1,70,0|0,1:0|0:0,0:0:0:0:
273,220,89904,1,0,1:0:0:0:
258,234,90004,5,0,3:0:0:0:
192,314,90204,1,0,3:0:0:0:
124,244,90404,1,0,1:0:0:0:
179,180,90604,1,0,3:0:0:0:
55,109,90804,1,0,3:0:0:0:
28,126,90904,1,0,1:0:0:0:
39,146,91004,1,0,3:0:0:0:
260,192,91209,2,0,P|262:157|267:123,1,70,0|0,3:0|0:0,0:0:0:0:
293,108,91517,1,0,1:0:0:0:
277,78,91620,5,4,3:1:0:0:
228,16,91821,1,0,3:0:0:0:
137,163,92022,1,0,1:0:0:0:
85,109,92224,1,4,3:2:0:0:
3,242,92425,2,0,P|41:298|98:369,1,140,0|0,0:0|1:0,0:0:0:0:
85,354,93230,5,0,3:0:0:0:
113,233,93432,1,0,3:0:0:0:
0,285,93633,1,0,1:0:0:0:
396,329,93834,2,0,P|326:324|257:320,1,140,0|0,3:0|3:0,0:0:0:0:
179,354,94438,1,0,1:0:0:0:
483,274,94640,1,0,0:0:0:0:
375,132,94841,5,4,1:1:0:0:
450,46,95038,1,0,0:0:0:0:
364,148,95235,2,0,P|365:200|368:246,1,83.9999974365235,0|4,1:0|3:2,0:0:0:0:
260,55,95630,1,0,0:0:0:0:
260,55,95827,1,0,3:0:0:0:
260,55,96025,1,0,1:0:0:0:
181,125,96222,5,0,0:0:0:0:
170,131,96321,1,0,1:0:0:0:
159,142,96419,1,0,1:0:0:0:
356,238,96618,5,8,0:3:0:0:
213,342,96817,5,0,0:3:0:0:
256,192,97017,5,4,3:3:0:0:
406,321,97216,1,0,1:0:0:0:
213,342,97415,1,0,3:0:0:0:
188,330,97515,1,0,3:0:0:0:
170,351,97615,2,0,P|127:352|87:353,1,70,0|0,3:0|0:0,0:0:0:0:
33,209,98013,6,0,B|17:251|17:251|37:297,1,90.9999958343508,4|0,3:1|3:0,0:0:0:0:
213,342,98418,1,0,1:0:0:0:
132,261,98621,1,0,3:0:0:0:
309,233,98823,2,0,P|266:228|217:231,1,70,0|0,0:0|3:0,0:0:0:0:
408,250,99229,2,0,B|428:206|428:206|413:164,1,90.9999958343508,0|0,1:0|0:0,0:0:0:0:
395,150,99533,1,0,1:0:0:0:
411,127,99634,5,0,3:0:0:0:
464,40,99834,1,0,3:0:0:0:
214,0,100034,1,0,3:0:0:0:
278,55,100234,1,0,3:0:0:0:
263,151,100434,1,0,0:0:0:0:
144,188,100634,1,0,3:0:0:0:
68,104,100834,2,0,P|126:100|156:102,1,83.9999974365235,0|0,1:0|0:0,0:0:0:0:
0,176,101234,5,4,3:1:0:0:
64,254,101433,1,0,3:0:0:0:
0,324,101633,1,0,1:0:0:0:
59,82,101832,1,4,3:2:0:0:
231,224,102032,2,0,P|280:230|313:233,1,70,0|0,0:0|3:0,0:0:0:0:
64,254,102431,1,0,1:0:0:0:
230,223,102631,1,0,0:0:0:0:
215,207,102731,1,0,1:0:0:0:
232,182,102831,5,0,3:0:0:0:
334,301,103031,1,0,3:0:0:0:
243,384,103231,2,0,P|242:337|240:299,1,70,0|0,1:0|3:0,0:0:0:0:
449,333,103631,1,0,3:0:0:0:
471,317,103731,1,0,1:0:0:0:
465,291,103831,1,0,0:0:0:0:
360,167,104031,1,0,1:0:0:0:
139,279,104231,1,0,0:0:0:0:
119,304,104331,1,0,1:0:0:0:
150,326,104431,1,4,3:1:0:0:
255,382,104631,1,0,3:0:0:0:
195,195,104831,6,0,P|168:169|118:180,1,70,0|4,1:0|3:2,0:0:0:0:
15,76,105231,2,0,P|27:43|57:27,1,70,0|0,0:0|3:0,0:0:0:0:
162,34,105631,2,0,P|152:95|149:137,1,70,0|0,1:0|3:0,0:0:0:0:
164,129,105931,1,0,1:0:0:0:
136,157,106031,5,0,3:0:0:0:
19,171,106229,1,0,3:0:0:0:
224,209,106428,1,0,1:0:0:0:
311,163,106627,1,0,3:0:0:0:
432,209,106825,2,0,P|395:214|353:226,1,70,0|0,0:0|3:0,0:0:0:0:
486,260,107223,1,0,1:0:0:0:
512,185,107421,1,0,0:0:0:0:
311,163,107620,5,4,1:1:0:0:
332,62,107820,1,0,0:0:0:0:
155,88,108020,1,0,1:0:0:0:
145,12,108220,1,4,3:2:0:0:
512,355,108620,5,0,3:0:0:0:
482,256,108820,2,0,P|483:215|490:173,1,70,0|0,1:0|0:0,0:0:0:0:
473,159,109120,1,0,1:0:0:0:
491,128,109220,6,0,P|432:113|381:182,1,140,0|0,3:0|1:0,0:0:0:0:
122,245,109812,1,0,0:0:0:0:
211,298,110009,1,0,3:0:0:0:
322,240,110206,1,0,3:0:0:0:
269,86,110404,2,0,P|243:116|253:181,1,105,0|0,1:0|0:0,0:0:0:0:
290,175,110798,6,0,P|345:168|395:164,1,90.9999958343508,4|0,3:1|3:0,0:0:0:0:
210,291,111200,2,0,P|213:336|219:381,1,90.9999958343508,0|0,1:0|0:0,0:0:0:0:
98,189,111603,1,0,1:0:0:0:
98,189,111804,1,0,3:0:0:0:
210,37,112006,1,0,3:0:0:0:
210,291,112207,1,0,1:0:0:0:
236,373,112610,5,0,3:0:0:0:
313,262,112811,1,0,1:0:0:0:
223,171,113012,1,0,0:0:0:0:
260,78,113214,1,0,3:0:0:0:
266,75,113314,1,0,1:0:0:0:
274,63,113415,1,0,1:0:0:0:
274,48,113516,1,0,1:0:0:0:
264,32,113616,5,8,3:3:0:0:
215,20,113717,1,8,0:3:0:0:
167,61,113818,1,4,0:3:0:0:
171,127,113918,1,4,0:3:0:0:
223,171,114018,2,0,P|261:173|306:178,1,70,4|0,3:1|0:0,0:0:0:0:
81,27,114415,2,0,P|41:27|-3:31,1,70,0|0,1:0|1:0,0:0:0:0:
273,27,114812,1,0,3:0:0:0:
472,41,115011,1,0,3:0:0:0:
252,115,115210,5,0,1:0:0:0:
240,14,115408,1,0,3:0:0:0:
207,238,115607,5,2,0:1:0:0:
343,222,115807,1,0,3:0:0:0:
287,379,116007,2,0,P|286:336|289:299,1,70,0|2,1:0|1:1,0:0:0:0:
477,166,116407,2,0,P|491:207|403:270,1,140,0|2,3:0|1:1,0:0:0:0:
28,278,117207,5,4,3:1:0:0:
68,357,117405,1,0,3:0:0:0:
89,200,117604,2,0,P|136:204|217:212,1,105,0|0,1:0|1:0,0:0:0:0:
223,232,118001,1,2,1:1:0:0:
13,116,118200,1,2,3:1:0:0:
13,116,118399,1,0,3:0:0:0:
280,156,118597,5,2,1:1:0:0:
355,223,118796,1,0,0:0:0:0:
306,320,118995,1,0,3:0:0:0:
192,308,119193,1,2,1:1:0:0:
126,195,119392,1,0,0:0:0:0:
248,59,119591,1,0,3:0:0:0:
261,69,119690,1,0,0:0:0:0:
256,82,119789,1,8,0:3:0:0:
242,87,119889,5,8,0:3:0:0:
270,64,119988,1,0,1:0:0:0:
321,51,120087,1,0,1:0:0:0:
378,52,120187,1,0,1:1:0:0:
440,74,120286,1,0,1:0:0:0:
462,125,120385,6,0,P|460:182|463:214,1,70,4|0,0:1|3:0,0:0:0:0:
276,358,120785,1,0,1:0:0:0:
276,358,120986,1,0,1:0:0:0:
195,286,121186,1,0,3:0:0:0:
275,210,121386,1,0,3:0:0:0:
349,287,121587,2,0,P|384:291|427:293,1,70,0|0,1:0|3:0,0:0:0:0:
263,366,121987,5,2,0:1:0:0:
205,270,122188,1,0,3:0:0:0:
281,177,122388,1,0,1:1:0:0:
260,7,122588,5,2,3:1:0:0:
260,7,122789,1,0,1:1:0:0:
255,186,122989,1,8,0:3:0:0:
268,172,123089,1,8,0:3:0:0:
254,152,123189,2,0,P|210:150|131:162,1,105,4|0,3:3|0:0,0:0:0:0:
123,174,123590,2,0,P|107:227|163:257,1,90.9999958343508,6|0,3:1|3:0,0:0:0:0:
351,201,123991,2,0,P|386:143|310:53,1,181.999991668702,2|0,1:1|1:0,0:0:0:0:
329,56,124794,1,0,1:0:0:0:
239,68,124994,5,0,1:0:0:0:
160,51,125195,1,2,0:1:0:0:
102,113,125398,1,0,3:0:0:0:
266,156,125601,2,0,P|310:153|419:148,1,140,2|0,1:1|0:0,0:0:0:0:
204,213,126210,1,0,3:1:0:0:
122,195,126413,1,0,1:0:0:0:
12,272,126616,1,2,3:1:0:0:
217,369,126819,6,0,P|214:312|226:231,1,125.999996154785,4|0,3:1|0:0,0:0:0:0:
204,213,127219,1,0,1:0:0:0:
310,294,127419,1,0,1:0:0:0:
56,355,127619,1,0,3:0:0:0:
107,294,127819,1,0,3:0:0:0:
116,122,128019,2,0,P|119:163|118:203,1,70,0|0,1:0|3:0,0:0:0:0:
257,22,128419,6,0,P|255:75|255:151,1,105,2|0,0:1|0:0,0:0:0:0:
266,160,128816,1,0,1:0:0:0:
394,17,129015,1,0,0:0:0:0:
412,45,129114,1,0,1:0:0:0:
401,72,129213,1,2,3:1:0:0:
491,178,129412,1,0,3:0:0:0:
379,265,129611,2,0,P|334:267|293:267,1,70,2|0,1:1|3:0,0:0:0:0:
138,369,130008,6,0,P|124:315|175:268,1,105,4|0,3:1|0:0,0:0:0:0:
164,254,130405,2,0,P|203:264|219:297,1,70,0|0,1:0|3:0,0:0:0:0:
416,343,130803,2,0,P|384:356|363:384,1,70,0|0,1:0|3:0,0:0:0:0:
486,374,131200,1,0,3:0:0:0:
323,249,131399,1,0,1:0:0:0:
254,37,131597,6,0,P|256:87|251:151,1,105,2|0,0:1|0:0,0:0:0:0:
230,152,131995,2,0,P|227:206|231:308,1,140,2|0,1:1|0:1,0:0:0:0:
251,374,132591,5,0,3:0:0:0:
272,295,132789,5,8,0:3:0:0:
238,126,132988,5,4,3:3:0:0:
280,23,133187,6,0,P|313:24|357:29,1,70,4|0,3:1|0:0,0:0:0:0:
126,160,133584,2,0,P|129:114|133:78,1,70,0|0,1:0|0:0,0:0:0:0:
111,70,133882,1,0,1:0:0:0:
136,41,133981,1,0,3:0:0:0:
187,226,134180,1,0,3:0:0:0:
7,169,134379,1,0,1:0:0:0:
238,126,134577,1,0,3:0:0:0:
459,179,134776,6,0,P|400:182|318:203,1,125.999996154785,2|0,0:1|0:0,0:0:0:0:
318,223,135178,1,0,1:1:0:0:
398,280,135380,1,2,0:1:0:0:
479,197,135581,1,0,3:0:0:0:
378,113,135782,1,8,0:3:0:0:
358,120,135883,1,8,0:3:0:0:
337,127,135984,1,0,1:0:0:0:
308,127,136084,1,0,1:0:0:0:
278,128,136185,1,0,1:0:0:0:
243,124,136286,1,0,1:0:0:0:
210,116,136386,6,0,P|209:153|211:197,1,70,4|0,3:1|0:0,0:0:0:0:
365,372,136793,2,0,P|364:333|364:294,1,70,0|0,1:0|0:0,0:0:0:0:
428,256,137200,1,2,3:1:0:0:
140,239,137404,1,2,3:1:0:0:
66,270,137608,1,0,1:0:0:0:
141,329,137812,5,0,3:1:0:0:
216,281,138015,1,2,1:1:0:0:
213,188,138213,1,0,3:0:0:0:
106,143,138412,5,2,1:1:0:0:
6,236,138611,1,0,1:0:0:0:
67,356,138809,1,2,3:1:0:0:
229,365,139008,5,0,3:0:0:0:
250,360,139107,1,0,1:0:0:0:
272,348,139207,1,2,1:1:0:0:
352,225,139405,1,0,3:0:0:0:
230,73,139604,6,0,P|290:70|361:71,1,105,4|0,3:1|0:0,0:0:0:0:
364,92,140010,1,0,1:0:0:0:
457,67,140213,1,0,1:0:0:0:
126,103,140416,1,0,3:0:0:0:
54,53,140619,1,0,3:0:0:0:
280,15,140822,1,0,1:0:0:0:
258,180,141025,1,0,3:0:0:0:
341,251,141228,6,0,P|361:210|356:181,1,70,2|0,0:1|3:0,0:0:0:0:
258,180,141632,1,0,1:0:0:0:
171,246,141835,2,0,P|151:211|155:173,1,70,2|0,1:1|0:0,0:0:0:0:
258,382,142442,1,0,1:0:0:0:
262,293,142644,1,0,3:0:0:0:
258,180,142846,6,0,P|263:127|274:63,1,105,4|0,3:1|0:0,0:0:0:0:
302,57,143243,2,0,P|240:48|219:46,1,70,0|0,1:0|0:0,0:0:0:0:
45,124,143640,1,2,0:1:0:0:
180,169,143839,1,2,3:1:0:0:
104,10,144038,1,0,1:0:0:0:
222,39,144236,5,2,3:1:0:0:
314,114,144435,1,2,0:1:0:0:
352,234,144632,1,0,3:0:0:0:
492,185,144829,5,2,1:1:0:0:
379,241,145027,1,0,0:0:0:0:
364,259,145125,1,0,1:0:0:0:
359,287,145224,1,2,3:1:0:0:
364,315,145323,1,0,0:0:0:0:
385,343,145421,1,0,3:0:0:0:
492,185,145619,2,0,P|423:156|407:124,1,90.9999958343508,2|0,1:1|3:0,0:0:0:0:
254,102,146013,6,0,P|258:55|313:16,1,105,4|0,0:1|0:0,0:0:0:0:
332,35,146413,2,0,P|389:35|420:37,1,70,0|0,1:0|1:0,0:0:0:0:
153,132,146813,1,0,3:0:0:0:
153,132,147013,1,0,3:0:0:0:
309,246,147213,1,0,1:0:0:0:
335,160,147413,1,0,3:0:0:0:
168,238,147613,6,0,P|123:245|75:248,1,70,2|0,0:1|3:0,0:0:0:0:
28,112,148011,1,0,1:0:0:0:
28,112,148210,1,2,0:1:0:0:
28,112,148409,1,0,3:0:0:0:
96,246,148608,1,2,3:1:0:0:
109,267,148707,1,0,3:0:0:0:
105,292,148807,1,4,3:3:0:0:
89,313,148906,1,0,3:0:0:0:
57,325,149006,1,0,3:0:0:0:
21,320,149105,1,0,3:0:0:0:
7,298,149205,6,0,P|7:238|26:175,1,90.9999958343508,4|0,3:1|3:0,0:0:0:0:
262,207,149604,2,0,P|262:140|278:81,1,90.9999958343508,0|0,1:0|3:0,0:0:0:0:
336,255,150003,1,0,3:0:0:0:
169,239,150203,1,0,3:0:0:0:
473,138,150403,2,0,P|477:82|481:27,1,90.9999958343508,0|0,1:0|3:0,0:0:0:0:
421,200,150802,6,0,P|433:255|448:350,1,136.499993751526,2|0,0:1|0:0,0:0:0:0:
470,359,151201,2,0,P|417:365|371:367,1,90.9999958343508,2|0,1:1|3:0,0:0:0:0:
351,346,151501,1,0,1:0:0:0:
331,373,151601,1,0,3:0:0:0:
491,256,151800,5,2,3:1:0:0:
433,193,152000,1,0,1:0:0:0:
322,238,152200,1,2,3:1:0:0:
205,163,152399,6,0,P|200:220|200:277,1,90.9999958343508,4|0,0:1|3:0,0:0:0:0:
146,283,152799,2,0,P|209:287|251:291,1,90.9999958343508,0|0,1:0|1:0,0:0:0:0:
261,87,153198,2,0,P|204:83|169:80,1,90.9999958343508,0|0,3:0|3:0,0:0:0:0:
337,134,153597,1,0,1:0:0:0:
417,90,153797,1,0,3:0:0:0:
140,66,153996,5,2,0:1:0:0:
140,66,154196,1,0,3:0:0:0:
41,107,154397,1,0,1:0:0:0:
81,202,154598,1,2,1:1:0:0:
178,170,154798,2,0,P|230:181|262:190,1,70,0|2,0:0|3:1,0:0:0:0:
420,245,155200,2,0,P|360:257|294:275,1,105,0|0,1:0|0:0,0:0:0:0:
286,268,155601,6,0,P|267:305|312:360,1,105,4|0,3:1|0:0,0:0:0:0:
320,367,155997,1,0,1:0:0:0:
362,158,156196,1,0,0:0:0:0:
351,132,156295,1,0,1:0:0:0:
339,106,156394,1,0,3:0:0:0:
364,13,156592,1,0,3:0:0:0:
469,104,156791,1,0,1:0:0:0:
233,180,156989,1,0,3:0:0:0:
59,20,157187,6,0,P|74:58|79:112,1,70,2|0,0:1|3:0,0:0:0:0:
310,230,157585,2,0,P|320:186|345:152,1,70,2|0,1:1|0:0,0:0:0:0:
362,158,157884,1,0,1:0:0:0:
382,170,157984,1,0,3:0:0:0:
216,255,158183,1,0,3:1:0:0:
62,197,158383,1,2,1:1:0:0:
62,197,158582,1,2,3:1:0:0:
6,260,158781,5,4,3:1:0:0:
138,182,158981,1,0,0:0:0:0:
216,255,159180,1,0,1:0:0:0:
216,255,159379,1,0,1:0:0:0:
329,130,159579,1,0,3:0:0:0:
329,130,159778,1,0,3:0:0:0:
406,186,159977,1,0,1:0:0:0:
512,98,160177,1,0,3:0:0:0:
288,59,160375,5,2,0:1:0:0:
200,86,160578,1,2,1:1:0:0:
117,114,160781,1,0,1:1:0:0:
32,144,160985,1,2,3:1:0:0:
170,0,161188,1,0,1:0:0:0:
199,185,161391,1,8,0:3:0:0:
200,206,161493,1,8,0:3:0:0:
203,230,161595,1,4,3:3:0:0:
137,308,161798,1,4,3:3:0:0:
344,226,162002,6,0,P|341:176|351:72,1,140,4|0,3:1|3:0,0:0:0:0:
460,158,162815,1,0,1:0:0:0:
252,174,163222,1,0,0:0:0:0:
26,160,163629,6,0,P|73:169|276:286,1,280,0|0,3:0|1:0,0:0:0:0:
272,282,164847,1,0,1:0:0:0:
279,272,164948,1,0,1:0:0:0:
295,253,165050,1,0,3:0:0:0:
326,235,165151,1,0,1:0:0:0:
362,237,165253,2,0,P|411:256|456:291,1,105,4|0,3:1|0:0,0:0:0:0:
463,325,165640,2,0,P|411:336|302:362,1,140,0|0,3:0|1:0,0:0:0:0:
250,42,166607,5,0,1:0:0:0:
321,53,166801,1,0,0:0:0:0:
313,126,166996,1,0,1:0:0:0:
237,116,167192,1,0,3:0:0:0:
84,197,167388,5,0,3:0:0:0:
84,197,167486,1,0,1:0:0:0:
84,197,167584,1,0,3:0:0:0:
1,223,167779,1,0,0:0:0:0:
38,297,167975,1,0,1:0:0:0:
117,271,168171,1,0,3:0:0:0:
299,367,168367,6,0,P|267:323|292:266,1,105,4|0,3:1|0:0,0:0:0:0:
307,264,168792,2,0,P|348:304|341:318,1,70,0|0,3:0|0:0,0:0:0:0:
243,44,169218,2,0,P|241:116|247:183,1,140,0|0,1:0|3:0,3:0:0:0:
381,139,169822,1,0,1:0:0:0:
377,124,169922,1,0,1:0:0:0:
384,104,170025,2,0,P|424:73|491:90,1,105,0|0,3:1|0:0,0:0:0:0:
500,110,170433,2,0,P|506:169|440:215,1,140,0|0,3:0|1:0,0:0:0:0:
89,138,171249,5,0,0:0:0:0:
73,97,171453,5,0,3:0:0:0:
112,43,171657,5,4,3:1:0:0:
192,17,171846,5,0,0:0:0:0:
270,86,172036,5,0,0:0:0:0:
233,191,172226,5,0,3:0:0:0:
103,224,172416,6,0,P|80:267|106:357,1,140,0|0,1:0|1:0,0:0:0:0:
312,264,172986,5,0,3:0:0:0:
382,192,173175,1,0,1:1:0:0:
303,110,173365,1,8,0:3:0:0:
284,112,173460,1,8,0:3:0:0:
271,121,173555,1,4,3:3:0:0:
240,136,173650,5,0,3:0:0:0:
230,169,173745,1,8,0:3:0:0:
245,187,173840,1,0,3:0:0:0:
272,208,173935,5,0,1:0:0:0:
276,223,174030,1,0,3:0:0:0:
279,237,174125,1,0,1:0:0:0:
282,250,174220,1,0,3:0:0:0:
272,273,174316,5,4,3:3:0:0:
264,298,174411,1,0,3:0:0:0:
256,321,174506,2,0,B|249:353|245:375,1,35,0|0,3:0|3:0,2:0:0:0:
269,369,174725,6,0,P|260:263|252:62,1,280,4|0,3:1|1:0,0:0:0:0:
296,0,176193,5,0,1:0:0:0:
297,17,176298,1,0,1:0:0:0:
297,35,176403,2,0,P|289:89|241:334,1,280,0|0,3:1|1:0,0:0:0:0:
245,21,177619,5,0,0:0:0:0:
275,147,177821,1,0,3:0:0:0:
237,251,178024,1,4,3:1:0:0:
291,371,178437,2,0,P|322:322|411:305,1,140,0|0,3:0|1:0,0:0:0:0:
187,337,179265,6,0,L|139:346,1,35,0|0,3:0|0:0,0:0:0:0:
73,320,179472,1,0,3:0:0:0:
77,223,179679,2,0,P|136:208|187:195,1,105
206,207,180060,2,0,P|250:198|281:187,1,70,4|0,3:3|3:0,0:0:0:0:
420,42,180442,1,0,1:0:0:0:
438,57,180537,1,0,3:0:0:0:
444,84,180632,1,0,3:0:0:0:
426,113,180728,1,0,3:0:0:0:
392,116,180823,2,0,P|335:99|263:84,1,105,4|0,3:3|0:0,0:0:0:0:
268,69,181205,6,0,P|207:81|129:112,1,140,4|0,3:1|3:0,0:0:0:0:
91,187,182009,1,0,1:0:0:0:
145,261,182411,1,0,3:0:0:0:
130,345,182612,1,0,1:0:0:0:
127,355,182712,1,0,1:0:0:0:
125,363,182813,1,0,3:0:0:0:
482,219,183213,5,0,0:0:0:0:
85,99,183613,5,0,3:0:0:0:
189,27,183813,5,8,0:3:0:0:
216,30,183913,1,8,0:3:0:0:
247,54,184013,1,4,3:3:0:0:
267,103,184113,1,0,3:0:0:0:
243,147,184213,1,0,3:0:0:0:
185,166,184313,1,0,3:0:0:0:
144,153,184413,6,0,P|139:231|138:244,1,70,4|0,3:1|3:0,0:0:0:0:
377,152,184813,2,0,P|379:191|381:234,1,70,0|0,1:0|3:0,0:0:0:0:
198,314,185213,1,0,3:0:0:0:
258,364,185413,1,0,3:0:0:0:
323,312,185613,1,0,1:0:0:0:
255,254,185813,1,0,3:0:0:0:
401,357,186013,6,0,B|421:325|421:325|405:288,1,70,4|0,3:2|3:0,0:0:0:0:
114,294,186407,2,0,B|94:326|94:326|110:363,1,70,0|0,1:0|3:0,0:0:0:0:
81,218,186802,1,0,3:0:0:0:
168,184,186999,1,0,3:0:0:0:
259,246,187197,1,0,1:0:0:0:
361,202,187394,1,0,3:0:0:0:
463,236,187591,6,0,P|484:186|441:100,1,136.499993751526,4|0,3:1|0:0,0:0:0:0:
463,81,187991,2,0,P|410:96|372:110,1,90.9999958343508,0|0,1:0|3:0,0:0:0:0:
202,57,188391,1,0,3:0:0:0:
202,57,188591,1,0,3:0:0:0:
278,0,188791,2,0,P|285:49|291:93,1,70,0|0,1:0|1:0,0:0:0:0:
120,124,189191,6,0,P|125:171|131:252,1,125.999996154785,4|0,3:2|0:0,0:0:0:0:
148,274,189589,2,0,P|103:283|46:292,1,83.9999974365235,0|0,1:0|3:0,0:0:0:0:
239,314,189987,1,0,3:0:0:0:
239,314,190186,1,0,3:0:0:0:
439,258,190385,1,0,1:0:0:0:
439,258,190584,1,0,3:0:0:0:
313,116,190783,6,0,P|275:159|299:234,1,125.999996154785,4|0,3:1|0:0,0:0:0:0:
321,235,191179,1,0,1:0:0:0:
427,120,191378,1,0,3:0:0:0:
197,261,191576,1,0,3:0:0:0:
241,331,191774,1,0,3:0:0:0:
104,248,191973,2,0,P|129:201|121:168,1,83.9999974365235,0|0,1:0|3:0,0:0:0:0:
35,37,192369,6,0,P|100:37|169:42,1,105,4|0,3:2|0:0,0:0:0:0:
158,63,192769,2,0,P|199:65|239:66,1,70,0|0,1:0|3:0,0:0:0:0:
411,31,193169,2,0,P|365:33|325:35,1,70,0|0,3:0|3:0,0:0:0:0:
491,64,193569,2,0,P|494:102|496:147,1,70,0|0,1:0|3:0,0:0:0:0:
431,284,193969,5,4,3:1:0:0:
388,298,194069,1,8,0:3:0:0:
351,268,194169,1,8,0:3:0:0:
358,228,194269,1,4,3:3:0:0:
391,209,194369,2,0,P|392:169|392:139,1,70,0|0,3:0|1:0,0:0:0:0:
221,91,194769,5,4,3:3:0:0:
241,99,194869,1,0,3:0:0:0:
249,121,194969,1,0,3:0:0:0:
192,207,195169,1,0,1:0:0:0:
81,195,195369,1,0,3:0:0:0:
43,73,195569,1,4,1:2:0:0:
51,67,195663,1,8,0:3:0:0:
63,66,195758,1,0,3:0:0:0:
75,72,195853,1,0,3:0:0:0:
79,86,195948,1,4,3:3:0:0:
78,103,196043,1,0,1:0:0:0:
65,135,196138,1,0,1:0:0:0:
52,169,196233,1,0,1:0:0:0:
55,216,196328,5,0,1:0:0:0:
79,265,196423,1,0,1:0:0:0:
122,299,196518,1,8,0:3:0:0:
190,305,196613,1,8,0:3:0:0:
237,279,196708,1,4,3:3:0:0:
256,240,196803,1,0,3:0:0:0:
247,220,196898,2,0,P|238:241|240:254,1,35,0|0,3:0|3:0,2:0:0:0:
233,225,197140,6,0,P|280:223|336:222,1,90.9999958343508,4|0,3:1|0:0,0:0:0:0:
432,106,197553,2,0,P|479:119|491:175,1,90.9999958343508,0|0,1:0|0:0,0:0:0:0:
504,177,197864,1,0,1:0:0:0:
481,191,197967,1,0,3:0:0:0:
329,124,198174,1,0,3:0:0:0:
194,57,198381,1,0,1:0:0:0:
194,57,198588,1,0,3:0:0:0:
24,104,198795,6,0,P|58:136|93:123,1,70,4|0,0:2|3:0,0:0:0:0:
192,237,199193,2,0,P|209:198|200:166,1,70,0|0,1:0|0:0,0:0:0:0:
187,158,199492,1,0,1:0:0:0:
162,169,199592,1,0,3:0:0:0:
282,290,199791,1,0,3:0:0:0:
429,270,199991,2,0,P|401:313|406:365,1,105,0|0,1:0|0:0,0:0:0:0:
423,384,200389,6,0,P|487:373|524:369,1,90.9999958343508,4|0,3:1|0:0,0:0:0:0:
317,362,200781,1,0,1:0:0:0:
239,384,200977,1,0,0:0:0:0:
175,231,201173,1,0,3:0:0:0:
163,236,201271,1,0,0:0:0:0:
155,241,201369,1,0,3:0:0:0:
90,135,201565,1,0,1:0:0:0:
1,197,201761,1,0,3:0:0:0:
65,281,201957,6,0,P|67:324|64:369,1,83.9999974365235,4|0,0:2|3:0,0:0:0:0:
1,182,202360,1,0,1:0:0:0:
100,114,202562,1,0,0:0:0:0:
114,120,202662,1,0,1:0:0:0:
126,129,202763,2,0,P|186:132|216:132,1,83.9999974365235,0|0,3:0|3:0,0:0:0:0:
490,288,203167,2,0,P|427:293|384:298,1,83.9999974365235,0|0,1:0|1:0,0:0:0:0:
387,318,203469,1,0,1:0:0:0:
366,340,203570,6,0,P|307:349|265:268,1,125.999996154785,4|0,3:1|0:0,0:0:0:0:
236,303,203973,6,0,P|238:246|241:193,1,83.9999974365235,0|0,1:0|1:0,0:0:0:0:
262,206,204276,1,0,1:0:0:0:
237,181,204377,1,0,1:0:0:0:
271,50,204578,1,0,3:0:0:0:
207,384,204780,5,0,1:0:0:0:
124,364,204982,1,0,0:0:0:0:
117,348,205083,1,0,1:0:0:0:
111,334,205183,1,4,3:2:0:0:
25,258,205380,1,0,3:0:0:0:
125,192,205577,1,0,1:0:0:0:
59,94,205775,1,0,0:0:0:0:
66,78,205873,1,0,1:0:0:0:
72,61,205972,2,0,P|120:57|152:60,1,70,0|0,3:0|3:0,0:0:0:0:
295,0,206367,2,0,P|328:22|349:49,1,70,0|0,1:0|3:0,0:0:0:0:
236,140,206761,6,0,P|191:187|192:253,1,90.9999958343508,4|8,1:1|0:3,0:0:0:0:
166,241,207061,1,4,3:3:0:0:
206,265,207161,1,0,3:0:0:0:
398,224,207361,1,0,1:0:0:0:
468,132,207561,1,0,3:0:0:0:
481,106,207661,1,8,0:3:0:0:
444,92,207761,1,4,3:3:0:0:
266,93,207961,1,0,1:0:0:0:
109,211,208161,1,0,3:0:0:0:
117,310,208361,1,4,3:1:0:0:
216,349,208552,1,8,0:3:0:0:
246,350,208647,1,8,0:3:0:0:
274,334,208743,1,4,3:3:0:0:
240,316,208838,5,0,1:0:0:0:
220,285,208934,1,0,1:0:0:0:
241,242,209029,1,0,1:0:0:0:
217,210,209125,5,0,1:0:0:0:
246,168,209220,1,0,1:0:0:0:
297,150,209316,1,8,0:3:0:0:
361,181,209411,1,8,0:3:0:0:
386,247,209507,1,4,3:3:0:0:
341,315,209603,1,0,3:0:0:0:
263,333,209698,1,0,3:0:0:0:
180,287,209794,1,0,3:0:0:0:
256,192,209950,12,0,230074,0:0:0:0:
