osu file format v14

[General]
AudioFilename: audio.mp3
AudioLeadIn: 0
PreviewTime: 113918
Countdown: 0
SampleSet: Soft
StackLeniency: 0.7
Mode: 0
LetterboxInBreaks: 0
WidescreenStoryboard: 1

[Editor]
Bookmarks: 56418,82000,85205,114018,139604,151201,162002,184413,209950
DistanceSpacing: 1.1
BeatDivisor: 2
GridSize: 4
TimelineZoom: 1.5

[Metadata]
Title:Chto podelat'?
TitleUnicode:Что поделать?
Artist:Marto
ArtistUnicode:Marto
Creator:Florescence
Version:Easy
Source:
Tags:shoegaze underground indie alternative rock jessy джесси сияние юность севера siyaniye yunost' severa марто russian русский aishiteiru-
BeatmapID:3876312
BeatmapSetID:1865665

[Difficulty]
HPDrainRate:2
CircleSize:2.6
OverallDifficulty:2
ApproachRate:4
SliderMultiplier:0.8
SliderTickRate:1

[Events]
//Background and Video events
0,0,"dGorPWXxlyw.jpg",0,0
//Break Periods
2,82000,83885
//Storyboard Layer 0 (Background)
//Storyboard Layer 1 (Fail)
//Storyboard Layer 2 (Pass)
//Storyboard Layer 3 (Foreground)
//Storyboard Layer 4 (Overlay)
//Storyboard Sound Samples

[TimingPoints]
30785,404.040404040404,4,2,1,80,1,0
30785,-100,4,2,1,80,0,0
34017,387.096774193548,4,2,1,80,1,0
34017,-100,4,2,1,80,0,0
34791,398.671096345515,4,2,1,80,1,0
35590,398.009950248756,4,2,1,80,1,0
35590,-100,4,2,1,80,0,0
37185,402.684563758389,4,2,1,80,1,0
37185,-100,4,2,1,80,0,0
40406,-100,4,2,1,80,0,0
42016,388.349514563107,4,2,1,80,1,0
42016,-100,4,2,1,80,0,0
43600,406.779661016949,4,2,1,80,1,0
43600,-100,4,2,1,80,0,0
45227,397.350993377483,4,2,1,80,1,0
45227,-100,4,2,1,80,0,0
48405,405.405405405405,4,2,1,80,1,0
51648,396.039603960396,4,2,1,80,1,0
51648,-100,4,2,1,80,0,0
54816,400.667779632721,4,2,1,80,1,0
54816,-100,4,2,1,80,0,0
56418,397.088021178028,4,2,1,80,1,0
56418,-100,4,2,1,80,0,0
57212,-83.3333333333333,4,2,1,100,0,0
58006,396.694214876033,4,2,1,100,1,0
58006,-83.3333333333333,4,2,1,100,0,0
59592,405.405405405405,4,2,1,100,1,0
59592,-83.3333333333333,4,2,1,100,0,0
61213,397.350993377483,4,2,1,100,1,0
61213,-83.3333333333333,4,2,1,100,0,0
65980,-83.3333333333333,4,2,1,100,0,0
65981,401.33779264214,4,2,1,100,1,0
67586,-83.3333333333333,4,2,1,100,0,0
72402,405.405405405405,4,2,1,100,1,0
74022,397.350993377483,4,2,1,100,1,0
74022,-83.3333333333333,4,2,1,100,0,0
75611,399.334442595673,4,2,1,100,1,0
75611,-83.3333333333333,4,2,1,100,0,0
82000,400.667779632721,4,2,1,100,1,0
82000,-100,4,2,1,100,0,0
84617,-100,4,2,1,80,0,0
85205,399.999999999999,4,2,1,80,1,0
91004,410.958904109589,4,2,1,80,1,0
91620,402.684563758388,4,2,1,80,1,0
91620,-100,4,2,1,80,0,0
94841,394.736842105262,4,2,1,80,1,0
94841,-100,4,2,1,80,0,0
96419,398.671096345514,4,2,1,80,1,0
96419,-100,4,2,1,80,0,0
98013,405.405405405405,4,2,1,80,1,0
98013,-100,4,2,1,80,0,0
99634,400,4,2,1,80,1,0
99634,-100,4,2,1,80,0,0
101234,399.254990188309,4,2,1,80,1,0
101234,-100,4,2,1,80,0,0
102831,400,4,2,1,80,1,0
102831,-100,4,2,1,80,0,0
106031,397.350993377483,4,2,1,80,1,0
106031,-100,4,2,1,80,0,0
107620,400,4,2,1,80,1,0
107620,-100,4,2,1,80,0,0
109220,394.736842105263,4,2,1,80,1,0
109220,-100,4,2,1,80,0,0
110798,402.684563758389,4,2,1,80,1,0
110798,-100,4,2,1,80,0,0
114018,397.350993377483,4,2,1,100,1,0
114018,-83.3333333333333,4,2,1,100,0,0
115607,400,4,2,1,100,1,0
115607,-83.3333333333333,4,2,1,100,0,0
117207,397.350993377483,4,2,1,100,1,0
117207,-83.3333333333333,4,2,1,100,0,0
120385,400.667779632721,4,2,1,100,1,0
120385,-83.3333333333333,4,2,1,100,0,0
123590,401.33779264214,4,2,1,100,1,0
123590,-83.3333333333333,4,2,1,100,0,0
125195,406.091370558375,4,2,1,100,1,0
125195,-83.3333333333333,4,2,1,100,0,0
126819,400,4,2,1,100,1,0
126819,-83.3333333333333,4,2,1,100,0,0
128419,397.350993377483,4,2,1,100,1,0
128419,-83.3333333333333,4,2,1,100,0,0
134776,402.684563758389,4,2,1,100,1,0
134776,-83.3333333333333,4,2,1,100,0,0
136386,407.470288624788,4,2,1,100,1,0
136386,-83.3333333333333,4,2,1,100,0,0
138015,397.350993377483,4,2,1,100,1,0
138015,-83.3333333333333,4,2,1,100,0,0
139604,406.091370558375,4,2,1,100,1,0
139604,-83.3333333333333,4,2,1,100,0,0
141228,404.721753794266,4,2,1,100,1,0
141228,-83.3333333333333,4,2,1,100,0,0
142846,397.350993377483,4,2,1,100,1,0
142846,-83.3333333333333,4,2,1,100,0,0
144435,394.736842105263,4,2,1,100,1,0
144435,-83.3333333333333,4,2,1,100,0,0
146013,400,4,2,1,100,1,0
146013,-83.3333333333333,4,2,1,100,0,0
147613,398.009950248756,4,2,1,100,1,0
147613,-83.3333333333333,4,2,1,100,0,0
149205,399.334442595674,4,2,1,100,1,0
149205,-83.3333333333333,4,2,1,100,0,0
153996,401.33779264214,4,2,1,100,1,0
153996,-83.3333333333333,4,2,1,100,0,0
155601,396.694214876033,4,2,1,100,1,0
155601,-83.3333333333333,4,2,1,100,0,0
157187,398.671096345515,4,2,1,100,1,0
157187,-83.3333333333333,4,2,1,100,0,0
160375,406.779661016949,4,2,1,100,1,0
160375,-83.3333333333333,4,2,1,100,0,0
162002,-100,4,2,1,100,0,0
162408,-100,4,2,1,70,0,0
163629,406.091370558376,4,2,1,70,1,0
163629,-100,4,2,1,70,0,0
165253,387.096774193548,4,2,1,70,1,0
165253,-100,4,2,1,70,0,0
166801,391.517128874388,4,2,1,70,1,0
166801,-100,4,2,1,70,0,0
168367,425.531914893617,4,2,1,70,1,0
168367,-100,4,2,1,70,0,0
169218,402.684563758389,4,2,1,70,1,0
169218,-100,4,2,1,70,0,0
170025,408.163265306122,4,2,1,70,1,0
170025,-100,4,2,1,70,0,0
171657,379.746835443038,4,2,1,70,1,0
171657,-100,4,2,1,70,0,0
173175,380.348652931854,4,2,1,70,1,0
173175,-100,4,2,1,70,0,0
174725,419.580419580419,4,2,1,70,1,0
174725,-100,4,2,1,70,0,0
176403,405.405405405405,4,2,1,70,1,0
176403,-100,4,2,1,70,0,0
178024,413.793103448275,4,2,1,70,1,0
178024,-100,4,2,1,70,0,0
179679,381.558028616852,4,2,1,70,1,0
179679,-100,4,2,1,70,0,0
181205,402.010050251256,4,2,1,70,1,0
181205,-100,4,2,1,70,0,0
182813,399.999999999999,4,2,1,70,1,0
182813,-100,4,2,1,70,0,0
184413,-100,4,2,1,80,0,0
186013,394.736842105263,4,2,1,80,1,0
186013,-100,4,2,1,80,0,0
187591,399.999999999999,4,2,1,86,1,0
187591,-100,4,2,1,86,0,0
189191,398.009950248755,4,2,1,86,1,0
189191,-100,4,2,1,86,0,0
190783,396.694214876032,4,2,1,86,1,0
190783,-100,4,2,1,86,0,0
192369,399.999999999999,4,2,1,86,1,0
192369,-100,4,2,1,86,0,0
193969,-100,4,2,1,93,0,0
195569,379.746835443038,4,2,1,93,1,0
195569,-100,4,2,1,93,0,0
197140,413.793103448275,4,2,1,93,1,0
197140,-100,4,2,1,93,0,0
198795,398.671096345514,4,2,1,93,1,0
198795,-100,4,2,1,93,0,0
200389,392.156862745097,4,2,1,93,1,0
200389,-100,4,2,1,93,0,0
201957,403.361344537814,4,2,1,93,1,0
201957,-100,4,2,1,93,0,0
203973,-100,4,2,1,96,0,0
205183,394.736842105261,4,2,1,96,1,0
205183,-100,4,2,1,96,0,0
206761,399.999999999998,4,2,1,96,1,0
206761,-100,4,2,1,100,0,0
208361,382.165605095541,4,2,1,100,1,0
209950,372.670807453415,4,2,1,100,1,0
209950,-100,4,2,1,100,0,0

[Colours]
Combo1 : 17,254,176
Combo2 : 173,255,95
Combo3 : 255,88,100
Combo4 : 255,94,55

[HitObjects]
7,64,30785,6,0,P|79:50|163:67,1,160,4|0,3:1|0:0,0:0:0:0:
185,152,31997,1,0,1:0:0:0:
265,115,32401,2,0,P|380:151|511:156,1,240,0|0,3:0|0:0,0:0:0:0:
469,243,34017,5,4,3:1:0:0:
492,327,34404,2,0,P|444:337|402:348,1,80,0|0,1:0|0:0,0:0:0:0:
333,309,35189,1,0,1:0:0:0:
255,351,35590,5,0,3:0:0:0:
187,294,35988,1,0,1:0:0:0:
105,327,36386,2,0,P|98:283|92:241,1,80,0|0,3:0|1:0,0:0:0:0:
107,161,37185,6,0,P|176:146|274:209,1,160,4|0,3:1|0:0,0:0:0:0:
302,256,38393,1,0,1:0:0:0:
380,216,38795,2,0,P|406:132|424:69,2,120,0|0|0,3:0|1:0|0:0,0:0:0:0:
302,256,40406,6,0,L|109:244,1,160,4|0,1:1|0:0,0:0:0:0:
78,184,41614,1,0,1:0:0:0:
97,94,42016,2,0,B|189:41|249:178|349:142,1,240,0|0,3:0|3:0,0:0:0:0:
410,152,43600,5,4,3:1:0:0:
368,78,44006,2,0,P|372:38|381:-1,1,80,0|0,1:0|0:0,0:0:0:0:
468,12,44820,1,0,1:0:0:0:
493,98,45227,6,0,P|504:154|515:243,1,120,0|0,3:0|3:0,0:0:0:0:
453,281,46220,1,0,3:0:0:0:
369,254,46617,2,0,P|266:276|152:301,1,200
93,258,48008,1,0,1:0:0:0:
128,179,48405,6,0,P|128:129|165:82,1,80,0|0,3:0|1:0,0:0:0:0:
224,73,49215,1,0,3:0:0:0:
294,125,49621,2,0,P|344:133|396:156,1,80,0|4,1:0|3:1,0:0:0:0:
455,117,50432,2,0,P|443:68|429:21,1,80,0|0,1:0|0:0,0:0:0:0:
258,1,51648,5,0,3:0:0:0:
186,51,52044,2,0,P|164:110|151:159,1,80,0|0,1:0|0:0,0:0:0:0:
202,203,52836,1,0,1:0:0:0:
145,270,53232,2,0,L|156:382,2,80,4|0|0,1:1|1:0|0:0,0:0:0:0:
78,212,54420,1,0,1:0:0:0:
109,130,54816,6,0,P|162:75|266:73,1,160,0|0,3:0|3:0,0:0:0:0:
321,27,56018,2,0,P|369:39|437:53,1,80,0|4,1:0|3:1,0:0:0:0:
444,120,56815,1,0,1:0:0:0:
386,208,57212,6,0,L|417:290,1,47.9999985351563,0|2,1:0|3:1,0:0:0:0:
310,304,57807,2,0,L|293:379,1,47.9999985351563,2|0,1:1|0:0,0:0:0:0:
200,313,58402,1,2,1:1:0:0:
129,234,58799,2,0,B|109:188|109:188|155:126,1,95.9999970703126,0|4,3:0|3:3,0:0:0:0:
215,84,59592,5,4,3:1:0:0:
311,125,59997,1,0,1:1:0:0:
387,52,60402,1,0,3:1:0:0:
479,103,60808,1,0,1:1:0:0:
446,205,61213,6,0,B|372:155|253:318|153:286,1,287.999991210938,2|0,0:1|1:0,0:0:0:0:
81,256,62802,2,0,P|64:208|66:139,1,95.9999970703126,4|0,3:1|1:0,0:0:0:0:
120,75,63597,2,0,P|192:60|305:40,2,143.999995605469,0|2|2,1:0|1:1|1:1,0:0:0:0:
182,159,65185,2,0,P|201:221|197:291,1,95.9999970703126,2|4,3:1|3:3,0:0:0:0:
116,313,65980,5,4,3:1:0:0:
48,256,66382,1,0,1:1:0:0:
26,170,66783,1,0,1:1:0:0:
61,89,67185,1,0,1:1:0:0:
150,33,67586,6,0,P|219:38|260:44,1,95.9999970703126,2|0,0:1|1:1,0:0:0:0:
350,56,68389,2,0,P|378:122|354:170,1,95.9999970703126,0|4,3:0|3:3,0:0:0:0:
288,206,69191,2,0,P|226:220|175:227,1,95.9999970703126,4|2,3:1|1:1,0:0:0:0:
124,304,69994,1,2,1:1:0:0:
323,374,70797,6,0,B|344:323|344:323|313:260,1,95.9999970703126,0|2,0:0|1:1,0:0:0:0:
186,211,71800,2,0,B|159:141|159:141|205:80,1,143.999995605469,2|4,3:1|3:1,0:0:0:0:
272,36,72806,5,0,1:0:0:0:
342,88,73211,1,0,3:0:0:0:
425,59,73617,1,0,1:0:0:0:
493,141,74022,2,0,P|498:197|480:248,1,95.9999970703126,2|0,0:1|1:0,0:0:0:0:
410,306,74816,1,2,3:1:0:0:
315,257,75214,1,2,1:1:0:0:
221,304,75611,2,0,P|222:246|215:167,2,95.9999970703126,4|0|0,3:1|1:0|1:0,0:0:0:0:
12,269,77208,6,0,P|10:189|30:36,1,191.999994140625,2|0,0:1|0:0,0:0:0:0:
111,23,78406,1,8,3:3:0:0:
180,102,78805,5,4,3:1:0:0:
285,105,79205,1,0,1:0:0:0:
324,202,79604,1,0,3:0:0:0:
407,266,80003,1,0,1:0:0:0:
501,204,80403,2,0,P|509:106|496:-15,1,191.999994140625,2|0,0:1|3:0,0:0:0:0:
396,25,81601,1,0,1:0:0:0:
396,25,85205,6,0,P|349:31|298:37,1,80,4|0,3:1|1:0,0:0:0:0:
249,91,86005,1,0,0:0:0:0:
162,75,86405,1,0,1:0:0:0:
115,149,86805,2,0,P|217:171|301:193,1,160,0|0,3:0|0:0,0:0:0:0:
310,263,88005,1,0,1:0:0:0:
397,266,88404,2,0,P|428:314|448:340,2,80,4|0|0,3:1|1:0|0:0,0:0:0:0:
463,102,90004,6,0,P|441:57|429:10,1,80,0|0,3:0|1:0,0:0:0:0:
344,21,90804,1,0,3:0:0:0:
262,51,91209,1,0,3:0:0:0:
175,25,91620,2,0,P|124:114|147:166,1,160,4|4,3:1|3:2,0:0:0:0:
187,236,92828,2,0,P|231:245|284:253,1,80,0|0,1:0|3:0,0:0:0:0:
330,309,93633,1,0,1:0:0:0:
417,304,94036,1,0,0:0:0:0:
460,227,94438,1,0,1:0:0:0:
410,151,94841,6,0,P|343:143|260:134,1,120,4|4,1:1|3:2,0:0:0:0:
173,77,96025,1,0,1:0:0:0:
93,112,96419,2,0,B|72:150|72:150|95:197,1,80,0|0,1:0|0:3,0:0:0:0:
145,250,97216,1,0,1:0:0:0:
230,230,97615,1,0,3:0:0:0:
302,277,98013,6,0,P|311:321|315:364,2,80,4|0|0,3:1|1:0|0:0,0:0:0:0:
383,243,99229,1,0,1:0:0:0:
364,155,99634,2,0,P|369:112|378:67,1,80,0|0,3:0|3:0,0:0:0:0:
288,86,100434,2,0,P|291:30|297:-4,1,80,0|0,0:0|1:0,0:0:0:0:
207,22,101234,1,4,3:1:0:0:
129,64,101633,1,0,1:0:0:0:
76,134,102032,1,0,0:0:0:0:
78,221,102431,1,0,1:0:0:0:
125,295,102831,2,0,B|221:306,1,80,0|0,3:0|3:0,0:0:0:0:
374,260,104031,5,0,1:0:0:0:
352,174,104431,2,0,P|277:164|185:157,1,160,4|4,3:1|3:2,0:0:0:0:
139,87,105631,1,0,1:0:0:0:
63,133,106031,2,0,P|51:184|52:235,1,80,0|0,3:0|1:0,0:0:0:0:
111,274,106825,2,0,P|162:285|208:286,1,80,0|0,0:0|1:0,0:0:0:0:
269,250,107620,1,4,1:1:0:0:
349,285,108020,1,0,1:0:0:0:
476,163,108820,5,0,1:0:0:0:
408,104,109220,2,0,P|390:113|365:124,1,40,0|0,3:0|3:0,0:0:0:0:
247,75,110009,2,0,P|209:59|164:44,1,80,0|0,3:0|1:0,0:0:0:0:
94,83,110798,6,0,P|114:173|199:196,1,160,4|0,3:1|1:0,0:0:0:0:
250,162,112006,1,0,3:0:0:0:
307,228,112408,1,0,0:0:0:0:
391,202,112811,1,0,1:0:0:0:
470,239,113214,1,0,3:0:0:0:
491,324,113616,1,8,3:3:0:0:
392,364,114019,6,0,P|326:349|267:334,1,95.9999970703126,4|0,3:1|1:0,0:0:0:0:
218,273,114812,2,0,P|226:225|245:145,1,95.9999970703126,0|0,3:0|1:0,0:0:0:0:
206,77,115607,2,0,P|109:56|-2:36,2,191.999994140625,2|0|4,0:1|3:0|3:1,0:0:0:0:
303,36,117604,1,0,1:0:0:0:
350,129,118001,6,0,L|359:181,1,47.9999985351563,2|2,1:1|3:1,0:1:0:0:
309,270,118597,2,0,P|235:221|157:225,1,143.999995605469,2|2,1:1|1:1,0:1:0:0:
101,150,119591,2,0,P|51:175|22:211,1,95.9999970703126,0|0,3:0|1:0,0:0:0:0:
19,309,120385,5,4,0:1:0:0:
115,351,120785,1,0,1:0:0:0:
217,325,121186,1,0,3:0:0:0:
321,342,121587,1,0,1:0:0:0:
426,335,121987,2,0,P|417:184|403:3,1,287.999991210938,2|4,0:1|3:3,0:0:0:0:
318,105,123590,5,6,3:1:0:0:
226,52,123991,1,2,1:1:0:0:
129,94,124392,1,0,1:0:0:0:
20,62,125195,6,0,L|9:179,2,95.9999970703126,2|2|0,0:1|1:1|0:0,0:0:0:0:
114,15,126413,1,0,1:0:0:0:
198,80,126819,5,4,3:1:0:0:
149,173,127219,2,0,B|129:220|129:220|163:280,1,95.9999970703126,0|0,1:0|3:0,0:0:0:0:
239,317,128019,1,0,1:0:0:0:
330,262,128419,2,0,B|358:216|358:216|326:149,1,95.9999970703126,2|0,0:1|1:0,0:0:0:0:
266,102,129213,2,0,P|260:50|268:-8,1,95.9999970703126,2|2,3:1|1:1,0:0:0:0:
369,16,130008,5,4,3:1:0:0:
439,94,130405,1,0,1:0:0:0:
358,162,130803,2,0,P|353:225|357:277,1,95.9999970703126,0|0,1:0|3:0,0:0:0:0:
286,338,131597,6,0,P|223:336|160:340,1,95.9999970703126,2|2,0:1|1:1,0:0:0:0:
90,301,132392,2,0,P|90:246|85:185,1,95.9999970703126,0|8,0:1|0:3,0:0:0:0:
172,141,133187,5,4,3:1:0:0:
273,168,133584,1,0,1:0:0:0:
378,168,133981,1,0,3:0:0:0:
475,127,134379,1,0,1:0:0:0:
441,28,134776,6,0,B|352:0|344:95|229:66,1,191.999994140625,2|0,0:1|3:0,0:0:0:0:
204,161,135984,2,0,P|283:185|307:196,1,95.9999970703126,0|4,1:0|3:1,0:0:0:0:
305,295,136793,1,0,1:0:0:0:
400,338,137200,6,0,P|430:326|472:309,1,47.9999985351563,2|2,3:1|3:1,0:0:0:0:
466,216,137812,2,0,P|443:139|374:116,1,141,0|2,3:1|1:1,0:0:0:0:
291,80,138809,1,2,3:1:0:0:
192,119,139207,1,2,1:1:0:0:
90,101,139604,6,0,P|80:156|65:223,2,95.9999970703126,4|0|0,3:1|1:0|3:0,0:0:0:0:
149,13,140822,1,0,1:0:0:0:
249,44,141228,6,0,P|297:50|401:62,1,143.999995605469,2|0,0:1|1:0,0:0:0:0:
457,143,142239,2,0,P|470:204|479:218,1,47.9999985351563,0|0,3:0|1:0,0:0:0:0:
394,272,142846,1,4,3:1:0:0:
298,228,143243,1,0,1:0:0:0:
205,279,143640,6,0,P|142:271|117:267,1,47.9999985351563,2|2,0:1|3:1,0:0:0:0:
53,251,144236,2,0,P|39:112|113:18,1,238.7,2|2,3:1|3:1,0:0:0:0:
193,57,145619,1,2,1:1:0:0:
295,40,146013,6,0,P|350:48|433:65,1,95.9999970703126,4|0,0:1|1:0,0:0:0:0:
453,146,146813,1,0,3:0:0:0:
365,205,147213,1,0,1:0:0:0:
258,205,147613,1,2,0:1:0:0:
174,270,148011,1,0,1:0:0:0:
73,237,148409,1,0,3:0:0:0:
69,131,148807,1,4,3:3:0:0:
168,97,149205,6,0,P|165:52|161:2,1,95.9999970703126,4|0,3:1|1:0,0:0:0:0:
258,41,150003,2,0,P|267:148|269:171,1,95.9999970703126,0|0,3:0|1:0,0:0:0:0:
371,144,150802,1,0,0:0:0:0:
431,230,151201,2,0,P|385:266|310:252,1,95.9999970703126,2|0,1:1|3:0,0:0:0:0:
245,250,151999,6,0,P|190:234|138:259,1,95.9999970703126,0|4,1:0|0:1,0:0:0:0:
73,313,152799,1,0,1:0:0:0:
6,231,153198,2,0,P|15:173|32:112,1,95.9999970703126,0|0,3:0|1:0,0:0:0:0:
115,85,153996,1,2,0:1:0:0:
210,129,154397,1,0,1:0:0:0:
306,86,154798,1,0,0:0:0:0:
210,277,155601,5,4,3:1:0:0:
307,237,155997,2,0,P|356:248|416:264,1,95.9999970703126,0|0,1:0|3:0,0:0:0:0:
497,216,156791,1,0,1:0:0:0:
468,115,157187,2,0,P|405:127|350:140,1,95.9999970703126,2|2,0:1|1:1,0:0:0:0:
276,93,157984,1,0,3:0:0:0:
177,132,158383,1,2,1:1:0:0:
72,116,158781,6,0,B|40:161|40:161|68:234,1,95.9999970703126,4|0,3:1|1:0,0:0:0:0:
132,270,159579,1,0,3:0:0:0:
231,236,159977,1,0,1:0:0:0:
326,275,160375,1,2,0:1:0:0:
422,232,160781,1,0,1:1:0:0:
411,126,161188,1,0,1:0:0:0:
313,85,161595,1,4,3:3:0:0:
247,144,162002,6,0,P|71:163|64:164,1,160,4|0,3:1|1:0,0:0:0:0:
143,331,163629,2,0,P|191:320|233:321,1,80,0|0,3:0|3:0,0:0:0:0:
299,359,164441,1,0,1:0:0:0:
374,313,164847,6,0,P|419:169|313:62,1,232.5,0|0,1:0|1:0,0:0:0:0:
279,24,166607,6,0,P|243:100|262:150,1,121,0|0,1:0|3:0,0:0:0:0:
168,162,167584,2,0,P|199:213|194:260,1,80,0|0,3:0|1:0,0:0:0:0:
159,302,168367,2,0,P|101:312|51:317,2,80,4|0|0,3:1|3:0|1:0,0:0:0:0:
324,354,170025,6,0,B|337:307|337:307|319:255|319:255|343:170,1,160,0|0,3:1|1:0,0:0:0:0:
404,147,171249,1,0,0:0:0:0:
360,63,171657,2,0,P|294:72|168:90,1,160,4|0,3:1|1:0,0:0:0:0:
48,171,173175,2,0,P|40:243|38:298,2,120,0|8|4,1:1|0:3|3:3,0:0:0:0:
128,140,174725,2,0,P|178:176|182:213,1,80,4|0,3:1|3:0,0:0:0:0:
254,241,175564,2,0,P|248:328|243:356,1,80,0|0,1:0|3:0,0:0:0:0:
329,363,176403,6,0,P|366:326|366:278,1,80,0|0,3:1|3:0,0:0:0:0:
345,216,177213,1,0,1:0:0:0:
413,145,177619,2,0,P|334:129|232:122,1,161.7,0|0,0:0|3:0,0:0:0:0:
185,178,178851,2,0,P|125:187|94:196,1,80,0|0,1:0|3:0,0:0:0:0:
31,251,179679,6,0,B|11:294|11:294|37:351,1,80,0|4,0:0|3:3,0:0:0:0:
104,361,180442,2,0,P|135:367|204:381,1,80,0|4,1:0|3:3,0:0:0:0:
263,355,181205,2,0,B|298:283|298:283|272:200,1,160,4|0,3:1|3:0,0:0:0:0:
237,33,182813,5,0,3:0:0:0:
173,92,183213,1,0,0:0:0:0:
213,170,183613,1,0,3:0:0:0:
299,155,184013,1,4,3:3:0:0:
326,71,184413,6,0,P|370:80|415:92,1,80,4|0,3:1|1:0,0:0:0:0:
469,147,185213,2,0,P|467:206|463:236,1,80,0|0,3:0|1:0,0:0:0:0:
389,276,186013,2,0,B|305:205|245:367|146:298,1,240,4|0,3:2|1:0,0:0:0:0:
101,253,187591,5,4,3:1:0:0:
141,174,187991,2,0,P|136:129|133:86,2,80,0|0|0,1:0|3:0|1:0,0:0:0:0:
226,196,189191,6,0,P|283:186|332:178,1,80,4|0,3:2|1:0,0:0:0:0:
390,203,189987,1,0,3:0:0:0:
463,154,190385,1,0,1:0:0:0:
438,69,190783,6,0,L|348:54,1,80,4|0,3:1|1:0,0:0:0:0:
278,19,191576,2,0,P|231:32|173:51,1,80,0|0,3:0|1:0,0:0:0:0:
114,35,192369,2,0,P|59:113|101:190,1,160,4|0,3:2|3:0,0:0:0:0:
139,229,193569,1,0,1:0:0:0:
226,226,193969,6,0,B|210:263|210:263|229:299,1,80,4|0,3:1|3:0,0:0:0:0:
312,324,194769,2,0,B|328:287|328:287|309:251,1,80,4|0,3:3|1:0,0:0:0:0:
289,161,195569,6,0,P|304:65|445:19,1,240,4|4,1:2|3:3,0:0:0:0:
470,93,197140,5,4,3:1:0:0:
424,168,197553,2,0,P|431:214|439:273,1,80,0|0,1:0|3:0,0:0:0:0:
380,316,198381,2,0,P|338:324|282:336,1,80,0|4,1:0|0:2,0:0:0:0:
220,296,199193,1,0,1:0:0:0:
57,363,199991,5,0,1:0:0:0:
83,277,200389,1,4,3:1:0:0:
24,210,200781,1,0,1:0:0:0:
85,147,201173,2,0,P|92:97|95:55,1,80,0|0,3:0|1:0,0:0:0:0:
166,22,201957,5,4,0:2:0:0:
247,55,202360,1,0,1:0:0:0:
330,26,202763,1,0,3:0:0:0:
411,59,203167,1,0,1:0:0:0:
411,234,203973,6,0,P|362:224|323:221,1,80,0|0,1:0|1:0,0:0:0:0:
259,271,204780,2,0,P|206:265|171:262,1,80,0|4,1:0|3:2,0:0:0:0:
98,229,205577,1,0,1:0:0:0:
143,153,205972,2,0,P|148:112|194:76,1,80,0|0,3:0|1:0,0:0:0:0:
257,63,206761,5,4,1:1:0:0:
335,103,207161,2,0,L|324:177,1,40,0|0,3:0|1:0,0:0:0:0:
399,195,207761,2,0,L|366:261,1,40,4|0,3:3|1:0,0:0:0:0:
384,322,208361,6,0,P|224:300|33:280,1,333,4|4,3:1|3:1,0:0:0:0:
