osu file format v14

[General]
AudioFilename: audio.mp3
AudioLeadIn: 0
PreviewTime: 30624
Countdown: 0
SampleSet: None
StackLeniency: 0.7
Mode: 0
LetterboxInBreaks: 0
WidescreenStoryboard: 1

[Editor]
Bookmarks: 11100,11338,12052,12449,13957,14354,17767,18005,19671,19751,20624,20703,22528,22767,24195,24274,24671,24751,25147,25227,25624,25703,26814,27528,28481,28640,29433,29513,32528,33243,34433,35306,37290,38005,39195,39909,43005,43719,55386,56100,58243,58957,60147,60862,71814,72290,73719,73798,74195,74274,74671,74751,75147,75624,80147,83878,87767,90386,94433,95306,95862,96100,96814,97211,100147,101021,101576,102290,103005,104830,109671,110386,112528,114195,123243,124671,125862,126576,144909,160147
DistanceSpacing: 1
BeatDivisor: 6
GridSize: 8
TimelineZoom: 1

[Metadata]
Title:Kobe Steak
TitleUnicode:Kobe Steak
Artist:Martin Landh
ArtistUnicode:Martin Landh
Creator:guineaQ
Version:Mapping Puzzle [Flip Off]
Source:
Tags:
BeatmapID:1244045
BeatmapSetID:587480

[Difficulty]
HPDrainRate:6
CircleSize:4
OverallDifficulty:7
ApproachRate:9
SliderMultiplier:2.4
SliderTickRate:1

[Events]
//Background and Video events
0,0,"o o k.jpg",0,0
//Break Periods
2,46062,52881
2,129871,136690
//Storyboard Layer 0 (Background)
//Storyboard Layer 1 (Fail)
//Storyboard Layer 2 (Pass)
//Storyboard Layer 3 (Foreground)
//Storyboard Sound Samples

[TimingPoints]
148,476.190476190476,4,2,1,40,1,0
30624,-100,4,2,1,60,0,1
45862,-100,4,2,1,40,0,0
76338,-100,4,2,1,60,0,1
91576,-100,4,2,1,40,0,0
144909,-100,4,2,1,60,0,1
160147,-100,4,2,1,40,0,0

[HitObjects]
186,172,7767,6,0,P|196:122|237:77,1,80,6|0,0:0|0:0,0:0:0:0:
281,162,8005,1,0,0:0:0:0:
123,239,8243,2,0,L|17:230,1,80,8|0,0:0|0:0,0:0:0:0:
150,275,8481,2,0,L|44:266,1,80
199,208,8719,2,0,P|231:264|229:292,1,80,2|0,0:0|0:0,0:0:0:0:
221,316,8957,1,0,0:0:0:0:
251,130,9195,2,0,L|260:13,1,80,8|0,0:0|0:0,0:0:0:0:
289,26,9433,1,0,0:0:0:0:
251,130,9671,6,0,L|157:114,1,80,2|0,0:0|0:0,0:0:0:0:
289,26,9909,1,0,0:0:0:0:
334,201,10147,2,0,P|342:260|340:289,1,80,8|0,0:0|0:0,0:0:0:0:
224,349,10386,2,0,P|223:309|231:269,1,80
318,168,10624,2,0,L|405:165,1,80,2|0,0:0|0:0,0:0:0:0:
432,144,10862,1,0,0:0:0:0:
299,5,11576,6,0,P|346:40|359:80,1,80,2|0,0:0|0:0,0:0:0:0:
273,86,11814,1,0,0:0:0:0:
113,265,12528,2,0,P|161:301|197:303,1,80,2|0,0:0|0:0,0:0:0:0:
219,296,12767,1,0,0:0:0:0:
38,230,13005,2,0,P|30:269|40:307,1,80,8|0,0:0|0:0,0:0:0:0:
71,334,13243,1,0,0:0:0:0:
184,223,13481,6,0,L|282:220,1,80,2|0,0:0|0:0,0:0:0:0:
299,239,13719,1,0,0:0:0:0:
137,155,14433,5,2,0:0:0:0:
256,240,14671,2,0,L|256:320,1,80
375,155,15147,1,0,0:0:0:0:
256,240,15386,6,0,L|168:240,1,80,6|0,0:0|0:0,0:0:0:0:
135,240,15624,1,0,0:0:0:0:
256,136,15862,2,0,L|384:136,1,120,8|0,0:0|0:0,0:0:0:0:
256,240,16338,2,0,L|128:240,1,120,2|0,0:0|0:0,0:0:0:0:
104,216,16695,1,0,0:0:0:0:
72,192,16814,2,0,B|104:136|104:136|176:136,1,120,8|0,0:0|0:0,0:0:0:0:
256,256,17290,6,0,L|256:160,1,80,2|0,0:0|0:0,0:0:0:0:
256,136,17528,1,0,0:0:0:0:
256,256,18243,1,2,0:0:0:0:
160,176,18481,1,0,0:0:0:0:
160,176,18600,1,0,0:0:0:0:
160,175,18719,2,0,P|197:131|255:129,1,120,8|0,0:0|0:0,0:0:0:0:
256,256,19195,5,2,0:0:0:0:
392,208,19433,1,0,0:0:0:0:
256,256,19909,1,0,0:0:0:0:
120,208,20147,5,2,0:0:0:0:
256,256,20386,1,0,0:0:0:0:
120,208,20862,1,0,0:0:0:0:
256,256,21100,6,0,P|288:304|352:320,1,120,2|0,0:0|0:0,0:0:0:0:
416,208,21576,2,0,P|384:160|320:144,1,120,8|0,0:0|0:0,0:0:0:0:
256,256,22052,5,2,0:0:0:0:
136,256,22290,1,0,0:0:0:0:
256,256,23005,5,6,0:0:0:0:
360,240,23243,1,0,0:0:0:0:
240,152,23481,1,8,0:0:0:0:
344,136,23719,1,0,0:0:0:0:
224,136,23957,5,2,0:0:0:0:
344,40,24433,1,8,0:0:0:0:
256,80,24909,5,2,0:0:0:0:
256,240,25385,1,8,0:0:0:0:
168,160,25862,5,2,0:0:0:0:
208,64,26100,1,0,0:0:0:0:
344,160,26338,1,8,0:0:0:0:
304,64,26576,1,0,0:0:0:0:
155,293,27767,6,0,P|116:236|135:162,1,120,2|0,0:0|0:0,0:0:0:0:
256,88,28243,1,8,0:0:0:0:
452,196,28719,6,0,L|457:99,1,80,2|0,0:0|0:0,0:0:0:0:
460,81,28957,2,0,P|413:101|351:101,1,80
347,89,29195,1,8,0:0:0:0:
166,86,29671,6,0,P|257:49|346:88,1,200,2|0,0:0|0:0,0:0:0:0:
256,168,30386,1,0,0:0:0:0:
105,260,30624,6,0,P|159:179|255:167,1,200,6|0,0:0|0:0,0:0:0:0:
222,283,31100,2,0,B|199:222|216:186|240:144|217:85,1,200,10|0,0:0|0:0,0:0:0:0:
333,229,31576,5,2,0:0:0:0:
359,75,31814,1,0,0:0:0:0:
257,264,32052,1,10,0:0:0:0:
375,209,32290,1,0,0:0:0:0:
234,134,33481,6,0,P|199:142|137:129,1,80,2|0,0:0|0:0,0:0:0:0:
288,56,33719,2,0,P|324:107|326:150,1,80
268,222,33957,1,10,0:0:0:0:
418,151,34195,1,8,0:0:0:0:
43,285,35386,5,2,0:0:0:0:
38,135,35624,1,0,0:0:0:0:
38,135,35743,1,0,0:0:0:0:
38,135,35862,1,10,0:0:0:0:
181,238,36100,1,0,0:0:0:0:
349,117,36338,5,2,0:0:0:0:
163,117,36576,1,0,0:0:0:0:
331,238,36814,1,10,0:0:0:0:
272,64,37052,1,0,0:0:0:0:
163,117,38243,6,0,P|159:198|272:242,1,200,6|0,0:0|0:0,0:0:0:0:
237,162,38719,2,0,P|172:223|217:325,1,200,10|0,0:0|0:0,0:0:0:0:
382,300,40147,5,2,0:0:0:0:
354,114,40386,1,0,0:0:0:0:
168,144,40624,1,10,0:0:0:0:
196,330,40863,1,0,0:0:0:0:
307,178,41100,6,0,L|354:114,1,80,2|0,0:0|0:0,0:0:0:0:
368,251,41338,2,0,P|315:271|280:270,1,80
216,143,41576,1,10,0:0:0:0:
220,299,41814,1,8,0:0:0:0:
354,114,42052,5,2,0:0:0:0:
186,114,42290,1,0,0:0:0:0:
296,240,42528,1,10,0:0:0:0:
296,72,42767,1,0,0:0:0:0:
80,72,43957,5,2,0:0:0:0:
186,240,44195,1,0,0:0:0:0:
400,240,44433,1,10,0:0:0:0:
296,136,44671,1,0,0:0:0:0:
296,344,44909,6,0,P|219:348|242:235,1,200,2|0,0:0|0:0,0:0:0:0:
296,136,45386,2,0,P|305:46|216:39,1,200
153,180,45862,1,4,0:0:0:0:
335,252,53481,6,0,P|379:225|397:180,1,80
315,174,53719,2,0,P|333:124|326:87,1,80
252,124,53957,1,8,0:0:0:0:
177,252,54195,1,0,0:0:0:0:
335,252,54433,6,0,L|315:174,1,80
196,174,54671,2,0,L|177:252,1,80
256,336,54909,1,8,0:0:0:0:
368,226,55147,1,0,0:0:0:0:
307,246,56338,6,0,P|343:252|398:239,1,80
256,184,56576,2,0,L|256:100,1,80
205,246,56814,2,0,P|169:252|114:239,1,80,8|0,0:0|0:0,0:0:0:0:
307,246,57052,1,0,0:0:0:0:
148,331,57290,5,0,0:0:0:0:
187,227,57528,1,0,0:0:0:0:
325,227,57767,1,8,0:0:0:0:
364,331,58005,1,0,0:0:0:0:
208,116,59195,5,0,0:0:0:0:
256,296,59433,1,0,0:0:0:0:
304,116,59671,1,8,0:0:0:0:
256,296,59909,1,0,0:0:0:0:
344,228,61100,6,0,P|408:175|380:25,1,240
304,116,61655,1,0,0:0:0:0:
265,155,63005,6,0,B|194:155|194:155|152:179|152:179|198:122|165:50,1,240
72,107,63560,1,0,0:0:0:0:
73,107,64909,6,0,B|134:144|191:116|191:116|255:88|309:119,1,240
251,211,65465,1,0,0:0:0:0:
251,211,66814,6,0,P|225:288|74:270,1,240
156,220,67370,1,0,0:0:0:0:
156,220,68719,6,0,P|278:201|405:222,1,240
488,320,69433,1,0,0:0:0:0:
443,135,69909,1,0,0:0:0:0:
500,44,70147,2,0,P|483:119|483:192,1,120
495,272,70624,6,0,P|433:300|387:161,1,240
504,120,71338,1,0,0:0:0:0:
48,32,72528,5,0,0:0:0:0:
168,112,72767,1,0,0:0:0:0:
312,112,73005,1,0,0:0:0:0:
312,256,73243,1,0,0:0:0:0:
216,144,73481,5,0,0:0:0:0:
424,160,73957,1,0,0:0:0:0:
216,144,74433,5,0,0:0:0:0:
88,144,74909,1,0,0:0:0:0:
183,41,76338,6,0,P|133:83|223:138,1,200,6|0,0:0|0:0,0:0:0:0:
329,41,76814,2,0,P|379:83|289:138,1,200,10|0,0:0|0:0,0:0:0:0:
183,41,77290,5,2,0:0:0:0:
54,71,77528,1,0,0:0:0:0:
208,165,77767,1,10,0:0:0:0:
49,250,78005,1,0,0:0:0:0:
304,165,78243,5,2,0:0:0:0:
463,250,78481,1,0,0:0:0:0:
329,41,78719,1,10,0:0:0:0:
458,71,78957,1,0,0:0:0:0:
373,210,79195,6,0,P|346:233|287:246,1,80,2|0,0:0|0:0,0:0:0:0:
207,246,79433,2,0,P|169:235|139:210,1,80
256,160,79671,1,10,0:0:0:0:
256,320,79909,1,8,0:0:0:0:
134,177,83957,6,0,P|178:249|303:256,1,200,6|0,0:0|0:0,0:0:0:0:
378,207,84433,2,0,P|334:135|209:128,1,200,10|0,0:0|0:0,0:0:0:0:
120,232,84909,5,2,0:0:0:0:
248,312,85147,1,0,0:0:0:0:
392,152,85386,1,10,0:0:0:0:
264,72,85624,1,0,0:0:0:0:
176,272,85862,5,2,0:0:0:0:
336,112,86100,1,0,0:0:0:0:
336,272,86338,1,10,0:0:0:0:
176,112,86576,1,0,0:0:0:0:
264,240,86814,6,0,P|297:262|336:272,1,80,2|0,0:0|0:0,0:0:0:0:
247,143,87052,2,0,P|214:121|176:112,1,80
166,234,87290,1,10,0:0:0:0:
346,150,87528,1,0,0:0:0:0:
98,121,90624,6,0,P|129:78|249:130,1,200,2|0,0:0|0:0,0:0:0:0:
265,263,91100,2,0,P|339:319|414:263,1,200,10|0,0:0|0:0,0:0:0:0:
339,141,91576,5,6,0:0:0:0:
399,36,91814,1,0,0:0:0:0:
416,184,92052,2,0,L|422:261,2,60,10|0|0,0:0|0:0|0:0,0:0:0:0:
313,52,92528,2,0,P|229:80|206:134,1,120,2|0,0:0|0:0,0:0:0:0:
208,137,92886,1,0,0:0:0:0:
208,137,93005,2,0,L|115:137,1,80,10|0,0:0|0:0,0:0:0:0:
257,211,93243,2,0,P|283:181|296:144,1,80
164,229,93481,5,2,0:0:0:0:
336,262,93719,1,0,0:0:0:0:
208,137,93957,2,0,P|154:128|79:169,1,120,10|0,0:0|0:0,0:0:0:0:
234,84,95386,5,2,0:0:0:0:
341,183,95624,1,0,0:0:0:0:
341,183,96338,2,0,L|348:324,1,120,2|0,0:0|0:0,0:0:0:0:
315,327,96695,1,0,0:0:0:0:
160,325,97290,5,2,0:0:0:0:
47,231,97528,1,0,0:0:0:0:
255,207,97767,2,0,L|407:192,1,120,10|0,0:0|0:0,0:0:0:0:
144,150,98243,5,0,0:0:0:0:
162,195,98481,1,0,0:0:0:0:
181,240,98719,5,0,0:0:0:0:
187,180,98838,5,0,0:0:0:0:
193,120,98957,5,0,0:0:0:0:
199,60,99076,5,0,0:0:0:0:
206,1,99195,5,6,0:0:0:0:
283,131,99433,1,0,0:0:0:0:
380,18,99671,2,0,L|446:13,2,60,10|0|0,0:0|0:0|0:0,0:0:0:0:
121,163,101100,5,2,0:0:0:0:
238,43,101338,1,0,0:0:0:0:
319,153,102409,1,0,0:0:0:0:
319,153,102528,2,0,L|405:192,1,80,10|0,0:0|0:0,0:0:0:0:
253,221,102767,2,0,L|167:260,1,80
188,327,104909,5,2,0:0:0:0:
259,191,105147,1,0,0:0:0:0:
360,311,105386,2,0,L|376:170,1,120,10|0,0:0|0:0,0:0:0:0:
272,71,105862,2,0,L|258:190,1,120,2|0,0:0|0:0,0:0:0:0:
289,221,106219,1,0,0:0:0:0:
289,221,106338,2,0,P|287:299|243:348,1,120,10|0,0:0|0:0,0:0:0:0:
177,252,106814,6,0,P|133:225|115:180,1,80
197,174,107052,2,0,P|179:124|186:87,1,80
260,124,107290,1,8,0:0:0:0:
335,252,107528,1,0,0:0:0:0:
177,252,107766,6,0,L|197:174,1,80
316,174,108004,2,0,L|335:252,1,80
256,336,108242,1,8,0:0:0:0:
144,226,108480,1,0,0:0:0:0:
260,124,108719,6,0,P|327:147|361:168,1,80
252,260,108957,2,0,P|185:237|151:216,1,80
165,91,109195,1,8,0:0:0:0:
335,151,109433,1,0,0:0:0:0:
364,331,110623,5,0,0:0:0:0:
325,227,110861,1,0,0:0:0:0:
187,227,111100,1,8,0:0:0:0:
148,331,111338,1,0,0:0:0:0:
304,228,111576,5,0,0:0:0:0:
340,116,111814,1,0,0:0:0:0:
208,228,112052,1,8,0:0:0:0:
172,116,112290,1,0,0:0:0:0:
168,228,114433,6,0,P|104:175|132:25,1,240
208,116,114988,1,0,0:0:0:0:
247,155,116338,6,0,B|318:155|318:155|360:179|360:179|314:122|347:50,1,240
440,107,116893,1,0,0:0:0:0:
439,107,118242,6,0,B|378:144|321:116|321:116|257:88|203:119,1,240
261,211,118798,1,0,0:0:0:0:
261,211,120147,6,0,P|287:288|438:270,1,240
356,220,120703,1,0,0:0:0:0:
356,220,122052,6,0,P|234:201|107:222,1,240
24,320,122766,1,0,0:0:0:0:
264,170,125147,2,0,P|321:159|363:152,1,80
419,184,125385,2,0,P|379:150|397:65,1,120
296,144,126814,5,0,0:0:0:0:
184,48,127052,1,0,0:0:0:0:
88,160,127290,1,0,0:0:0:0:
200,256,127528,1,0,0:0:0:0:
296,144,127766,5,0,0:0:0:0:
296,144,128004,1,0,0:0:0:0:
424,144,128242,1,0,0:0:0:0:
359,216,128480,2,0,P|248:230|200:128,1,240
200,128,129671,5,6,0:0:0:0:
200,128,137290,6,0,P|154:194|214:297,1,200,6|0,0:0|0:0,0:0:0:0:
309,291,137767,2,0,P|359:210|312:128,1,200,2|0,0:0|0:0,0:0:0:0:
187,44,138243,6,0,L|211:191,1,120,2|0,0:0|0:0,0:0:0:0:
325,44,138719,2,0,L|301:191,1,120,2|0,0:0|0:0,0:0:0:0:
141,244,139195,5,2,0:0:0:0:
256,336,139433,1,0,0:0:0:0:
371,244,139671,1,2,0:0:0:0:
256,152,139909,1,0,0:0:0:0:
256,336,140147,5,2,0:0:0:0:
344,216,140386,1,0,0:0:0:0:
168,216,140624,1,2,0:0:0:0:
256,96,140862,1,0,0:0:0:0:
344,256,141100,5,2,0:0:0:0:
344,256,141338,1,0,0:0:0:0:
168,256,141576,1,2,0:0:0:0:
168,256,141814,1,0,0:0:0:0:
256,96,142052,5,2,0:0:0:0:
304,240,142290,1,0,0:0:0:0:
352,96,142528,1,2,0:0:0:0:
208,240,142767,1,0,0:0:0:0:
160,96,143005,5,2,0:0:0:0:
320,192,143243,1,0,0:0:0:0:
168,280,143481,1,2,0:0:0:0:
168,280,143957,5,2,0:0:0:0:
168,280,144195,1,0,0:0:0:0:
168,280,144433,5,0,0:0:0:0:
227,274,144552,5,0,0:0:0:0:
287,269,144671,5,0,0:0:0:0:
347,264,144790,5,0,0:0:0:0:
