osu file format v14

[General]
AudioFilename: audio.mp3
AudioLeadIn: 0
PreviewTime: 33768
Countdown: 1
SampleSet: Soft
StackLeniency: 0.7
Mode: 0
LetterboxInBreaks: 1
WidescreenStoryboard: 0

[Editor]
DistanceSpacing: 1.5
BeatDivisor: 4
GridSize: 4
TimelineZoom: 1

[Metadata]
Title:Animals
TitleUnicode:Animals
Artist:Martin Garrix
ArtistUnicode:Martin Garrix
Creator:Nitronic Techno
Version:Insane
Source:
Tags:Martin Garrix Animals Dubstep Bass-Boosted Boosted Bass
BeatmapID:1196206
BeatmapSetID:551963

[Difficulty]
HPDrainRate:7.8
CircleSize:4
OverallDifficulty:8.5
ApproachRate:8.7
SliderMultiplier:2.05
SliderTickRate:1

[Events]
//Background and Video events
0,0,"Lion-Colorful-Animal-Wallpaper-092-1366x768.jpg",0,0
//Break Periods
2,33484,40140
//Storyboard Layer 0 (Background)
//Storyboard Layer 1 (Fail)
//Storyboard Layer 2 (Pass)
//Storyboard Layer 3 (Foreground)
//Storyboard Sound Samples

[TimingPoints]
18285,468.75,4,2,0,70,1,0
18285,-100,4,2,0,70,0,0
18402,-100,4,2,0,10,0,0
18753,-100,4,2,0,70,0,0
18870,-100,4,2,0,10,0,0
19222,-100,4,2,0,70,0,0
19339,-100,4,2,0,10,0,0
19691,-100,4,2,0,70,0,0
19808,-100,4,2,0,10,0,0
20160,-100,4,2,0,70,0,0
20277,-100,4,2,0,10,0,0
20628,-100,4,2,0,70,0,0
20745,-100,4,2,0,10,0,0
21097,-100,4,2,0,70,0,0
21214,-100,4,2,0,10,0,0
21566,-100,4,2,0,20,0,0
23441,-100,4,2,0,25,0,0
25316,-100,4,2,0,30,0,0
27191,-100,4,2,0,40,0,0
29066,-100,4,2,0,50,0,0
30941,-100,4,2,0,60,0,0
32816,-100,4,2,0,65,0,0
33285,-100,4,2,0,50,0,0
40785,-117.647058823529,4,1,0,45,0,0
42660,-117.647058823529,4,1,0,50,0,0
44535,-117.647058823529,4,1,0,55,0,0
46644,-117.647058823529,4,1,0,60,0,0
48285,-117.647058823529,4,1,0,59,0,0
48753,-117.647058823529,4,1,0,60,0,0
50394,-117.647058823529,4,1,0,65,0,0
52269,-117.647058823529,4,1,0,70,0,0
54144,-117.647058823529,4,1,0,75,0,0
55785,-86.9565217391304,4,1,0,85,0,0
62581,-55.5555555555556,4,1,0,85,0,0
63285,-86.9565217391304,4,1,0,85,0,0
70785,-83.3333333333333,4,1,0,70,0,0
85785,-95.2380952380952,4,1,0,85,0,1
93285,-95.2380952380952,4,1,0,88,0,1
100785,-84.7457627118644,4,3,0,92,0,1
108285,-84.7457627118644,4,3,0,95,0,1
115785,-84.7457627118644,4,1,0,50,0,0
119535,-83.3333333333333,4,1,0,80,0,0
126331,-54.054054054054,4,1,0,80,0,0
127035,-83.3333333333333,4,1,0,80,0,0
134535,-80,4,1,0,70,0,0
149535,-90.9090909090909,4,1,0,88,0,1
164535,-81.3008130081301,4,3,0,92,0,1
172035,-81.3008130081301,4,3,0,95,0,1
179535,-100,4,1,0,60,0,0
180472,-100,4,1,0,45,0,0
181410,-100,4,1,0,30,0,0
182347,-100,4,1,0,15,0,0
183167,-100,4,1,0,5,0,0

[HitObjects]
35,38,18285,6,8,L|248:38,1,205,8|0,0:0|0:0,0:0:0:0:
257,139,18988,1,2,0:0:0:0:
338,77,19222,2,8,L|428:278,1,205,8|0,0:0|0:0,0:0:0:0:
229,335,20160,2,0,L|93:335,1,102.5,8|0,0:0|0:0,0:0:0:0:
183,250,20628,2,0,L|299:249,1,102.5
310,149,21097,2,0,L|98:149,1,205,8|0,0:0|0:0,0:0:0:0:
127,48,21800,1,0,0:0:0:0:
434,49,22503,5,2,0:0:0:0:
434,49,22738,1,0,0:0:0:0:
420,150,22972,1,2,0:0:0:0:
420,150,23206,1,0,0:0:0:0:
382,245,23441,1,2,0:0:0:0:
335,153,23675,1,2,0:0:0:0:
81,326,24378,5,2,0:0:0:0:
142,243,24613,1,0,0:0:0:0:
236,281,24847,1,2,0:0:0:0:
289,193,25081,1,0,0:0:0:0:
385,227,25316,1,2,0:0:0:0:
439,140,25550,1,2,0:0:0:0:
143,56,26253,5,2,0:0:0:0:
242,81,26488,1,0,0:0:0:0:
204,176,26722,1,2,0:0:0:0:
299,213,26956,1,0,0:0:0:0:
349,123,27191,1,2,0:0:0:0:
438,171,27425,1,2,0:0:0:0:
155,292,28128,5,2,0:0:0:0:
155,292,28363,1,0,0:0:0:0:
155,292,28597,1,2,0:0:0:0:
209,205,28831,1,0,0:0:0:0:
209,205,29066,1,2,0:0:0:0:
209,205,29300,1,2,0:0:0:0:
379,278,30003,5,2,0:0:0:0:
446,200,30238,1,0,0:0:0:0:
383,119,30472,1,2,0:0:0:0:
280,120,30706,1,0,0:0:0:0:
215,200,30941,1,2,0:0:0:0:
282,276,31175,1,2,0:0:0:0:
67,56,31878,5,2,0:0:0:0:
189,72,32113,1,0,0:0:0:0:
309,95,32347,1,2,0:0:0:0:
428,124,32581,1,0,0:0:0:0:
399,244,32816,2,2,P|334:300|206:271,1,205
69,92,40785,6,0,P|136:78|218:102,1,130.687502492666,8|0,0:0|0:0,0:0:0:0:
218,116,41253,1,8,0:0:0:0:
299,147,41488,1,0,0:0:0:0:
380,117,41722,2,0,P|414:161|394:284,1,174.250003323555,8|8,0:0|0:0,0:0:0:0:
275,240,42542,1,0,0:0:0:0:
235,258,42660,6,0,P|189:272|140:258,1,87.1250016617775,8|0,0:0|0:0,0:0:0:0:
194,188,43128,2,0,P|257:177|284:195,1,87.1250016617775,8|0,0:0|0:0,0:0:0:0:
358,212,43597,1,8,0:0:0:0:
358,212,44066,1,8,0:0:0:0:
207,314,44535,5,8,0:0:0:0:
208,227,44769,1,0,0:0:0:0:
327,279,45003,5,8,0:0:0:0:
327,147,45238,1,0,0:0:0:0:
422,292,45472,5,4,0:0:0:0:
305,70,46175,1,0,0:0:0:0:
305,70,46292,1,0,0:0:0:0:
305,70,46410,5,8,0:0:0:0:
304,157,46644,1,0,0:0:0:0:
185,105,46878,5,8,0:0:0:0:
185,237,47113,1,0,0:0:0:0:
90,92,47347,5,4,0:0:0:0:
345,329,48285,6,0,P|363:271|344:190,1,130.687502492666,8|0,0:0|0:0,0:0:0:0:
350,176,48753,1,8,0:0:0:0:
284,118,48988,1,0,0:0:0:0:
210,164,49222,2,8,P|162:181|30:169,1,174.250003323555
122,275,50042,1,0,0:0:0:0:
158,299,50160,6,0,P|208:315|248:309,1,87.1250016617775,8|0,0:0|0:0,0:0:0:0:
215,228,50628,2,0,P|275:217|310:235,1,87.1250016617775,8|0,0:0|0:0,0:0:0:0:
365,171,51097,1,8,0:0:0:0:
365,171,51566,1,8,0:0:0:0:
213,84,52035,5,8,0:0:0:0:
299,84,52269,1,0,0:0:0:0:
190,157,52503,5,8,0:0:0:0:
321,157,52738,1,0,0:0:0:0:
186,267,52972,5,4,0:0:0:0:
299,300,53675,1,0,0:0:0:0:
299,300,53792,1,0,0:0:0:0:
299,300,53910,5,8,0:0:0:0:
213,300,54144,1,0,0:0:0:0:
322,227,54378,5,8,0:0:0:0:
191,227,54613,1,0,0:0:0:0:
326,117,54847,5,4,0:0:0:0:
106,84,55785,6,2,P|192:64|283:89,1,176.812503372431,10|2,0:0|0:0,0:0:0:0:
348,53,56253,2,0,L|348:174,1,117.875002248287,8|0,0:0|0:0,0:0:0:0:
454,223,56722,2,10,P|345:267|229:217,1,235.750004496574
108,107,57542,1,2,0:0:0:0:
171,164,57660,6,0,L|171:297,1,117.875002248287,8|0,0:0|0:0,0:0:0:0:
256,201,58128,2,0,L|256:78,1,117.875002248287,8|0,0:0|0:0,0:0:0:0:
364,35,58597,1,8,0:0:0:0:
364,349,59066,1,4,0:0:0:0:
297,122,59535,5,8,0:0:0:0:
414,121,59769,1,2,0:0:0:0:
215,193,60003,5,8,0:0:0:0:
37,192,60238,1,2,0:0:0:0:
297,295,60472,5,8,0:0:0:0:
215,89,60941,5,4,0:0:0:0:
215,89,61175,1,2,0:0:0:0:
215,89,61292,1,2,0:0:0:0:
215,89,61410,5,8,0:0:0:0:
98,88,61644,1,2,0:0:0:0:
298,155,61878,5,8,0:0:0:0:
476,154,62113,1,2,0:0:0:0:
213,247,62347,5,8,0:0:0:0:
310,90,62581,6,4,L|310:311,1,184.499994369507
226,53,63285,6,2,B|286:33|286:33|409:33,1,176.812503372431,10|2,0:0|0:0,0:0:0:0:
461,80,63753,2,0,L|461:216,1,117.875002248287,8|0,0:0|0:0,0:0:0:0:
379,112,64222,2,10,P|348:169|382:341,1,235.750004496574
224,236,65042,1,2,0:0:0:0:
161,174,65160,6,0,P|208:133|271:129,1,117.875002248287,8|0,0:0|0:0,0:0:0:0:
276,243,65628,2,0,P|232:291|173:301,1,117.875002248287,8|0,0:0|0:0,0:0:0:0:
85,234,66097,1,8,0:0:0:0:
427,234,66566,1,4,0:0:0:0:
191,228,67035,5,8,0:0:0:0:
190,345,67269,1,2,0:0:0:0:
331,239,67503,5,8,0:0:0:0:
332,61,67738,1,2,0:0:0:0:
101,109,67972,5,8,0:0:0:0:
101,275,68441,5,4,0:0:0:0:
101,275,68675,1,2,0:0:0:0:
101,275,68792,1,2,0:0:0:0:
101,275,68910,5,8,0:0:0:0:
101,157,69144,1,2,0:0:0:0:
255,72,69378,5,8,0:0:0:0:
255,249,69613,1,2,0:0:0:0:
415,77,69847,5,8,0:0:0:0:
59,60,70785,5,2,0:0:0:0:
132,59,71253,1,0,0:0:0:0:
205,59,71722,1,2,0:0:0:0:
278,60,72191,1,0,0:0:0:0:
453,324,72660,5,2,0:0:0:0:
380,325,73128,1,0,0:0:0:0:
307,325,73597,1,2,0:0:0:0:
234,324,74066,1,0,0:0:0:0:
453,60,74535,5,2,0:0:0:0:
380,59,75003,1,0,0:0:0:0:
307,59,75472,1,2,0:0:0:0:
234,60,75941,1,0,0:0:0:0:
59,324,76410,5,2,0:0:0:0:
132,325,76878,1,0,0:0:0:0:
205,325,77347,1,2,0:0:0:0:
278,324,77816,1,0,0:0:0:0:
364,236,78285,6,0,P|390:154|371:98,1,122.999996246338,2|0,0:0|0:0,0:0:0:0:
306,57,78753,2,0,P|291:127|315:181,1,122.999996246338,2|0,0:0|0:0,0:0:0:0:
210,178,79222,6,0,P|229:253|210:328,1,122.999996246338,2|0,0:0|0:0,0:0:0:0:
137,247,79691,2,0,P|106:174|127:122,1,122.999996246338,2|0,0:0|0:0,0:0:0:0:
209,99,80160,6,0,P|276:75|339:101,1,122.999996246338,2|0,0:0|0:0,0:0:0:0:
270,172,80628,2,0,P|354:187|419:155,1,122.999996246338,2|0,0:0|0:0,0:0:0:0:
441,258,81097,6,0,P|360:247|296:274,1,122.999996246338,2|0,0:0|0:0,0:0:0:0:
374,341,81566,2,0,P|297:352|237:330,1,122.999996246338,2|0,0:0|0:0,0:0:0:0:
161,308,82035,6,0,L|102:259,1,61.499998123169,2|0,0:0|0:0,0:0:0:0:
161,281,82269,2,0,L|104:234,1,61.499998123169,2|0,0:0|0:0,0:0:0:0:
162,248,82503,2,0,L|95:194,1,61.499998123169,2|0,0:0|0:0,0:0:0:0:
163,217,82738,2,0,L|101:168,1,61.499998123169,2|0,0:0|0:0,0:0:0:0:
163,185,82972,6,0,L|87:132,1,61.499998123169,2|0,0:0|0:0,0:0:0:0:
161,156,83206,2,0,L|85:99,1,61.499998123169,2|0,0:0|0:0,0:0:0:0:
160,125,83441,2,0,L|97:77,1,61.499998123169,2|0,0:0|0:0,0:0:0:0:
160,91,83675,2,0,L|99:42,1,61.499998123169,2|0,0:0|0:0,0:0:0:0:
160,63,83910,5,2,0:0:0:0:
352,321,85785,5,4,0:0:0:0:
205,230,86253,6,0,L|219:148,1,53.8124983577729,8|0,0:0|0:0,0:0:0:0:
179,216,86488,2,0,L|179:145,1,53.8124983577729
142,214,86722,5,8,0:0:0:0:
142,214,86878,1,0,0:0:0:0:
142,214,87035,1,0,0:0:0:0:
103,217,87191,6,0,P|100:150|121:101,1,107.624996715546,8|0,0:0|0:0,0:0:0:0:
129,95,87542,2,2,P|186:71|279:94,1,161.437495073319
364,160,88128,6,0,L|296:167,1,53.8124983577729,8|0,0:0|0:0,0:0:0:0:
359,187,88363,2,0,L|309:209,1,53.8124983577729
377,219,88597,5,8,0:0:0:0:
377,219,88753,1,0,0:0:0:0:
377,219,88910,1,0,0:0:0:0:
408,254,89066,6,0,P|408:314|435:354,1,107.624996715546,8|0,0:0|0:0,0:0:0:0:
271,353,89535,2,2,P|298:307|296:254,1,107.624996715546
231,168,90003,6,0,L|159:207,1,53.8124983577729,8|0,0:0|0:0,0:0:0:0:
191,129,90238,2,0,L|167:191,1,53.8124983577729
152,206,90472,5,8,0:0:0:0:
152,206,90628,1,0,0:0:0:0:
152,206,90785,1,0,0:0:0:0:
124,240,90941,6,0,P|128:306|179:346,1,107.624996715546,8|0,0:0|0:0,0:0:0:0:
184,326,91292,2,2,P|236:304|351:335,1,161.437495073319
413,248,91878,6,0,L|410:191,1,53.8124983577729,8|0,0:0|0:0,0:0:0:0:
365,227,92113,2,0,L|414:194,1,53.8124983577729
426,167,92347,5,8,0:0:0:0:
426,167,92503,1,0,0:0:0:0:
426,167,92660,1,0,0:0:0:0:
426,167,92816,6,2,P|416:103|279:58,1,215.249993431091
256,156,93519,1,2,0:0:0:0:
257,263,93753,6,0,L|256:199,1,53.8124983577729,8|0,0:0|0:0,0:0:0:0:
291,250,93988,2,0,L|255:205,1,53.8124983577729
232,192,94222,5,8,0:0:0:0:
189,186,94378,1,0,0:0:0:0:
146,192,94535,1,0,0:0:0:0:
108,213,94691,6,0,P|94:138|122:89,1,107.624996715546,8|0,0:0|0:0,0:0:0:0:
136,111,95042,2,2,P|193:130|300:108,1,161.437495073319
395,138,95628,6,0,L|443:165,1,53.8124983577729,8|0,0:0|0:0,0:0:0:0:
442,110,95863,2,0,L|441:177,1,53.8124983577729
439,196,96097,5,8,0:0:0:0:
425,236,96253,1,0,0:0:0:0:
396,268,96410,1,0,0:0:0:0:
355,283,96566,6,0,P|294:306|240:304,1,107.624996715546,8|0,0:0|0:0,0:0:0:0:
174,231,97035,2,2,P|232:204|294:207,1,107.624996715546
254,97,97503,6,0,L|195:97,1,53.8124983577729,8|0,0:0|0:0,0:0:0:0:
146,97,97738,2,0,L|219:96,1,53.8124983577729
179,121,97972,5,8,0:0:0:0:
189,162,98128,1,0,0:0:0:0:
189,205,98285,1,0,0:0:0:0:
163,239,98441,6,0,P|117:277|66:292,1,107.624996715546,8|0,0:0|0:0,0:0:0:0:
98,309,98792,1,0,0:0:0:0:
129,317,98910,5,2,0:0:0:0:
399,142,99261,1,2,0:0:0:0:
113,142,99613,1,2,0:0:0:0:
383,317,99847,1,2,0:0:0:0:
255,20,100316,1,2,0:0:0:0:
61,166,100785,5,4,0:0:0:0:
160,98,101019,1,0,0:0:0:0:
250,178,101253,6,0,L|300:121,1,60.474997877617,8|0,0:0|0:0,0:0:0:0:
304,191,101488,2,0,L|284:112,1,60.474997877617
296,102,101722,5,8,0:0:0:0:
327,65,101878,1,0,0:0:0:0:
373,50,102035,1,0,0:0:0:0:
420,39,102191,6,0,P|481:79|491:163,1,120.949995755234,8|0,0:0|0:0,0:0:0:0:
498,158,102542,2,2,P|487:221|374:264,1,181.424993632851
280,212,103128,6,0,L|368:206,1,60.474997877617,8|0,0:0|0:0,0:0:0:0:
348,147,103363,2,0,L|338:224,1,60.474997877617
339,243,103597,5,8,0:0:0:0:
311,282,103753,1,0,0:0:0:0:
265,298,103910,1,0,0:0:0:0:
217,307,104066,6,0,B|154:331|154:331|88:331,1,120.949995755234,8|0,0:0|0:0,0:0:0:0:
101,209,104535,2,2,B|154:209|154:209|217:233,1,120.949995755234
332,197,105003,6,0,L|372:146,1,60.474997877617,8|0,0:0|0:0,0:0:0:0:
393,205,105238,2,0,L|366:142,1,60.474997877617
352,117,105472,5,8,0:0:0:0:
310,92,105628,1,0,0:0:0:0:
261,86,105785,1,0,0:0:0:0:
214,99,105941,6,0,P|169:153|146:218,1,120.949995755234,8|0,0:0|0:0,0:0:0:0:
185,207,106292,2,2,P|181:276|280:313,1,181.424993632851
371,245,106878,6,0,L|382:152,1,60.474997877617,8|0,0:0|0:0,0:0:0:0:
419,229,107113,2,0,L|370:177,1,60.474997877617
348,163,107347,5,8,0:0:0:0:
302,147,107503,1,0,0:0:0:0:
253,142,107660,1,0,0:0:0:0:
206,156,107816,6,2,P|169:215|252:356,1,241.899991510468
287,240,108519,1,0,0:0:0:0:
331,127,108753,6,0,L|243:127,1,60.474997877617,8|0,0:0|0:0,0:0:0:0:
224,87,108988,2,0,L|273:131,1,60.474997877617
291,155,109222,5,8,0:0:0:0:
305,201,109378,1,0,0:0:0:0:
340,234,109535,1,0,0:0:0:0:
383,254,109691,6,0,P|452:231|473:161,1,120.949995755234,8|0,0:0|0:0,0:0:0:0:
473,155,110042,2,2,P|445:88|336:61,1,181.424993632851
227,80,110628,6,0,L|197:137,1,60.474997877617,8|0,0:0|0:0,0:0:0:0:
141,152,110863,2,0,L|218:130,1,60.474997877617
234,129,111097,5,8,0:0:0:0:
272,99,111253,1,0,0:0:0:0:
319,91,111410,1,0,0:0:0:0:
363,110,111566,6,0,P|430:136|477:120,1,120.949995755234,8|0,0:0|0:0,0:0:0:0:
471,243,112035,2,2,P|413:229|359:254,1,120.949995755234
243,286,112503,6,0,L|216:224,1,60.474997877617,8|0,0:0|0:0,0:0:0:0:
177,274,112738,2,0,L|221:226,1,60.474997877617
227,194,112972,5,8,0:0:0:0:
251,152,113128,1,0,0:0:0:0:
287,119,113285,1,0,0:0:0:0:
327,92,113441,6,0,P|398:78|467:90,1,120.949995755234,8|0,0:0|0:0,0:0:0:0:
466,113,113792,1,0,0:0:0:0:
474,148,113910,5,2,0:0:0:0:
304,283,114261,1,2,0:0:0:0:
86,283,114613,1,2,0:0:0:0:
86,101,114847,1,2,0:0:0:0:
304,101,115316,1,2,0:0:0:0:
474,148,115785,5,4,0:0:0:0:
39,349,119535,6,2,P|83:297|88:172,1,184.499994369507,10|2,0:0|0:0,0:0:0:0:
61,110,120003,2,0,P|83:50|161:42,1,122.999996246338,8|0,0:0|0:0,0:0:0:0:
295,38,120472,2,10,B|342:52|342:52|362:59|390:129|340:181|311:173|311:173|254:160,1,245.999992492676,0|0,0:0|0:0,0:0:0:0:
194,331,121292,1,2,0:0:0:0:
255,278,121410,6,0,L|256:106,1,122.999996246338,8|0,0:0|0:0,0:0:0:0:
336,62,121878,2,0,L|336:206,1,122.999996246338,8|0,0:0|0:0,0:0:0:0:
388,296,122347,1,8,0:0:0:0:
124,88,122816,1,4,0:0:0:0:
357,164,123285,5,8,0:0:0:0:
442,75,123519,1,2,0:0:0:0:
209,155,123753,5,8,0:0:0:0:
64,270,123988,1,2,0:0:0:0:
361,344,124222,5,8,0:0:0:0:
151,40,124691,5,4,0:0:0:0:
151,40,124925,1,2,0:0:0:0:
151,40,125042,1,2,0:0:0:0:
151,40,125160,5,8,0:0:0:0:
85,143,125394,1,2,0:0:0:0:
330,143,125628,5,8,0:0:0:0:
196,270,125863,1,2,0:0:0:0:
503,270,126097,5,8,0:0:0:0:
356,150,126331,6,4,P|328:250|348:347,1,189.624999276638
141,189,127035,6,2,B|186:143|186:143|186:18,1,184.499994369507,10|2,0:0|0:0,0:0:0:0:
264,34,127503,2,0,P|333:38|388:84,1,122.999996246338,8|0,0:0|0:0,0:0:0:0:
291,158,127972,2,10,P|300:224|438:366,1,245.999992492676
229,341,128792,1,2,0:0:0:0:
285,283,128910,6,0,L|285:137,1,122.999996246338,8|0,0:0|0:0,0:0:0:0:
125,159,129378,2,0,L|262:159,1,122.999996246338,8|0,0:0|0:0,0:0:0:0:
157,291,129847,1,8,0:0:0:0:
355,93,130316,1,4,0:0:0:0:
121,170,130785,5,8,0:0:0:0:
62,62,131019,1,2,0:0:0:0:
307,57,131253,5,8,0:0:0:0:
400,216,131488,1,2,0:0:0:0:
92,216,131722,5,8,0:0:0:0:
440,345,132191,5,4,0:0:0:0:
440,345,132425,1,2,0:0:0:0:
440,345,132542,1,2,0:0:0:0:
440,345,132660,5,8,0:0:0:0:
382,236,132894,1,2,0:0:0:0:
196,74,133128,5,8,0:0:0:0:
98,230,133363,1,2,0:0:0:0:
372,93,133597,5,8,0:0:0:0:
478,347,134535,5,2,0:0:0:0:
411,266,135003,1,0,0:0:0:0:
336,350,135472,1,2,0:0:0:0:
291,227,135941,1,0,0:0:0:0:
34,37,136410,5,2,0:0:0:0:
101,118,136878,1,0,0:0:0:0:
176,34,137347,1,2,0:0:0:0:
221,157,137816,1,0,0:0:0:0:
34,347,138285,5,2,0:0:0:0:
101,266,138753,1,0,0:0:0:0:
176,350,139222,1,2,0:0:0:0:
221,227,139691,1,0,0:0:0:0:
478,37,140160,5,2,0:0:0:0:
411,118,140628,1,0,0:0:0:0:
336,34,141097,1,2,0:0:0:0:
291,157,141566,1,0,0:0:0:0:
31,119,142035,6,0,P|70:51|151:33,1,128.125,2|0,0:0|0:0,0:0:0:0:
481,265,142503,2,0,P|442:333|361:351,1,128.125,2|0,0:0|0:0,0:0:0:0:
90,166,142972,2,0,P|122:106|204:90,1,128.125,2|0,0:0|0:0,0:0:0:0:
422,218,143441,2,0,P|390:278|308:294,1,128.125,2|0,0:0|0:0,0:0:0:0:
172,204,143910,2,0,P|205:141|274:125,1,128.125,2|0,0:0|0:0,0:0:0:0:
340,180,144378,2,0,P|307:243|238:259,1,128.125,2|0,0:0|0:0,0:0:0:0:
229,218,144847,2,0,P|277:157|331:165,1,128.125,2|0,0:0|0:0,0:0:0:0:
282,166,145316,2,0,P|252:219|190:224,1,128.125,2|0,0:0|0:0,0:0:0:0:
231,187,145785,6,0,L|250:121,1,64.0625,2|0,0:0|0:0,0:0:0:0:
281,197,146019,2,0,L|262:263,1,64.0625,2|0,0:0|0:0,0:0:0:0:
193,155,146253,2,0,L|202:65,1,64.0625,2|0,0:0|0:0,0:0:0:0:
319,229,146488,2,0,L|310:319,1,64.0625,2|0,0:0|0:0,0:0:0:0:
149,128,146722,2,0,L|146:47,1,64.0625,2|0,0:0|0:0,0:0:0:0:
363,256,146956,2,0,L|366:337,1,64.0625,2|0,0:0|0:0,0:0:0:0:
105,117,147191,2,0,L|88:44,1,64.0625,2|0,0:0|0:0,0:0:0:0:
407,267,147425,2,0,L|424:340,1,64.0625,2|0,0:0|0:0,0:0:0:0:
457,331,147660,5,4,0:0:0:0:
55,53,149535,5,4,0:0:0:0:
278,75,150003,6,0,L|369:104,1,56.3750017204285,8|0,0:0|0:0,0:0:0:0:
268,140,150238,2,0,L|332:158,1,56.3750017204285
257,199,150472,5,8,0:0:0:0:
197,244,150628,1,0,0:0:0:0:
122,255,150785,1,0,0:0:0:0:
59,212,150941,6,0,P|45:151|69:81,1,112.750003440857,8|0,0:0|0:0,0:0:0:0:
132,122,151292,2,2,P|202:137|322:113,1,169.125005161286
387,253,151878,6,0,L|428:314,1,56.3750017204285,8|0,0:0|0:0,0:0:0:0:
449,226,152113,2,0,L|499:264,1,56.3750017204285
496,181,152347,5,8,0:0:0:0:
457,116,152503,1,0,0:0:0:0:
397,69,152660,1,0,0:0:0:0:
322,62,152816,6,0,P|257:68|205:98,1,112.750003440857,8|0,0:0|0:0,0:0:0:0:
156,236,153285,2,2,P|219:243|285:210,1,112.750003440857
139,322,153753,6,0,L|75:282,1,56.3750017204285,8|0,0:0|0:0,0:0:0:0:
167,268,153988,2,0,L|108:210,1,56.3750017204285
204,216,154222,5,8,0:0:0:0:
233,147,154378,1,0,0:0:0:0:
228,71,154535,1,0,0:0:0:0:
167,26,154691,6,0,P|143:97|105:139,1,112.750003440857,8|0,0:0|0:0,0:0:0:0:
44,104,155042,2,2,P|54:180|108:272,1,169.125005161286
255,263,155628,6,0,L|235:189,1,56.3750017204285,8|0,0:0|0:0,0:0:0:0:
318,220,155863,2,0,L|320:144,1,56.3750017204285
386,205,156097,5,8,0:0:0:0:
433,263,156253,1,0,0:0:0:0:
423,337,156410,1,0,0:0:0:0:
349,350,156566,6,2,B|293:329|293:329|238:350|238:350|189:331|189:331|126:352,1,225.500006881714
98,242,157269,1,0,0:0:0:0:
144,139,157503,6,0,L|231:171,1,56.3750017204285,8|0,0:0|0:0,0:0:0:0:
189,79,157738,2,0,L|250:117,1,56.3750017204285
247,30,157972,5,8,0:0:0:0:
321,35,158128,1,0,0:0:0:0:
395,48,158285,1,0,0:0:0:0:
457,89,158441,6,0,P|472:164|452:234,1,112.750003440857,8|0,0:0|0:0,0:0:0:0:
427,267,158792,2,2,P|378:305|260:313,1,169.125005161286
118,290,159378,6,0,L|100:193,1,56.3750017204285,8|0,0:0|0:0,0:0:0:0:
187,234,159613,2,0,L|211:164,1,56.3750017204285
134,147,159847,5,8,0:0:0:0:
163,77,160003,1,0,0:0:0:0:
230,43,160160,1,0,0:0:0:0:
304,46,160316,6,0,P|372:61|413:104,1,112.750003440857,8|0,0:0|0:0,0:0:0:0:
304,212,160785,2,2,P|359:203|403:169,1,112.750003440857
434,323,161253,6,0,L|362:349,1,56.3750017204285,8|0,0:0|0:0,0:0:0:0:
366,263,161488,2,0,L|307:238,1,56.3750017204285
268,305,161722,5,8,0:0:0:0:
195,324,161878,1,0,0:0:0:0:
119,319,162035,1,0,0:0:0:0:
54,280,162191,6,0,P|40:210|45:126,1,112.750003440857,8|0,0:0|0:0,0:0:0:0:
49,136,162542,1,0,0:0:0:0:
64,105,162660,5,2,0:0:0:0:
255,40,163011,1,2,0:0:0:0:
448,105,163363,1,2,0:0:0:0:
355,285,163597,1,2,0:0:0:0:
157,285,164066,1,2,0:0:0:0:
64,105,164535,5,4,0:0:0:0:
207,56,164769,1,0,0:0:0:0:
351,99,165003,5,8,0:0:0:0:
372,137,165120,1,0,0:0:0:0:
377,181,165238,1,0,0:0:0:0:
364,223,165355,1,0,0:0:0:0:
338,258,165472,5,8,0:0:0:0:
261,292,165628,1,0,0:0:0:0:
180,267,165785,1,0,0:0:0:0:
120,208,165941,6,0,P|108:131|139:80,1,126.075001923752,8|0,0:0|0:0,0:0:0:0:
191,152,166292,2,2,P|254:125|376:165,1,189.112502885628
315,271,166878,5,8,0:0:0:0:
275,289,166995,1,0,0:0:0:0:
230,291,167113,1,0,0:0:0:0:
189,274,167230,1,0,0:0:0:0:
158,242,167347,5,8,0:0:0:0:
124,165,167503,1,0,0:0:0:0:
171,95,167660,1,0,0:0:0:0:
245,56,167816,6,0,P|320:64|379:107,1,126.075001923752,8|0,0:0|0:0,0:0:0:0:
290,193,168285,2,2,P|374:247|421:240,1,126.075001923752
222,315,168753,5,8,0:0:0:0:
265,325,168870,1,0,0:0:0:0:
310,327,168988,1,0,0:0:0:0:
354,319,169105,1,0,0:0:0:0:
391,294,169222,5,8,0:0:0:0:
417,214,169378,1,0,0:0:0:0:
375,141,169535,1,0,0:0:0:0:
304,97,169691,6,0,P|230:85|147:47,1,126.075001923752,8|0,0:0|0:0,0:0:0:0:
105,107,170042,2,2,P|102:179|62:297,1,189.112502885628
187,326,170628,5,8,0:0:0:0:
231,333,170745,1,0,0:0:0:0:
276,331,170863,1,0,0:0:0:0:
319,320,170980,1,0,0:0:0:0:
357,296,171097,5,8,0:0:0:0:
401,223,171253,1,0,0:0:0:0:
415,139,171410,1,0,0:0:0:0:
387,59,171566,6,2,B|362:44|362:44|350:38|312:38|312:70|323:80|323:80|352:104|352:104|362:113|364:158|324:149|312:139|312:139|271:109,1,252.150003847504
387,59,172269,1,0,0:0:0:0:
424,135,172503,5,8,0:0:0:0:
433,178,172620,1,0,0:0:0:0:
429,222,172738,1,0,0:0:0:0:
437,265,172855,1,0,0:0:0:0:
415,303,172972,5,8,0:0:0:0:
333,322,173128,1,0,0:0:0:0:
252,296,173285,1,0,0:0:0:0:
177,333,173441,6,0,P|96:330|48:263,1,126.075001923752,8|0,0:0|0:0,0:0:0:0:
139,256,173792,2,2,P|141:186|74:92,1,189.112502885628
195,58,174378,5,8,0:0:0:0:
239,57,174495,1,0,0:0:0:0:
274,83,174613,1,0,0:0:0:0:
318,83,174730,1,0,0:0:0:0:
352,110,174847,5,8,0:0:0:0:
390,184,175003,1,0,0:0:0:0:
345,255,175160,1,0,0:0:0:0:
270,292,175316,6,0,P|191:303|139:276,1,126.075001923752,8|0,0:0|0:0,0:0:0:0:
60,196,175785,2,2,P|134:185|197:211,1,126.075001923752
257,100,176253,5,8,0:0:0:0:
300,104,176370,1,0,0:0:0:0:
342,117,176488,1,0,0:0:0:0:
379,140,176605,1,0,0:0:0:0:
406,174,176722,5,8,0:0:0:0:
434,252,176878,1,0,0:0:0:0:
405,331,177035,1,0,0:0:0:0:
328,365,177191,6,0,P|266:332|200:326,1,126.075001923752,8|0,0:0|0:0,0:0:0:0:
174,333,177542,1,0,0:0:0:0:
137,344,177660,5,2,0:0:0:0:
84,65,178011,1,2,0:0:0:0:
254,131,178363,1,2,0:0:0:0:
428,65,178597,1,2,0:0:0:0:
375,344,179066,1,4,0:0:0:0:
256,192,179535,12,4,183285,0:0:0:0:
