osu file format v14

[General]
AudioFilename: audio.mp3
AudioLeadIn: 0
PreviewTime: -1
Countdown: 1
SampleSet: None
StackLeniency: 0.7
Mode: 3
LetterboxInBreaks: 0
SpecialStyle: 0
WidescreenStoryboard: 0

[Editor]
DistanceSpacing: 0.8
BeatDivisor: 1
GridSize: 32
TimelineZoom: 0.2999999

[Metadata]
Title:In The Name Of Love
TitleUnicode:In The Name Of Love
Artist:Martin Garrix & Bebe Rexha
ArtistUnicode:Martin Garrix & Bebe Rexha
Creator:JoeAseLP
Version:Normal
Source:
Tags:
BeatmapID:1251039
BeatmapSetID:591136

[Difficulty]
HPDrainRate:5
CircleSize:5
OverallDifficulty:5
ApproachRate:5
SliderMultiplier:0.7
SliderTickRate:1

[Events]
//Background and Video events
//Break Periods
2,78216,92040
//Storyboard Layer 0 (Background)
//Storyboard Layer 1 (Fail)
//Storyboard Layer 2 (Pass)
//Storyboard Layer 3 (Foreground)
//Storyboard Sound Samples

[TimingPoints]
7269.91044776119,895.522388059701,4,1,0,100,1,0

[HitObjects]
358,192,7269,5,0,0:0:0:0:
153,192,7269,1,0,0:0:0:0:
256,192,10852,1,0,0:0:0:0:
51,192,14434,1,0,0:0:0:0:
460,192,14434,1,0,0:0:0:0:
256,192,14434,1,0,0:0:0:0:
153,192,18016,1,0,0:0:0:0:
358,192,18016,1,0,0:0:0:0:
153,192,21598,1,0,0:0:0:0:
358,192,21598,1,0,0:0:0:0:
51,192,22493,1,0,0:0:0:0:
256,192,22493,1,0,0:0:0:0:
460,192,22493,1,0,0:0:0:0:
51,192,25180,1,0,0:0:0:0:
256,192,25180,1,0,0:0:0:0:
460,192,25180,1,0,0:0:0:0:
153,192,26075,1,0,0:0:0:0:
358,192,26075,1,0,0:0:0:0:
153,192,28762,1,0,0:0:0:0:
358,192,28762,1,0,0:0:0:0:
51,192,29657,1,0,0:0:0:0:
256,192,29657,1,0,0:0:0:0:
460,192,29657,1,0,0:0:0:0:
51,192,32344,1,0,0:0:0:0:
153,192,32344,1,0,0:0:0:0:
256,192,32344,1,0,0:0:0:0:
358,192,32344,1,0,0:0:0:0:
460,192,32344,1,0,0:0:0:0:
153,192,33240,1,0,0:0:0:0:
358,192,33240,1,0,0:0:0:0:
256,192,33240,1,0,0:0:0:0:
256,192,35031,1,0,0:0:0:0:
256,192,35926,1,0,0:0:0:0:
256,192,36822,1,0,0:0:0:0:
153,192,37717,1,0,0:0:0:0:
256,192,37717,1,0,0:0:0:0:
358,192,37717,1,0,0:0:0:0:
153,192,38613,1,0,0:0:0:0:
256,192,38613,1,0,0:0:0:0:
358,192,38613,1,0,0:0:0:0:
51,192,39508,1,0,0:0:0:0:
153,192,39508,1,0,0:0:0:0:
256,192,39508,1,0,0:0:0:0:
358,192,39508,1,0,0:0:0:0:
460,192,39508,1,0,0:0:0:0:
460,192,40404,1,0,0:0:0:0:
358,192,40404,1,0,0:0:0:0:
256,192,40404,1,0,0:0:0:0:
153,192,40404,1,0,0:0:0:0:
51,192,40404,1,0,0:0:0:0:
153,192,41299,1,0,0:0:0:0:
256,192,41299,1,0,0:0:0:0:
358,192,41299,1,0,0:0:0:0:
153,192,42195,1,0,0:0:0:0:
256,192,42195,1,0,0:0:0:0:
358,192,42195,1,0,0:0:0:0:
256,192,43090,1,0,0:0:0:0:
256,192,43986,1,0,0:0:0:0:
153,192,44881,1,0,0:0:0:0:
256,192,44881,1,0,0:0:0:0:
358,192,44881,1,0,0:0:0:0:
153,192,45777,1,0,0:0:0:0:
256,192,45777,1,0,0:0:0:0:
358,192,45777,1,0,0:0:0:0:
153,192,46672,1,0,0:0:0:0:
51,192,46672,1,0,0:0:0:0:
256,192,46672,1,0,0:0:0:0:
358,192,46672,1,0,0:0:0:0:
460,192,46672,1,0,0:0:0:0:
256,192,50254,1,0,0:0:0:0:
358,192,51150,1,0,0:0:0:0:
153,192,52046,1,0,0:0:0:0:
153,192,52941,1,0,0:0:0:0:
460,192,53837,1,0,0:0:0:0:
358,192,54732,1,0,0:0:0:0:
153,192,55628,1,0,0:0:0:0:
256,192,56523,1,0,0:0:0:0:
256,192,57419,1,0,0:0:0:0:
51,192,58314,1,0,0:0:0:0:
256,192,59210,1,0,0:0:0:0:
358,192,60105,1,0,0:0:0:0:
358,192,61001,1,0,0:0:0:0:
256,192,61896,1,0,0:0:0:0:
51,192,62792,1,0,0:0:0:0:
460,192,63687,1,0,0:0:0:0:
51,192,64583,1,0,0:0:0:0:
256,192,65478,1,0,0:0:0:0:
153,192,66374,1,0,0:0:0:0:
358,192,67269,1,0,0:0:0:0:
256,192,68165,1,0,0:0:0:0:
153,192,69060,1,0,0:0:0:0:
358,192,69060,1,0,0:0:0:0:
51,192,69956,1,0,0:0:0:0:
256,192,69956,1,0,0:0:0:0:
460,192,69956,1,0,0:0:0:0:
153,192,70852,1,0,0:0:0:0:
358,192,70852,1,0,0:0:0:0:
256,192,71747,1,0,0:0:0:0:
153,192,72643,1,0,0:0:0:0:
358,192,72643,1,0,0:0:0:0:
51,192,73538,1,0,0:0:0:0:
460,192,73538,1,0,0:0:0:0:
358,192,73538,1,0,0:0:0:0:
153,192,73538,1,0,0:0:0:0:
51,192,74434,1,0,0:0:0:0:
153,192,74434,1,0,0:0:0:0:
256,192,74434,1,0,0:0:0:0:
460,192,74434,1,0,0:0:0:0:
358,192,74434,1,0,0:0:0:0:
153,192,75329,1,0,0:0:0:0:
256,192,75329,1,0,0:0:0:0:
358,192,75329,1,0,0:0:0:0:
256,192,76225,1,0,0:0:0:0:
153,192,77120,1,0,0:0:0:0:
358,192,77120,1,0,0:0:0:0:
256,192,78016,1,0,0:0:0:0:
153,192,93240,5,0,0:0:0:0:
256,192,95031,1,0,0:0:0:0:
153,192,96822,1,0,0:0:0:0:
460,192,99508,1,0,0:0:0:0:
153,192,100404,1,0,0:0:0:0:
358,192,100404,1,0,0:0:0:0:
256,192,101299,1,0,0:0:0:0:
153,192,102195,1,0,0:0:0:0:
358,192,102195,1,0,0:0:0:0:
256,192,103090,1,0,0:0:0:0:
256,192,103986,1,0,0:0:0:0:
153,192,104881,1,0,0:0:0:0:
358,192,104881,1,0,0:0:0:0:
256,192,105777,1,0,0:0:0:0:
153,192,106672,1,0,0:0:0:0:
358,192,106672,1,0,0:0:0:0:
51,192,107568,1,0,0:0:0:0:
153,192,107568,1,0,0:0:0:0:
256,192,107568,1,0,0:0:0:0:
460,192,107568,1,0,0:0:0:0:
358,192,107568,1,0,0:0:0:0:
358,192,108463,1,0,0:0:0:0:
460,192,108463,1,0,0:0:0:0:
256,192,108463,1,0,0:0:0:0:
153,192,108463,1,0,0:0:0:0:
51,192,108463,1,0,0:0:0:0:
460,192,109359,1,0,0:0:0:0:
358,192,109359,1,0,0:0:0:0:
256,192,109359,1,0,0:0:0:0:
153,192,109359,1,0,0:0:0:0:
51,192,109359,1,0,0:0:0:0:
51,192,110254,1,0,0:0:0:0:
153,192,110254,1,0,0:0:0:0:
256,192,110254,1,0,0:0:0:0:
460,192,110254,1,0,0:0:0:0:
358,192,110254,1,0,0:0:0:0:
153,192,111150,1,0,0:0:0:0:
256,192,111150,1,0,0:0:0:0:
358,192,111150,1,0,0:0:0:0:
460,192,111150,1,0,0:0:0:0:
51,192,111150,1,0,0:0:0:0:
51,192,112046,1,0,0:0:0:0:
153,192,112046,1,0,0:0:0:0:
358,192,112046,1,0,0:0:0:0:
256,192,112046,1,0,0:0:0:0:
460,192,112046,1,0,0:0:0:0:
460,192,112941,1,0,0:0:0:0:
358,192,112941,1,0,0:0:0:0:
256,192,112941,1,0,0:0:0:0:
153,192,112941,1,0,0:0:0:0:
51,192,112941,1,0,0:0:0:0:
51,192,113837,1,0,0:0:0:0:
153,192,113837,1,0,0:0:0:0:
256,192,113837,1,0,0:0:0:0:
358,192,113837,1,0,0:0:0:0:
460,192,113837,1,0,0:0:0:0:
460,192,114732,1,0,0:0:0:0:
358,192,114732,1,0,0:0:0:0:
51,192,114732,1,0,0:0:0:0:
153,192,114732,1,0,0:0:0:0:
256,192,114732,1,0,0:0:0:0:
256,192,115628,1,0,0:0:0:0:
153,192,115628,1,0,0:0:0:0:
51,192,115628,1,0,0:0:0:0:
358,192,115628,1,0,0:0:0:0:
460,192,115628,1,0,0:0:0:0:
460,192,116523,1,0,0:0:0:0:
358,192,116523,1,0,0:0:0:0:
256,192,116523,1,0,0:0:0:0:
153,192,116523,1,0,0:0:0:0:
51,192,116523,1,0,0:0:0:0:
51,192,117419,1,0,0:0:0:0:
256,192,117419,1,0,0:0:0:0:
460,192,117419,1,0,0:0:0:0:
358,192,117419,1,0,0:0:0:0:
153,192,117419,1,0,0:0:0:0:
153,192,118314,1,0,0:0:0:0:
256,192,118314,1,0,0:0:0:0:
358,192,118314,1,0,0:0:0:0:
460,192,118314,1,0,0:0:0:0:
51,192,118314,1,0,0:0:0:0:
51,192,119210,1,0,0:0:0:0:
153,192,119210,1,0,0:0:0:0:
256,192,119210,1,0,0:0:0:0:
358,192,119210,1,0,0:0:0:0:
460,192,119210,1,0,0:0:0:0:
460,192,120105,1,0,0:0:0:0:
358,192,120105,1,0,0:0:0:0:
256,192,120105,1,0,0:0:0:0:
153,192,120105,1,0,0:0:0:0:
51,192,120105,1,0,0:0:0:0:
460,192,121001,1,0,0:0:0:0:
358,192,121001,1,0,0:0:0:0:
51,192,121001,1,0,0:0:0:0:
153,192,121001,1,0,0:0:0:0:
256,192,121001,1,0,0:0:0:0:
51,192,121896,128,0,129060:0:0:0:0:
460,192,129060,128,0,136225:0:0:0:0:
153,192,136225,128,0,143389:0:0:0:0:
358,192,136225,128,0,143389:0:0:0:0:
256,192,143389,128,0,157717:0:0:0:0:
51,192,150553,128,0,157717:0:0:0:0:
460,192,150553,128,0,157717:0:0:0:0:
256,192,150553,128,0,157717:0:0:0:0:
153,192,157717,128,0,164881:0:0:0:0:
358,192,157717,128,0,164881:0:0:0:0:
256,192,164881,128,0,172046:0:0:0:0:
460,192,172046,128,0,179210:0:0:0:0:
51,192,172046,128,0,179210:0:0:0:0:
358,192,179210,128,0,186374:0:0:0:0:
153,192,179210,128,0,186374:0:0:0:0:
256,192,186374,128,0,193538:0:0:0:0:
