osu file format v14

[General]
AudioFilename: audio.mp3
AudioLeadIn: 0
PreviewTime: 105679
Countdown: 0
SampleSet: Soft
StackLeniency: 0.4
Mode: 0
LetterboxInBreaks: 0
WidescreenStoryboard: 1

[Editor]
Bookmarks: 23421,44066,64711,136969
DistanceSpacing: 1.1
BeatDivisor: 4
GridSize: 4
TimelineZoom: 1.8

[Metadata]
Title:Tongue Tied
TitleUnicode:Tongue Tied
Artist:Marshmello x YUNGBLUD x blackbear
ArtistUnicode:Marshmello x YUNGBLUD x blackbear
Creator:Pachiru
Version:Normal
Source:
Tags:english hip hop rock alternative pop trap electronic rap hisae blastthekidd
BeatmapID:3034429
BeatmapSetID:1098397

[Difficulty]
HPDrainRate:4
CircleSize:3
OverallDifficulty:4
ApproachRate:5
SliderMultiplier:1.6
SliderTickRate:1

[Events]
//Background and Video events
0,0,"wallpapersden.com_neon-wave-futuristic-city_1920x1080.jpg",0,0
//Break Periods
//Storyboard Layer 0 (Background)
//Storyboard Layer 1 (Fail)
//Storyboard Layer 2 (Pass)
//Storyboard Layer 3 (Foreground)
//Storyboard Layer 4 (Overlay)
//Storyboard Sound Samples

[TimingPoints]
195,645.161290322581,4,2,0,20,1,0
2776,-100,4,2,0,40,0,0
22776,-100,4,2,1,75,0,0
23420,-100,4,2,1,50,0,0
44065,-100,4,2,1,55,0,0
64066,-100,4,2,0,45,0,0
80195,-100,4,2,2,50,0,0
82775,-100,4,2,2,55,0,0
84065,-100,4,2,2,70,0,0
85356,-90.9090909090909,4,2,1,75,0,1
105356,-100,4,2,1,55,0,0
126646,-100,4,2,1,60,0,0
136324,-100,4,2,1,50,0,0
136646,-100,4,2,0,50,0,0
136969,-100,4,2,0,45,0,0
152453,-100,4,2,2,50,0,0
155033,-100,4,2,2,60,0,0
156323,-100,4,2,2,75,0,0
157614,-90.9090909090909,4,2,1,85,0,1
177614,-100,4,2,1,85,0,0
177936,-100,4,2,0,75,0,0
178259,-100,4,2,0,60,0,0
179549,-100,4,2,0,45,0,0
180840,-100,4,2,0,30,0,0
182130,-100,4,2,0,5,0,0

[Colours]
Combo1 : 128,255,255
Combo2 : 164,32,240
Combo3 : 236,0,236
Combo4 : 200,145,255
Combo5 : 219,30,111
Combo6 : 26,116,242

[HitObjects]
456,177,2775,6,0,B|472:136|449:98|449:98|428:61|444:21,2,160,2|0|0,0:2|0:0|0:0,0:0:0:0:
325,295,4711,2,0,B|290:293|290:293|283:297|283:297|238:294,1,80,2|0,0:2|0:0,0:0:0:0:
171,341,5356,6,0,P|139:291|44:280,2,160,2|0|0,0:2|0:0|0:0,0:0:0:0:
214,170,7291,2,0,B|206:132|206:132|201:127|201:127|190:82,1,80,2|0,0:2|0:0,0:0:0:0:
171,8,7936,6,0,B|101:25|101:25|96:32|96:32|18:48,2,160,2|0|0,0:2|0:0|0:0,0:0:0:0:
300,127,9872,2,0,B|342:134|342:134|373:112,1,80,2|0,0:2|0:0,0:0:0:0:
399,28,10517,6,0,B|442:46|456:82|456:82|450:44|473:7,2,160,2|0|0,0:2|0:0|0:0,0:0:0:0:
481,183,12453,2,0,P|457:226|430:238,1,80,2|0,0:2|0:0,0:0:0:0:
348,205,13098,6,0,B|302:194|273:223|273:223|243:251|194:241,2,160,2|0|0,0:2|0:0|0:0,0:0:0:0:
254,354,15033,2,0,B|218:349|218:349|209:351|209:351|156:343,1,80,2|0,0:2|0:0,0:0:0:0:
122,275,15678,6,0,B|86:307|86:345|86:345|74:306|33:288,2,160,2|0|0,0:2|0:0|0:0,0:0:0:0:
35,121,17614,2,0,P|63:149|112:157,1,80,2|0,0:2|0:0,0:0:0:0:
189,151,18259,6,0,B|170:73|170:73|164:68|164:68|148:-2,2,160,2|0|0,0:2|0:0|0:0,0:0:0:0:
452,159,20517,5,2,0:2:0:0:
379,109,20840,2,0,B|336:121|319:177|349:216|349:216|294:224|259:193|259:193|224:159|170:165,1,320,2|0,0:2|0:0,0:0:0:0:
42,35,22775,5,8,0:3:0:0:
127,55,23098,1,8,0:3:0:0:
213,69,23420,6,0,B|219:106|219:106|223:112|223:112|229:152,1,80,0|2,3:0|0:2,0:0:0:0:
301,196,24065,2,0,B|295:233|295:233|291:239|291:239|285:279,1,80,10|2,0:0|0:2,0:0:0:0:
261,358,24711,2,0,P|214:335|108:341,1,160,2|10,0:0|0:2,0:0:0:0:
26,370,25678,1,2,0:2:0:0:
41,283,26001,6,0,P|35:237|14:209,1,80,0|2,3:0|0:2,0:0:0:0:
67,139,26646,2,0,B|109:122|147:154|147:154|180:180|226:165,1,160,10|2,0:2|0:2,0:0:0:0:
297,130,27614,1,2,3:2:0:0:
366,184,27936,2,0,P|343:221|342:263,1,80,10|2,0:2|0:2,0:0:0:0:
424,284,28582,6,0,P|449:249|448:206,1,80,0|2,3:0|0:2,0:0:0:0:
494,137,29227,2,0,P|462:107|420:102,1,80,10|2,0:0|0:2,0:0:0:0:
357,47,29872,1,2,0:2:0:0:
292,107,30195,1,2,3:2:0:0:
208,80,30517,2,0,B|173:86|173:86|164:83|164:83|126:90,1,80,10|2,0:0|0:2,0:0:0:0:
73,156,31162,6,0,P|110:194|120:302,1,160,2|10,3:2|0:2,0:0:0:0:
181,361,32130,1,2,0:2:0:0:
258,319,32453,2,0,P|271:280|266:235,1,80,8|8,0:3|3:0,0:0:0:0:
214,171,33098,1,14,0:0:0:0:
344,53,33743,6,0,B|386:46|386:46|391:48|391:48|429:41,1,80,0|2,3:0|0:2,0:0:0:0:
492,95,34388,2,0,B|485:137|485:137|487:142|487:142|480:180,1,80,10|2,0:0|0:2,0:0:0:0:
413,230,35033,1,2,0:2:0:0:
445,311,35356,1,2,3:2:0:0:
381,371,35678,2,0,P|343:348|299:349,1,80,10|2,0:0|0:2,0:0:0:0:
235,296,36324,6,0,P|197:319|153:318,1,80,0|2,3:0|0:2,0:0:0:0:
89,270,36969,2,0,P|83:221|100:184,1,80,10|2,0:2|0:0,0:0:0:0:
135,115,37614,1,2,0:2:0:0:
220,133,37936,1,2,3:2:0:0:
283,71,38259,2,0,B|321:64|321:64|329:66|329:66|366:59,1,80,10|2,0:2|0:2,0:0:0:0:
448,43,38904,6,0,B|498:34|498:34|457:156,1,160,0|10,3:0|0:0,0:0:0:0:
425,217,39872,1,2,0:2:0:0:
346,176,40195,2,0,P|309:167|262:181,1,80,2|2,0:2|3:2,0:0:0:0:
193,222,40840,2,0,P|154:231|116:222,1,80,10|2,0:0|0:2,0:0:0:0:
41,175,41485,5,2,3:2:0:0:
76,94,41807,1,2,0:2:0:0:
107,11,42130,2,0,B|149:21|149:21|151:25|151:25|185:34,1,80,8|2,0:0|0:2,0:0:0:0:
235,103,42775,2,0,B|313:88|313:88|317:82|317:82|391:68,1,160,2|10,0:2|0:0,0:0:0:0:
440,236,44065,6,0,P|397:249|374:277,1,80,6|2,3:2|0:2,0:0:0:0:
337,354,44711,1,10,0:2:0:0:
266,301,45033,2,0,B|222:281|185:307|185:307|149:332|98:319,1,160,0|0,0:0|3:0,0:0:0:0:
49,261,46001,1,10,0:2:0:0:
102,190,46324,6,0,B|117:143|110:111|110:111|123:142|168:169,1,160,0|2,0:0|0:2,0:0:0:0:
249,190,47291,2,0,B|285:178|285:178|291:179|291:179|331:166,1,80,10|0,0:2|0:0,0:0:0:0:
389,107,47936,2,0,B|422:141|422:141|400:263,1,160,0|10,0:0|0:2,0:0:0:0:
387,338,48904,1,0,0:0:0:0:
306,302,49227,6,0,B|265:307|265:307|257:304|257:304|221:308,1,80,4|2,3:2|0:2,0:0:0:0:
148,266,49872,1,10,0:2:0:0:
86,328,50195,1,0,0:0:0:0:
26,263,50517,2,0,B|34:227|34:227|31:220|31:220|37:185,1,80,0|2,0:0|3:2,0:0:0:0:
8,101,51162,1,8,0:2:0:0:
85,59,51485,1,0,0:0:0:0:
150,117,51807,6,0,P|188:116|224:78,1,80,0|2,3:0|0:2,0:0:0:0:
258,10,52453,1,10,0:2:0:0:
337,46,52775,1,2,0:2:0:0:
419,14,53098,2,0,P|444:50|447:93,1,80,0|0,0:0|3:2,0:0:0:0:
505,152,53743,1,8,0:2:0:0:
433,312,54388,6,0,B|392:316|392:316|388:320|388:320|349:325,1,80,6|2,3:2|0:2,0:0:0:0:
278,368,55033,2,0,B|245:363|245:363|241:359|241:359|200:355,1,80,10|0,0:2|0:0,0:0:0:0:
135,295,55678,1,0,0:0:0:0:
61,343,56001,1,0,3:0:0:0:
10,270,56324,2,0,B|21:225|21:225|19:220|19:220|29:177,1,80,10|0,0:2|0:0,0:0:0:0:
14,105,56969,6,0,B|60:93|90:125|90:125|124:155|170:140,1,160,0|10,3:0|0:2,0:0:0:0:
230,87,57936,1,0,0:0:0:0:
284,156,58259,2,0,P|261:193|256:231,1,80,0|0,0:0|3:0,0:0:0:0:
179,271,58904,2,0,P|202:308|207:346,1,80,10|0,0:2|0:0,0:0:0:0:
290,372,59549,6,0,B|331:363|331:363|336:365|336:365|372:357,1,80,4|2,3:2|0:2,0:0:0:0:
454,340,60195,1,10,0:2:0:0:
429,255,60517,1,0,0:0:0:0:
353,209,60840,2,0,B|359:171|359:171|357:165|357:165|363:113,1,80,0|2,0:0|3:2,0:0:0:0:
398,50,61485,1,8,0:2:0:0:
313,25,61807,1,0,0:0:0:0:
227,3,62130,6,0,P|192:27|144:32,1,80,0|2,3:0|0:2,0:0:0:0:
67,27,62775,1,10,0:2:0:0:
93,110,63098,1,2,0:2:0:0:
125,191,63420,2,0,P|93:227|89:264,1,80,0|0,0:0|3:2,0:0:0:0:
167,296,64065,1,10,0:2:0:0:
335,348,64711,6,0,B|320:276|320:276|314:272|314:272|300:193,1,160,2|10,0:2|0:2,0:0:0:0:
230,140,65678,2,0,P|253:83|353:68,1,160,2|0,0:2|0:0,0:0:0:0:
424,30,66646,1,10,0:2:0:0:
485,194,67291,6,0,B|438:191|413:221|413:221|384:254|334:245,1,160,2|10,0:2|0:2,0:0:0:0:
277,307,68259,2,0,P|213:284|188:193,1,160,2|0,0:2|0:0,0:0:0:0:
243,135,69227,1,10,0:2:0:0:
67,118,69872,6,0,B|71:71|55:40|55:40|69:71|115:92,1,160,2|10,0:2|0:2,0:0:0:0:
128,178,70840,2,0,B|109:234|109:234|116:275|116:275|92:333,1,160,2|0,0:2|0:0,0:0:0:0:
173,365,71807,1,10,0:2:0:0:
327,280,72453,6,0,B|373:269|400:297|400:297|430:328|474:320,1,160,2|10,0:2|0:2,0:0:0:0:
501,236,73420,2,0,P|457:196|440:98,1,160,2|0,0:2|0:0,0:0:0:0:
482,23,74388,1,10,0:2:0:0:
310,61,75033,6,0,B|260:81|210:55|210:55|223:77|226:122,1,160,2|8,0:2|0:2,0:0:0:0:
290,168,76001,2,0,P|338:169|305:248,1,160,2|0,0:2|0:0,0:0:0:0:
228,233,76969,1,10,0:2:0:0:
82,331,77614,6,0,B|73:255|73:255|69:249|69:249|60:174,1,160,2|10,0:2|0:2,0:0:0:0:
116,105,78582,2,0,B|191:114|191:114|197:118|197:118|273:127,1,160,2|0,0:2|0:0,0:0:0:0:
351,85,79549,1,10,0:2:0:0:
458,224,80195,6,0,B|421:231|421:231|411:229|411:229|376:235,1,80,2|0,3:2|0:0,0:0:0:0:
325,304,80840,2,0,B|293:298|293:298|283:300|283:300|246:293,1,80,8|2,3:2|0:2,0:0:0:0:
162,320,81485,2,0,B|155:283|155:283|157:273|157:273|151:238,1,80,0|0,3:2|0:0,0:0:0:0:
82,187,82130,2,0,B|87:155|87:155|85:145|85:145|92:108,1,80,8|2,3:2|0:2,0:0:0:0:
74,22,82775,5,2,3:2:0:0:
161,8,83098,1,0,3:0:0:0:
236,52,83420,1,0,3:2:0:0:
323,38,83743,1,0,3:0:0:0:
429,341,85356,6,0,P|389:294|262:295,1,176.000005371094,6|8,3:1|0:0,0:0:0:0:
208,349,86324,1,2,0:1:0:0:
119,310,86646,2,0,P|113:268|140:224,1,88.000002685547,2|2,0:1|3:2,0:0:0:0:
111,134,87291,2,0,P|146:110|197:116,1,88.000002685547,8|2,0:0|0:1,0:0:0:0:
283,140,87936,2,0,B|294:97|275:71|275:71|260:44|269:8,2,132.00000402832,2|2|2,3:1|3:1|0:1,0:0:0:0:
426,270,89549,5,2,3:2:0:0:
340,315,89872,1,10,0:2:0:0:
250,277,90195,1,2,0:2:0:0:
178,342,90517,6,0,B|126:327|84:341|84:341|112:306|105:253,1,176.000005371094,6|8,3:1|0:0,0:0:0:0:
54,183,91485,1,2,0:1:0:0:
122,114,91807,2,0,B|165:106|165:106|172:111|172:111|217:103,1,88.000002685547,2|2,0:1|3:2,0:0:0:0:
290,154,92453,2,0,B|325:160|325:160|332:155|332:155|375:163,1,88.000002685547,8|2,0:0|0:1,0:0:0:0:
466,194,93098,2,0,P|467:132|403:80,2,132.00000402832,2|2|2,3:1|3:1|0:1,0:0:0:0:
329,332,94711,5,2,3:2:0:0:
245,282,95033,1,10,0:2:0:0:
231,186,95356,1,2,0:2:0:0:
281,103,95678,6,0,B|330:84|368:119|368:119|403:147|451:131,1,176.000005371094,6|8,3:1|0:0,0:0:0:0:
494,49,96646,1,2,0:1:0:0:
410,0,96969,2,0,B|369:6|369:6|362:2|362:2|321:8,1,88.000002685547,2|2,0:1|3:2,0:0:0:0:
251,72,97614,2,0,B|212:67|212:67|205:70|205:70|164:64,1,88.000002685547,8|2,0:0|0:1,0:0:0:0:
79,110,98259,2,0,B|52:76|52:76|85:-8,2,132.00000402832,2|2|2,3:1|3:1|0:1,0:0:0:0:
58,302,99872,5,2,3:2:0:0:
149,270,100195,1,10,0:2:0:0:
221,334,100517,1,2,0:2:0:0:
314,307,100840,6,0,B|350:282|397:298|397:298|378:255|403:210,1,176.000005371094,6|8,3:1|0:0,0:0:0:0:
474,149,101807,1,2,0:1:0:0:
399,87,102130,2,0,P|360:109|312:108,1,88.000002685547,2|2,0:1|3:2,0:0:0:0:
243,171,102775,2,0,P|199:158|166:124,1,88.000002685547,8|2,0:0|0:1,0:0:0:0:
85,81,103420,2,0,P|112:35|193:12,2,132.00000402832,2|2|2,3:1|3:1|0:1,0:0:0:0:
18,263,105033,5,2,3:2:0:0:
48,345,105356,1,10,0:2:0:0:
131,317,105678,6,0,L|115:272,2,40,2|2|2,0:2|0:2|3:2,0:0:0:0:
215,291,106324,2,0,L|198:237,2,40,2|0|2,3:2|3:0|3:2,0:0:0:0:
298,261,106969,2,0,L|281:207,2,40,2|0|2,3:2|3:0|3:2,0:0:0:0:
371,309,107614,1,2,3:2:0:0:
423,238,107936,1,2,0:2:0:0:
366,70,108582,6,0,P|327:92|283:91,1,80,2|2,3:2|0:2,0:0:0:0:
218,44,109227,2,0,B|177:52|177:52|170:57|170:57|134:65,1,80,10|0,0:2|0:0,0:0:0:0:
84,130,109872,2,0,B|90:158|90:158|95:165|95:165|103:206,1,80,2|2,0:2|3:2,0:0:0:0:
65,286,110517,1,10,0:2:0:0:
225,357,111162,6,0,B|254:331|254:331|297:338,1,80,2|2,3:2|0:2,0:0:0:0:
381,351,111807,2,0,B|421:357|421:357|450:331,1,80,10|2,0:2|0:2,0:0:0:0:
496,256,112453,1,2,0:2:0:0:
450,180,112775,1,2,3:2:0:0:
499,106,113098,1,10,0:2:0:0:
342,25,113743,6,0,B|300:29|300:29|294:26|294:26|258:29,1,80,2|2,3:2|0:2,0:0:0:0:
198,88,114388,2,0,B|167:85|167:85|161:88|161:88|119:84,1,80,10|2,0:2|0:2,0:0:0:0:
56,146,115033,2,0,P|89:185|92:228,1,80,8|8,0:3|0:3,0:0:0:0:
162,267,115678,1,10,0:2:0:0:
232,105,116324,6,0,P|268:96|311:104,1,80,2|2,3:2|0:2,0:0:0:0:
390,137,116969,2,0,P|429:144|467:135,1,80,10|2,0:2|0:2,0:0:0:0:
508,57,117614,1,2,0:2:0:0:
433,10,117936,1,2,3:2:0:0:
358,56,118259,1,10,0:2:0:0:
189,4,118904,6,0,B|200:50|200:50|197:57|197:57|206:91,1,80,2|2,3:2|0:2,0:0:0:0:
279,125,119549,2,0,B|268:171|268:171|271:178|271:178|264:202,1,80,10|2,0:2|0:2,0:0:0:0:
197,259,120195,2,0,B|208:305|208:305|205:312|205:312|211:336,1,80,2|2,0:2|3:2,0:0:0:0:
292,370,120840,1,10,0:2:0:0:
443,281,121485,6,0,P|425:238|389:219,1,80,2|2,3:2|0:2,0:0:0:0:
368,137,122130,2,0,P|323:123|285:138,1,80,10|2,0:2|0:2,0:0:0:0:
212,96,122775,1,2,0:2:0:0:
142,150,123098,1,2,3:2:0:0:
168,233,123420,1,10,0:2:0:0:
323,316,124065,6,0,L|243:299,1,80,6|2,3:1|0:2,0:0:0:0:
266,213,124711,2,0,L|344:229,1,80,14|2,0:2|0:2,0:0:0:0:
416,179,125356,1,2,0:2:0:0:
377,100,125678,1,2,3:2:0:0:
329,25,126001,1,10,0:2:0:0:
159,71,126646,5,6,3:2:0:0:
94,130,126969,2,0,P|77:125|61:107,2,40,2|2|10,0:2|0:2|0:2,0:0:0:0:
164,182,127614,2,0,P|181:177|197:159,2,40,2|2|2,0:2|0:2|0:2,0:0:0:0:
96,238,128259,2,0,P|79:233|63:215,2,40,2|2|10,3:2|0:2|0:2,0:0:0:0:
145,310,128904,1,2,0:2:0:0:
227,279,129227,5,2,3:2:0:0:
303,322,129549,2,0,B|341:327|341:327|345:331|345:331|387:337,1,80,2|10,0:2|0:2,0:0:0:0:
461,300,130195,1,2,0:2:0:0:
410,227,130517,2,0,P|413:182|441:149,1,80,2|2,0:2|3:2,0:0:0:0:
391,76,131162,2,0,B|352:81|352:81|345:78|345:78|309:82,1,80,10|2,0:2|0:2,0:0:0:0:
234,40,131807,5,4,3:2:0:0:
174,104,132130,2,0,L|187:145,2,40,2|2|10,0:2|0:2|0:2,0:0:0:0:
104,49,132775,2,0,L|116:10,2,40,2|2|2,0:2|0:2|0:2,0:0:0:0:
45,114,133420,2,0,L|57:152,2,40,2|2|10,3:2|0:2|0:2,0:0:0:0:
12,32,134065,1,2,0:2:0:0:
104,49,134388,5,0,3:2:0:0:
184,13,134711,2,0,P|215:32|228:81,1,80,2|10,0:2|0:2,0:0:0:0:
295,129,135356,2,0,P|266:152|260:202,1,80,2|2,0:2|0:2,0:0:0:0:
304,268,136001,1,2,3:2:0:0:
382,227,136324,1,10,0:2:0:0:
264,357,136969,6,0,B|220:366|197:340|197:340|177:314|130:323|130:323|136:351,1,160,2|10,0:2|0:2,0:0:0:0:
56,379,137936,2,0,B|37:295|37:295|31:287|31:287|13:213,1,160,2|0,0:2|0:0,0:0:0:0:
61,149,138904,1,10,0:2:0:0:
221,222,139549,6,0,P|259:263|369:255,1,160,2|10,0:2|0:2,0:0:0:0:
385,179,140517,2,0,P|347:138|237:146,1,160,2|0,0:2|0:0,0:0:0:0:
163,160,141485,1,10,0:2:0:0:
24,51,142130,6,0,B|56:78|103:63|103:63|58:82|51:137,1,160,2|10,0:2|0:2,0:0:0:0:
0,187,143098,2,0,P|39:230|62:332,1,160,2|0,0:2|0:0,0:0:0:0:
136,373,144065,1,10,0:2:0:0:
284,277,144711,6,0,B|326:265|326:265|392:305|392:305|434:292,1,160,2|10,0:2|0:2,0:0:0:0:
511,262,145678,2,0,B|511:209|511:209|421:137,1,160,2|0,0:2|0:0,0:0:0:0:
353,94,146646,1,10,0:2:0:0:
192,20,147291,6,0,B|187:55|157:68|157:68|188:111|170:163,1,160,2|10,0:2|0:2,0:0:0:0:
123,235,148259,2,0,P|104:284|189:295,1,160,2|2,0:2|0:2,0:0:0:0:
242,233,149227,1,10,0:2:0:0:
382,338,149872,6,0,B|375:304|375:304|380:294|380:294|371:226|371:226|361:218|361:218|355:184,1,160,2|10,0:2|0:2,0:0:0:0:
276,147,150840,2,0,B|289:119|314:109|314:109|203:125,1,160,2|2,0:2|0:2,0:0:0:0:
127,95,151807,1,10,0:2:0:0:
36,246,152453,6,0,P|31:296|54:325,1,80,2|0,3:2|0:0,0:0:0:0:
120,367,153098,2,0,P|170:372|202:351,1,80,8|2,3:2|0:2,0:0:0:0:
255,294,153743,2,0,P|260:244|239:212,1,80,0|0,3:2|0:0,0:0:0:0:
184,156,154388,2,0,P|168:119|175:81,1,80,8|2,3:2|0:2,0:0:0:0:
237,19,155033,5,2,3:2:0:0:
324,29,155356,1,0,3:0:0:0:
380,96,155678,1,0,3:2:0:0:
467,109,156001,1,0,3:0:0:0:
464,270,157614,6,0,B|413:245|374:277|374:277|336:312|283:296,1,176.000005371094,6|8,3:1|0:0,0:0:0:0:
219,247,158582,1,2,0:1:0:0:
161,324,158904,2,0,B|120:331|120:331|112:338|112:338|75:345,1,88.000002685547,2|2,0:1|3:2,0:0:0:0:
7,277,159549,2,0,B|14:236|14:236|21:228|21:228|28:191,1,88.000002685547,8|2,0:0|0:1,0:0:0:0:
99,127,160195,2,0,P|86:74|6:54,2,132.00000402832,2|2|2,3:1|3:1|0:1,0:0:0:0:
289,90,161807,5,2,3:2:0:0:
362,26,162130,1,10,0:2:0:0:
432,92,162453,1,2,0:2:0:0:
370,166,162775,6,0,P|336:219|324:331,1,176.000005371094,6|8,3:1|0:0,0:0:0:0:
237,373,163743,1,2,0:1:0:0:
150,329,164065,2,0,P|137:288|151:239,1,88.000002685547,2|2,0:1|3:2,0:0:0:0:
195,160,164711,2,0,P|208:119|194:70,1,88.000002685547,8|2,0:0|0:1,0:0:0:0:
121,16,165356,2,0,B|79:21|63:47|63:47|44:74|1:74,2,132.00000402832,2|2|2,3:1|3:1|0:1,0:0:0:0:
308,63,166969,5,2,3:2:0:0:
265,149,167291,1,10,0:2:0:0:
224,236,167614,1,2,0:2:0:0:
319,223,167936,6,0,B|368:204|406:239|406:239|441:267|489:251,1,176.000005371094,6|8,3:1|0:0,0:0:0:0:
456,159,168904,1,2,0:1:0:0:
423,67,169227,2,0,B|382:73|382:73|375:69|375:69|334:75,1,88.000002685547,2|2,0:1|3:2,0:0:0:0:
254,126,169872,2,0,B|215:121|215:121|208:124|208:124|167:118,1,88.000002685547,8|2,0:2|0:1,0:0:0:0:
72,99,170517,2,0,P|68:49|142:37,2,132.00000402832,2|2|2,3:1|3:1|0:1,0:0:0:0:
53,291,172130,5,2,3:2:0:0:
129,351,172453,1,10,0:2:0:0:
222,324,172775,1,2,0:2:0:0:
274,242,173098,6,0,P|251:190|129:156,1,176.000005371094,6|8,3:1|0:0,0:0:0:0:
51,175,174065,1,2,0:1:0:0:
24,81,174388,2,0,B|60:54|60:54|109:64,1,88.000002685547,2|2,0:1|3:2,0:0:0:0:
194,92,175033,2,0,B|236:100|236:100|272:73,1,88.000002685547,8|2,0:0|0:1,0:0:0:0:
366,97,175678,2,0,P|406:63|489:58,2,132.00000402832,2|2|2,3:1|3:1|0:1,0:0:0:0:
392,289,177291,5,2,3:2:0:0:
307,313,177614,1,10,0:2:0:0:
256,192,178259,12,0,182130,0:0:0:0:
