osu file format v14

[General]
AudioFilename: audio.mp3
AudioLeadIn: 0
PreviewTime: 105679
Countdown: 0
SampleSet: Soft
StackLeniency: 0.3
Mode: 0
LetterboxInBreaks: 0
WidescreenStoryboard: 1

[Editor]
Bookmarks: 23421,44066,64711,136969
DistanceSpacing: 0.9
BeatDivisor: 8
GridSize: 4
TimelineZoom: 3.699998

[Metadata]
Title:Tongue Tied
TitleUnicode:Tongue Tied
Artist:Marshmello x YUNGBLUD x blackbear
ArtistUnicode:Marshmello x YUNGBLUD x blackbear
Creator:Pachiru
Version:Insane Solitude
Source:
Tags:english hip hop rock alternative pop trap electronic rap hisae blastthekidd
BeatmapID:2294879
BeatmapSetID:1098397

[Difficulty]
HPDrainRate:6
CircleSize:4
OverallDifficulty:8
ApproachRate:9
SliderMultiplier:2.5
SliderTickRate:1

[Events]
//Background and Video events
0,0,"wallpapersden.com_neon-wave-futuristic-city_1920x1080.jpg",0,0
//Break Periods
//Storyboard Layer 0 (Background)
//Storyboard Layer 1 (Fail)
//Storyboard Layer 2 (Pass)
//Storyboard Layer 3 (Foreground)
//Storyboard Layer 4 (Overlay)
//Storyboard Sound Samples

[TimingPoints]
195,645.161290322581,4,2,0,20,1,0
2776,-200,4,2,0,40,0,0
22776,-100,4,2,1,75,0,0
23420,-100,4,2,1,50,0,0
44065,-100,4,2,1,55,0,0
64066,-133.333333333333,4,2,0,45,0,0
80195,-133.333333333333,4,2,2,50,0,0
82775,-133.333333333333,4,2,2,55,0,0
84065,-133.333333333333,4,2,2,70,0,0
85356,-80,4,2,1,75,0,1
105356,-100,4,2,1,55,0,0
126646,-100,4,2,1,60,0,0
136324,-100,4,2,1,50,0,0
136646,-100,4,2,0,50,0,0
136969,-133.333333333333,4,2,0,45,0,0
152453,-133.333333333333,4,2,2,50,0,0
155033,-133.333333333333,4,2,2,60,0,0
156323,-133.333333333333,4,2,2,75,0,0
157614,-74.0740740740741,4,2,1,85,0,1
177614,-200,4,2,1,85,0,0
177936,-200,4,2,0,75,0,0
178259,-200,4,2,0,60,0,0
179549,-200,4,2,0,45,0,0
180840,-200,4,2,0,30,0,0
182130,-200,4,2,0,5,0,0

[Colours]
Combo1 : 128,255,255
Combo2 : 164,32,240
Combo3 : 236,0,236
Combo4 : 200,145,255
Combo5 : 219,30,111
Combo6 : 26,116,242

[HitObjects]
256,192,195,12,0,2292,0:0:0:0:
89,203,2453,5,0,0:0:0:0:
59,281,2776,6,0,P|111:283|153:253,1,93.75,2|2,0:2|0:2,0:0:0:0:
274,141,3743,2,0,B|308:137|334:165|334:165|357:191|384:188,1,125,2|0,0:2|0:0,0:0:0:0:
241,220,4711,2,0,P|202:194|187:151,1,93.75,2|0,0:2|0:0,0:0:0:0:
189,126,5356,2,0,L|89:140,2,93.75,2|2|2,0:2|0:2|0:2,0:0:0:0:
189,126,7292,6,0,L|281:113,1,93.75,2|0,0:2|0:0,0:0:0:0:
306,108,7937,2,0,P|296:139|304:202,2,93.75,2|2|2,0:2|0:2|0:2,0:0:0:0:
306,108,9872,6,0,P|326:133|341:195,1,93.75,2|0,0:2|0:0,0:0:0:0:
341,216,10517,2,0,P|339:253|364:308,2,93.75,2|2|2,0:2|0:2|0:2,0:0:0:0:
341,216,12453,6,0,P|288:205|241:225,1,93.75,2|0,0:2|0:0,0:0:0:0:
231,232,13098,2,0,P|197:248|139:237,1,93.75,2|2,0:2|0:2,0:0:0:0:
90,85,14066,2,0,P|157:105|184:169,1,125,2|0,0:2|0:0,0:0:0:0:
286,56,15034,6,0,P|322:31|362:57,1,93.75,2|0,0:2|0:0,0:0:0:0:
367,78,15679,2,0,P|356:118|355:178,2,93.75,2|2|2,0:2|0:2|0:2,0:0:0:0:
470,268,17614,6,0,P|432:268|393:307,1,93.75,2|0,0:2|0:0,0:0:0:0:
386,329,18259,2,0,B|415:352|415:352|476:346,2,93.75,2|2|2,0:2|0:2|0:2,0:0:0:0:
89,303,20517,6,0,L|141:291,1,31.25,2|2,0:2|0:2,0:0:0:0:
143,290,20840,2,0,L|15:321,1,125,2|2,0:2|0:2,0:0:0:0:
21,319,21969,5,0,0:0:0:0:
63,252,22130,2,0,P|63:219|46:192,1,62.5
220,55,22776,5,8,0:3:0:0:
280,107,22937,1,0,0:0:0:0:
298,29,23098,5,8,0:3:0:0:
283,120,23259,1,0,0:0:0:0:
483,67,23421,6,0,B|478:126|478:126|473:132|473:132|468:201,1,125,0|2,3:0|0:2,0:0:0:0:
462,264,23905,1,2,0:2:0:0:
258,211,24066,2,0,P|321:247|328:314,1,125,10|2,0:0|0:2,0:0:0:0:
255,290,24550,1,2,0:2:0:0:
266,133,24711,2,0,B|205:138|205:138|197:144|197:144|127:150,1,125,2|2,0:0|3:2,0:0:0:0:
64,157,25195,1,2,0:2:0:0:
180,71,25356,5,10,0:2:0:0:
111,220,25517,1,2,0:2:0:0:
6,85,25679,1,2,0:2:0:0:
64,341,26001,6,0,B|127:360|127:360|183:325,1,125,0|2,3:0|0:2,0:0:0:0:
237,285,26485,1,0,0:0:0:0:
435,345,26646,2,0,P|456:292|426:228,1,125,10|2,0:2|0:2,0:0:0:0:
380,289,27130,1,2,0:2:0:0:
485,176,27292,2,0,P|436:137|367:140,1,125,2|2,0:2|3:2,0:0:0:0:
309,169,27776,1,2,0:2:0:0:
211,47,27937,5,10,0:2:0:0:
321,33,28098,1,2,0:2:0:0:
430,16,28259,1,2,0:2:0:0:
182,121,28582,6,0,P|134:79|138:17,1,125,0|2,3:0|0:2,0:0:0:0:
211,47,29066,1,2,0:2:0:0:
41,122,29227,2,0,B|44:168|44:168|42:177|42:177|45:228,1,93.75,10|0,0:0|0:0,0:0:0:0:
120,199,29550,2,0,B|117:245|117:245|119:251|119:251|117:303,1,93.75,2|0,0:2|0:0,0:0:0:0:
67,350,29872,5,2,0:2:0:0:
241,306,30034,1,2,0:2:0:0:
169,370,30195,1,2,3:2:0:0:
343,326,30357,1,2,0:2:0:0:
211,227,30517,5,10,0:0:0:0:
348,344,30679,1,2,0:2:0:0:
387,189,30840,1,2,0:2:0:0:
178,43,31163,6,0,B|213:34|240:57|240:57|266:80|305:72,1,125,2|2,3:2|0:2,0:0:0:0:
365,49,31646,1,2,3:2:0:0:
191,120,31808,2,0,B|198:181|198:181|202:184|202:184|209:245,1,125,10|2,0:2|0:2,0:0:0:0:
222,315,32292,1,0,0:0:0:0:
385,218,32453,6,0,P|419:201|449:206,1,62.5,8|0,0:3|0:0,0:0:0:0:
464,274,32776,2,0,P|430:291|400:286,1,62.5,8|0,3:0|0:0,0:0:0:0:
225,164,33098,1,14,0:0:0:0:
247,324,33421,5,2,1:0:0:0:
288,28,33743,2,0,B|262:32|262:32|258:35|258:35|213:43,1,62.5,0|0,3:0|0:0,0:0:0:0:
49,8,34066,6,0,P|78:51|85:94,1,93.75,2|0,0:2|0:0,0:0:0:0:
159,107,34388,2,0,P|133:152|81:177,1,93.75,10|0,0:0|0:0,0:0:0:0:
105,245,34711,2,0,P|59:246|13:221,1,93.75,2|0,0:2|0:0,0:0:0:0:
28,152,35034,5,2,0:2:0:0:
84,325,35195,1,2,0:2:0:0:
181,202,35356,1,2,3:2:0:0:
221,357,35517,1,2,0:0:0:0:
29,131,35679,6,0,B|89:119|89:119|94:124|94:124|160:110,1,125,10|2,0:0|0:2,0:0:0:0:
385,44,36324,6,0,P|408:77|442:86,1,62.5,0|0,3:0|0:0,0:0:0:0:
456,14,36646,1,2,0:2:0:0:
456,14,36808,1,0,0:0:0:0:
339,120,36969,2,0,B|347:162|347:162|350:165|350:165|360:217,1,93.75,10|0,0:2|0:0,0:0:0:0:
427,237,37292,2,0,B|419:279|419:279|416:282|416:282|406:335,1,93.75,2|0,0:0|0:0,0:0:0:0:
353,375,37614,69,2,0:2:0:0:
493,286,37776,1,2,0:2:0:0:
356,200,37937,1,2,3:2:0:0:
497,117,38098,1,2,0:2:0:0:
331,285,38259,54,0,B|295:293|272:271|272:271|247:243|195:256,1,125,10|2,0:2|0:2,0:0:0:0:
46,43,38905,5,0,3:0:0:0:
188,138,39227,2,0,P|158:102|192:82,1,93.75,2|0,0:2|0:0,0:0:0:0:
259,94,39550,2,0,P|284:128|293:180,1,93.75,10|0,0:0|0:0,0:0:0:0:
245,237,39872,1,2,0:2:0:0:
368,176,40034,1,0,0:0:0:0:
226,308,40195,5,2,0:2:0:0:
294,178,40356,1,2,0:0:0:0:
435,264,40517,2,0,P|419:303|418:327,1,62.5,2|0,3:2|0:0,0:0:0:0:
473,55,40840,6,0,P|435:86|349:88,1,125,10|2,0:0|0:2,0:0:0:0:
34,88,41485,6,0,P|55:59|90:55,1,62.5,2|0,3:2|0:0,0:0:0:0:
123,113,41808,2,0,P|102:142|67:146,1,62.5,2|0,0:2|3:0,0:0:0:0:
284,14,42130,1,8,0:0:0:0:
258,82,42292,1,0,0:0:0:0:
202,32,42453,1,2,0:2:0:0:
343,352,42776,6,0,P|362:314|359:285,1,62.5,2|0,0:2|0:0,0:0:0:0:
242,262,43098,2,0,P|266:296|293:307,1,62.5,0|0,3:2|0:0,0:0:0:0:
473,191,43421,1,10,0:0:0:0:
53,344,44066,6,0,P|72:325|80:292,1,62.5,6|0,3:2|0:0,0:0:0:0:
6,180,44388,2,0,P|31:214|62:223,1,62.5,2|0,0:2|0:0,0:0:0:0:
291,138,44711,1,10,0:2:0:0:
241,194,44872,2,0,B|204:185|180:207|180:207|156:230|110:225,1,125,2|2,0:2|0:2,0:0:0:0:
92,160,45356,1,0,0:0:0:0:
369,340,45679,6,0,L|437:331,1,62.5,0|0,3:0|0:0,0:0:0:0:
213,224,46001,1,10,0:2:0:0:
279,268,46163,2,0,B|337:260|337:260|347:263|347:263|414:254,1,125,2|2,0:2|0:2,0:0:0:0:
485,130,46646,6,0,P|447:115|435:90,1,62.5,0|0,3:0|0:0,0:0:0:0:
312,59,46969,2,0,P|341:41|353:17,1,62.5,2|0,0:2|3:0,0:0:0:0:
469,214,47292,1,10,0:2:0:0:
395,182,47453,2,0,B|379:218|344:221|344:221|379:225|408:258,1,125,2|2,0:2|0:2,0:0:0:0:
469,214,47937,1,0,0:0:0:0:
100,121,48259,6,0,B|105:151|105:151|110:155|110:155|117:191,1,62.5,0|0,3:0|0:0,0:0:0:0:
163,366,48582,5,10,0:2:0:0:
101,318,48743,2,0,P|117:282|144:269,1,62.5,2|0,0:2|0:0,0:0:0:0:
305,344,49066,2,0,P|247:302|242:235,1,125,2|0,0:2|0:0,0:0:0:0:
302,216,49550,2,0,P|333:246|341:272,1,62.5,2|0,0:2|0:0,0:0:0:0:
172,74,49872,5,10,0:2:0:0:
236,121,50034,2,0,L|299:107,1,62.5,2|0,0:2|0:0,0:0:0:0:
125,238,50356,2,0,P|80:213|120:161,1,125,2|0,0:2|0:0,0:0:0:0:
183,186,50840,2,0,P|203:223|204:245,1,62.5,2|0,3:2|0:0,0:0:0:0:
410,128,51163,5,8,0:2:0:0:
356,186,51324,2,0,L|374:256,1,62.5,2|0,0:2|0:0,0:0:0:0:
431,55,51646,2,0,B|395:43|366:63|366:63|339:90|289:74,1,125,2|0,0:2|0:0,0:0:0:0:
258,29,52130,2,0,P|210:60|207:81,1,62.5,2|0,0:2|3:2,0:0:0:0:
34,225,52453,5,10,0:2:0:0:
107,205,52614,1,2,0:2:0:0:
49,301,52776,1,2,0:2:0:0:
127,278,52937,2,0,B|163:263|189:287|189:287|216:312|255:298,1,125,2|0,0:2|0:0,0:0:0:0:
341,203,53421,2,0,P|309:224|301:259,1,62.5,0|0,3:2|0:0,0:0:0:0:
490,150,53743,6,0,P|470:121|441:109,1,62.5,8|0,0:2|0:0,0:0:0:0:
393,49,54066,2,0,P|373:78|344:90,1,62.5,2|0,0:2|0:0,0:0:0:0:
152,56,54388,2,0,B|175:52|195:32|195:32|178:126,1,125,6|2,3:2|0:2,0:0:0:0:
169,180,54872,1,0,0:0:0:0:
10,121,55034,5,10,0:2:0:0:
72,166,55195,2,0,B|83:227|83:227|79:234|79:234|90:294,1,125,2|2,0:2|0:2,0:0:0:0:
149,333,55679,1,0,0:0:0:0:
381,222,56001,6,0,P|363:246|363:285,1,62.5,0|0,3:0|0:0,0:0:0:0:
465,95,56324,1,10,0:2:0:0:
403,140,56485,2,0,B|369:124|340:146|340:146|310:172|259:154,1,125,2|2,0:2|0:2,0:0:0:0:
238,64,56969,2,0,P|281:73|297:89,1,62.5,0|0,3:0|0:0,0:0:0:0:
233,211,57292,2,0,P|190:202|174:186,1,62.5,2|0,0:2|3:0,0:0:0:0:
368,60,57614,5,10,0:2:0:0:
425,117,57776,2,0,B|425:156|450:173|450:173|420:196|418:225,1,125,2|2,0:2|0:2,0:0:0:0:
496,238,58259,1,0,0:0:0:0:
97,321,58582,6,0,B|130:314|130:314|150:334,1,62.5,0|0,3:0|0:0,0:0:0:0:
285,180,58905,5,10,0:2:0:0:
236,240,59066,2,0,B|203:247|203:247|183:227,1,62.5,2|0,0:2|0:0,0:0:0:0:
325,115,59388,2,0,B|386:109|386:109|393:111|393:111|458:105,1,125,2|0,0:2|0:0,0:0:0:0:
436,183,59872,2,0,L|368:190,1,62.5,2|0,0:2|0:0,0:0:0:0:
127,60,60195,5,10,0:2:0:0:
204,77,60356,2,0,P|237:49|242:21,1,62.5,2|0,0:2|0:0,0:0:0:0:
79,125,60679,2,0,B|68:162|91:188|91:188|114:213|107:252,1,125,2|0,0:2|0:0,0:0:0:0:
160,295,61163,2,0,P|146:328|126:343,1,62.5,2|0,3:2|0:0,0:0:0:0:
330,193,61485,1,8,0:2:0:0:
391,241,61646,2,0,B|421:236|421:236|431:238|431:238|470:231,1,62.5,2|0,0:2|0:0,0:0:0:0:
280,133,61969,2,0,P|219:102|151:113,1,125,2|0,0:2|0:0,0:0:0:0:
162,182,62453,2,0,P|196:195|225:196,1,62.5,2|0,0:2|3:2,0:0:0:0:
436,40,62776,5,10,0:2:0:0:
386,96,62937,1,2,0:2:0:0:
442,142,63098,1,2,0:2:0:0:
394,198,63259,2,0,B|401:259|401:259|397:266|397:266|405:329,1,125,2|0,0:2|0:0,0:0:0:0:
232,378,63743,2,0,P|249:339|278:325,1,62.5,0|0,3:2|0:0,0:0:0:0:
102,165,64066,6,0,P|135:213|183:225,1,93.7500035762788,10|2,0:2|0:2,0:0:0:0:
88,41,64711,6,0,B|131:37|131:37|138:40|138:40|189:37,1,93.7500035762788,2|0,0:2|0:0,0:0:0:0:
243,82,65195,2,0,P|298:69|327:20,1,93.7500035762788,2|0,0:2|0:0,0:0:0:0:
253,10,65679,2,0,P|300:60|320:224,1,234.375008940697,2|0,0:2|0:0,0:0:0:0:
257,254,66646,2,0,P|220:238|194:189,1,93.7500035762788,10|0,0:2|0:0,0:0:0:0:
47,327,67292,6,0,P|92:315|121:274,1,93.7500035762788,2|0,0:2|0:0,0:0:0:0:
190,313,67776,2,0,P|198:267|173:223,1,93.7500035762788,2|0,0:2|0:0,0:0:0:0:
224,161,68259,2,0,B|170:132|128:165|128:165|87:197|39:183,1,187.500007152558,2|0,0:2|0:0,0:0:0:0:
361,20,69227,6,0,P|327:55|312:149,1,140.625005364418,10|0,0:2|0:0,0:0:0:0:
258,198,69872,2,0,P|290:239|349:255,1,93.7500035762788,2|0,0:2|0:0,0:0:0:0:
358,323,70356,2,0,P|409:317|454:276,1,93.7500035762788,2|0,0:2|0:0,0:0:0:0:
411,221,70840,2,0,B|352:215|322:251|322:251|288:295|226:286,1,187.500007152558,2|0,0:2|0:0,0:0:0:0:
51,84,71808,6,0,P|40:48|113:64,1,140.625005364418,10|0,0:2|0:0,0:0:0:0:
114,122,72453,2,0,B|106:155|106:155|109:160|109:160|98:213,1,93.7500035762788,2|0,0:2|0:0,0:0:0:0:
32,248,72937,2,0,B|40:281|40:281|37:286|37:286|48:339,1,93.7500035762788,2|0,0:2|0:0,0:0:0:0:
117,371,73421,2,0,B|154:339|145:289|145:289|159:337|216:351,1,187.500007152558,2|0,0:2|0:0,0:0:0:0:
455,291,74388,6,0,B|382:276|382:276|320:329,1,140.625005364418,10|0,0:2|0:0,0:0:0:0:
267,360,75034,2,0,P|230:332|223:270,1,93.7500035762788,2|0,0:2|0:0,0:0:0:0:
165,234,75517,2,0,P|193:197|255:190,1,93.7500035762788,2|0,0:2|0:0,0:0:0:0:
285,125,76001,2,0,P|337:163|460:177,1,187.500007152558,2|0,0:2|0:0,0:0:0:0:
268,27,76969,6,0,B|204:39|204:39|197:46|197:46|124:61,1,140.625005364418,10|0,0:2|0:0,0:0:0:0:
59,43,77614,2,0,P|101:87|104:133,1,93.7500035762788,2|0,0:2|0:0,0:0:0:0:
168,162,78098,2,0,P|141:216|153:261,1,93.7500035762788,2|0,0:2|0:0,0:0:0:0:
129,321,78582,2,0,B|186:329|214:286|214:286|242:246|300:250,1,187.500007152558,2|0,0:2|0:0,0:0:0:0:
467,42,79550,6,0,P|431:70|466:151,1,140.625005364418,10|0,0:2|0:0,0:0:0:0:
340,83,80195,6,0,P|311:113|234:118,1,93.7500035762788,2|0,3:2|0:0,0:0:0:0:
135,61,80679,1,2,0:2:0:0:
190,116,80840,2,0,B|177:163|177:163|179:170|179:170|169:229,1,93.7500035762788,8|2,3:2|0:2,0:0:0:0:
77,325,81324,1,0,0:0:0:0:
147,285,81485,2,0,P|194:310|203:362,1,93.7500035762788,0|0,3:2|0:0,0:0:0:0:
382,228,81969,1,0,0:0:0:0:
327,283,82130,2,0,B|354:318|354:318|404:305,1,93.7500035762788,8|2,3:2|0:2,0:0:0:0:
351,123,82614,5,2,0:2:0:0:
287,173,82776,2,0,P|260:169|241:153,1,46.8750017881394,2|0,3:2|0:0,0:0:0:0:
339,47,83098,2,0,P|319:33|296:31,1,46.8750017881394,0|0,3:0|0:0,0:0:0:0:
165,190,83421,2,0,P|152:167|161:132,1,46.8750017881394,0|0,3:2|0:0,0:0:0:0:
29,38,83743,2,0,P|42:61|33:96,1,46.8750017881394,0|2,3:0|0:2,0:0:0:0:
213,342,84550,5,0,1:0:0:0:
455,228,84711,1,8,0:3:0:0:
373,124,84872,1,8,0:3:0:0:
455,90,85034,1,4,0:3:0:0:
252,272,85356,6,0,P|198:221|197:210,1,78.125,6|0,3:1|0:0,0:0:0:0:
285,52,85679,1,2,0:2:0:0:
88,150,85840,2,0,P|174:109|245:117,1,156.25,2|0,0:1|0:0,0:0:0:0:
452,5,86324,2,0,B|443:39|443:39|447:49|447:49|439:96,1,78.125,2|0,0:1|0:0,0:0:0:0:
399,318,86646,5,2,0:1:0:0:
339,195,86808,1,2,0:2:0:0:
411,343,86969,1,2,3:2:0:0:
328,172,87130,2,0,P|257:219|168:222,1,156.25,2|0,0:1|0:0,0:0:0:0:
55,54,87614,2,0,P|105:73|116:92,1,78.125,2|0,0:1|0:0,0:0:0:0:
34,316,87937,6,0,P|64:279|103:273,1,78.125,2|0,3:1|0:0,0:0:0:0:
167,334,88259,1,2,0:0:0:0:
96,167,88421,2,0,P|126:204|165:210,1,78.125,2|8,3:1|0:2,0:0:0:0:
227,144,88743,1,0,0:0:0:0:
177,308,88905,2,0,P|207:271|386:234,1,234.375,2|0,0:1|0:0,0:0:0:0:
467,14,89550,6,0,P|418:20|387:46,1,78.125,2|0,3:2|0:0,0:0:0:0:
204,144,89872,2,0,P|253:138|284:112,1,78.125,10|0,0:2|0:0,0:0:0:0:
201,22,90195,1,2,0:2:0:0:
351,168,90356,1,2,0:2:0:0:
119,85,90517,6,0,P|80:128|79:159,1,78.125,6|0,3:1|0:0,0:0:0:0:
237,259,90840,1,2,0:2:0:0:
33,290,91001,2,0,P|101:234|181:244,1,156.25,2|0,0:1|0:0,0:0:0:0:
484,145,91485,2,0,P|435:161|414:195,1,78.125,2|0,0:1|0:0,0:0:0:0:
467,341,91808,5,2,0:1:0:0:
345,188,91969,1,2,0:2:0:0:
229,323,92130,1,2,3:2:0:0:
454,256,92292,2,0,B|406:249|383:280|383:280|361:313|309:312,1,156.25,2|0,0:1|0:0,0:0:0:0:
53,231,92776,2,0,P|87:275|90:305,1,78.125,2|0,0:1|0:0,0:0:0:0:
176,134,93098,6,0,P|137:161|92:165,1,78.125,2|0,3:1|0:0,0:0:0:0:
45,116,93421,1,2,0:0:0:0:
259,167,93582,2,0,P|298:140|343:136,1,78.125,2|8,3:1|0:2,0:0:0:0:
393,177,93905,1,0,0:0:0:0:
301,6,94066,2,0,P|415:88|508:85,1,234.375,2|0,0:1|0:0,0:0:0:0:
329,229,94711,6,0,P|289:269|286:312,1,78.125,2|0,3:2|0:0,0:0:0:0:
146,123,95034,2,0,P|186:163|189:206,1,78.125,10|0,0:2|0:0,0:0:0:0:
378,143,95356,1,2,0:2:0:0:
200,262,95517,1,2,0:2:0:0:
263,40,95679,6,0,P|311:70|337:69,1,78.125,6|0,3:1|0:0,0:0:0:0:
486,23,96001,1,2,0:2:0:0:
297,148,96163,2,0,B|245:147|222:183|222:183|197:219|140:216,1,156.25,2|0,0:1|0:0,0:0:0:0:
18,87,96646,2,0,P|45:67|90:65,1,78.125,2|0,0:1|0:0,0:0:0:0:
96,266,96969,5,2,0:1:0:0:
161,92,97130,1,2,0:2:0:0:
290,231,97292,1,2,3:2:0:0:
55,189,97453,2,0,P|135:189|184:255,1,156.25,2|0,0:1|0:0,0:0:0:0:
408,165,97937,2,0,P|377:206|374:232,1,78.125,2|0,0:1|0:0,0:0:0:0:
236,54,98259,6,0,B|270:48|270:48|278:51|278:51|321:43,1,78.125,2|0,3:1|0:0,0:0:0:0:
387,26,98582,1,2,0:0:0:0:
176,145,98743,2,0,B|210:151|210:151|218:148|218:148|261:156,1,78.125,2|8,3:1|0:2,0:0:0:0:
327,173,99066,1,0,0:0:0:0:
126,52,99227,2,0,P|74:88|27:250,1,234.375,2|0,0:1|0:0,0:0:0:0:
302,349,99872,6,0,P|267:307|245:305,1,78.125,2|0,3:2|0:0,0:0:0:0:
183,152,100195,2,0,P|141:187|139:209,1,78.125,10|0,0:2|0:0,0:0:0:0:
331,109,100517,1,2,0:2:0:0:
180,269,100679,1,2,0:2:0:0:
396,185,100840,6,0,P|450:212|458:233,1,78.125,6|0,3:1|0:0,0:0:0:0:
398,358,101163,1,2,0:2:0:0:
296,150,101324,2,0,P|361:93|443:93,1,156.25,2|0,0:1|0:0,0:0:0:0:
252,237,101808,2,0,P|214:198|175:193,1,78.125,2|0,0:1|0:0,0:0:0:0:
61,327,102130,5,2,0:1:0:0:
120,163,102292,1,2,0:2:0:0:
228,312,102453,1,2,3:2:0:0:
35,185,102614,2,0,P|89:248|157:246,1,156.25,2|0,0:1|0:0,0:0:0:0:
254,51,103098,2,0,P|208:66|190:96,1,78.125,2|0,0:1|0:0,0:0:0:0:
404,199,103421,6,0,B|391:174|391:174|403:114,1,78.125,2|0,3:1|0:0,0:0:0:0:
470,95,103743,1,2,0:0:0:0:
430,282,103905,2,0,B|405:295|405:295|345:283,1,78.125,2|8,3:1|0:2,0:0:0:0:
326,216,104227,1,0,0:0:0:0:
187,342,104388,1,2,0:1:0:0:
88,236,104550,2,0,B|136:225|164:248|164:248|199:273|253:259,1,156.25
308,112,105034,2,0,P|250:129|244:157,1,78.125,2|0,3:2|0:0,0:0:0:0:
371,289,105356,5,10,0:2:0:0:
455,41,105679,5,2,0:2:0:0:
436,112,105840,1,2,0:2:0:0:
508,94,106001,1,2,3:2:0:0:
308,112,106324,5,2,3:2:0:0:
327,183,106485,1,0,3:0:0:0:
255,165,106646,1,2,3:2:0:0:
441,229,106969,5,2,3:2:0:0:
388,282,107130,1,0,3:0:0:0:
460,300,107292,2,0,P|430:345|349:347,1,125,2|2,3:2|3:2,0:0:0:0:
301,313,107776,1,2,0:2:0:0:
261,374,107937,1,2,0:2:0:0:
74,297,108259,2,0,P|115:311|127:339,1,62.5,8|2,0:3|0:2,0:0:0:0:
20,211,108582,6,0,B|54:203|54:203|64:205|64:205|113:195,1,93.75,2|0,3:2|0:0,0:0:0:0:
139,129,108905,1,2,0:2:0:0:
139,129,109066,1,2,0:2:0:0:
266,234,109227,1,10,0:2:0:0:
227,151,109388,1,2,0:2:0:0:
429,53,109711,5,2,0:2:0:0:
490,164,109872,2,0,P|463:140|400:136,1,93.75,2|0,0:2|0:0,0:0:0:0:
358,187,110195,1,2,3:2:0:0:
332,95,110356,1,2,0:2:0:0:
435,227,110517,1,10,0:2:0:0:
113,299,111001,5,2,0:2:0:0:
139,290,111082,1,0,0:0:0:0:
166,282,111163,1,2,3:2:0:0:
51,242,111324,1,2,0:2:0:0:
191,203,111485,1,2,0:2:0:0:
165,364,111646,1,2,0:2:0:0:
339,323,111808,6,0,P|301:297|274:296,1,62.5,10|2,0:2|0:2,0:0:0:0:
448,173,112130,2,0,P|410:199|383:200,1,62.5,2|2,0:2|0:2,0:0:0:0:
444,333,112453,1,2,0:2:0:0:
303,209,112614,2,0,B|306:181|306:181|311:175|311:175|314:147,1,62.5,2|2,0:2|3:2,0:0:0:0:
374,100,112937,1,2,0:2:0:0:
249,262,113098,1,10,0:2:0:0:
85,59,113582,5,2,0:2:0:0:
110,70,113663,1,0,0:0:0:0:
125,93,113743,1,2,3:2:0:0:
29,159,113905,1,2,0:2:0:0:
203,101,114066,1,2,0:2:0:0:
93,210,114227,1,2,3:2:0:0:
270,151,114388,6,0,B|261:182|261:182|262:187|262:187|255:219,1,62.5,10|2,0:2|0:2,0:0:0:0:
173,362,114711,2,0,B|167:337|167:337|168:332|168:332|159:301,1,62.5,2|2,0:2|0:2,0:0:0:0:
338,217,115034,1,8,0:3:0:0:
305,351,115195,1,2,0:2:0:0:
354,141,115356,2,0,B|389:141|409:174|409:174|422:200|461:209,1,125,8|10,0:3|0:2,0:0:0:0:
156,72,116001,5,2,1:1:0:0:
156,72,116163,1,2,0:2:0:0:
38,166,116324,2,0,P|70:141|103:139,1,62.5,2|2,3:2|0:2,0:0:0:0:
289,73,116646,2,0,P|257:98|224:100,1,62.5,2|2,0:2|0:2,0:0:0:0:
77,36,116969,1,10,0:2:0:0:
77,36,117130,1,2,0:2:0:0:
174,158,117292,1,2,0:2:0:0:
174,158,117453,1,2,0:2:0:0:
233,26,117614,69,2,0:2:0:0:
93,122,117776,1,2,0:2:0:0:
244,206,117937,2,0,B|310:193|310:193|316:195|316:195|370:185,1,125,2|10,3:2|0:2,0:0:0:0:
37,316,118582,2,0,P|64:292|67:254,1,62.5
260,303,118905,6,0,L|321:292,1,62.5,2|2,3:2|0:2,0:0:0:0:
192,248,119227,1,2,0:2:0:0:
397,271,119388,1,2,3:2:0:0:
242,377,119550,2,0,P|203:357|190:332,1,62.5,10|2,0:2|0:2,0:0:0:0:
268,221,119872,1,2,0:2:0:0:
268,221,120034,1,2,0:2:0:0:
110,342,120195,2,0,B|108:313|108:313|104:307|104:307|102:273,1,62.5,2|2,0:2|0:2,0:0:0:0:
9,133,120517,2,0,B|45:149|55:177|55:177|53:148|77:119,2,125,2|10|0,3:2|0:2|0:0,0:0:0:0:
199,40,121485,6,0,B|229:29|229:29|268:42,1,62.5,2|2,3:2|0:2,0:0:0:0:
361,166,121808,1,2,0:2:0:0:
361,166,121969,1,2,0:2:0:0:
334,27,122130,2,0,P|333:62|313:94,1,62.5,10|2,0:2|0:2,0:0:0:0:
236,229,122453,2,0,P|257:201|292:187,1,62.5,2|2,0:2|0:2,0:0:0:0:
433,86,122776,5,2,0:2:0:0:
252,120,122937,1,2,0:2:0:0:
384,254,123098,2,0,P|423:233|450:160,2,125,2|10|0,3:2|0:2|0:0,0:0:0:0:
77,332,124065,6,0,P|58:298|62:266,1,62.5,6|0,3:1|0:0,0:0:0:0:
92,108,124388,2,0,P|111:142|107:174,1,62.5,2|0,0:2|3:2,0:0:0:0:
57,336,124711,2,0,P|38:302|42:270,1,62.5,14|0,0:2|0:0,0:0:0:0:
72,112,125034,2,0,P|91:146|87:178,1,62.5,2|0,0:2|0:0,0:0:0:0:
4,80,125356,5,2,0:2:0:0:
163,117,125517,1,2,0:2:0:0:
276,12,125679,2,0,B|267:34|267:34|268:41|268:41|256:70,1,62.5,2|2,3:2|0:2,0:0:0:0:
23,209,126001,2,0,B|38:267|38:267|35:270|35:270|51:341,1,125,10|2,0:2|0:2,0:0:0:0:
413,330,126646,6,0,P|394:295|353:281,1,62.5,6|0,3:2|0:0,0:0:0:0:
464,122,126969,1,2,0:2:0:0:
464,122,127130,1,2,0:2:0:0:
408,178,127292,2,0,B|376:176|376:176|371:172|371:172|333:170,1,62.5,10|0,0:2|0:0,0:0:0:0:
157,48,127614,5,2,0:2:0:0:
157,48,127776,1,2,0:2:0:0:
223,92,127937,2,0,B|221:124|221:124|217:129|217:129|215:167,1,62.5,2|0,0:2|0:0,0:0:0:0:
103,330,128259,5,2,3:2:0:0:
103,330,128421,1,2,0:2:0:0:
147,264,128582,2,0,B|179:266|179:266|184:270|184:270|222:272,1,62.5,10|0,0:2|0:0,0:0:0:0:
16,170,128905,2,0,B|40:168|40:168|45:164|45:164|77:162,1,62.5,2|0,0:2|0:0,0:0:0:0:
251,336,129227,2,0,P|278:312|284:274,1,62.5,2|0,3:2|0:0,0:0:0:0:
448,121,129550,5,2,0:2:0:0:
448,121,129711,1,2,3:2:0:0:
388,169,129872,2,0,P|350:153|337:113,1,62.5,10|0,0:2|0:0,0:0:0:0:
470,48,130195,1,2,0:2:0:0:
496,199,130356,1,2,0:2:0:0:
355,35,130517,6,0,B|323:36|323:36|316:40|316:40|273:43,1,62.5,2|0,0:2|0:0,0:0:0:0:
166,93,130840,2,0,B|188:96|188:96|194:101|194:101|227:103,1,62.5,2|0,3:2|0:0,0:0:0:0:
84,53,131163,1,10,0:2:0:0:
144,169,131324,1,2,0:2:0:0:
211,25,131485,1,2,0:2:0:0:
295,140,131646,2,0,P|266:189|262:274,1,125,2|0,0:2|0:0,0:0:0:0:
39,248,132130,5,2,0:2:0:0:
39,248,132292,1,2,0:2:0:0:
104,292,132453,2,0,P|87:322|86:356,1,62.5,10|0,0:2|0:0,0:0:0:0:
263,177,132776,5,2,0:2:0:0:
263,177,132936,1,2,0:2:0:0:
198,221,133099,2,0,P|215:251|216:285,1,62.5,2|0,0:2|0:0,0:0:0:0:
41,82,133421,5,2,3:2:0:0:
41,82,133583,1,2,0:2:0:0:
106,126,133744,2,0,P|89:156|88:190,1,62.5,10|0,0:2|0:0,0:0:0:0:
237,48,134066,2,0,P|267:65|301:66,1,62.5,2|0,0:2|0:0,0:0:0:0:
108,259,134388,2,0,B|136:251|136:251|143:253|143:253|177:243,1,62.5,0|0,3:2|0:0,0:0:0:0:
396,189,134711,5,2,0:2:0:0:
396,189,134872,1,2,3:2:0:0:
350,254,135034,2,0,P|377:286|405:291,1,62.5,10|0,0:2|0:0,0:0:0:0:
445,126,135356,1,2,0:2:0:0:
482,224,135517,1,2,0:2:0:0:
419,53,135679,6,0,L|346:62,1,62.5,2|0,0:2|0:0,0:0:0:0:
230,117,136001,2,0,L|296:126,1,62.5,2|0,3:2|0:0,0:0:0:0:
464,149,136324,1,10,0:2:0:0:
148,299,136646,1,2,0:2:0:0:
41,78,136969,6,0,P|82:52|134:46,1,93.7500035762788,2|0,0:2|0:0,0:0:0:0:
192,8,137453,2,0,P|236:26|271:65,1,93.7500035762788,2|0,0:2|0:0,0:0:0:0:
338,88,137937,2,0,B|338:144|295:168|295:168|334:191|339:249,1,187.500007152558,2|0,0:2|0:0,0:0:0:0:
51,340,138905,6,0,P|60:282|140:315,1,140.625005364418,10|0,0:2|0:0,0:0:0:0:
125,363,139550,2,0,B|168:355|168:355|175:359|175:359|224:350,1,93.7500035762788,2|0,0:2|0:0,0:0:0:0:
268,295,140034,2,0,B|309:302|309:302|316:298|316:298|359:306,1,93.7500035762788,2|0,0:2|0:0,0:0:0:0:
426,350,140517,2,0,P|479:317|424:219,1,187.500007152558,2|0,0:2|0:0,0:0:0:0:
146,91,141485,6,0,P|146:52|219:79,1,140.625005364418,10|0,0:2|0:0,0:0:0:0:
203,139,142130,2,0,P|153:166|113:158,1,93.7500035762788,2|0,0:2|0:0,0:0:0:0:
99,88,142614,2,0,P|149:61|189:69,1,93.7500035762788,2|0,0:2|0:0,0:0:0:0:
258,85,143098,2,0,B|352:72|352:72|364:76|364:76|446:65,1,187.500007152558,2|0,0:2|0:0,0:0:0:0:
312,338,144066,6,0,P|250:332|215:252,1,140.625005364418,10|0,0:2|0:0,0:0:0:0:
250,204,144711,2,0,B|279:185|279:185|344:193,1,93.7500035762788,2|0,0:2|0:0,0:0:0:0:
385,252,145195,2,0,B|430:246|430:246|437:250|437:250|497:241,1,93.7500035762788,2|0,0:2|0:0,0:0:0:0:
510,179,145679,2,0,P|489:120|368:80,1,187.500007152558,2|0,0:2|0:0,0:0:0:0:
82,223,146646,6,0,B|97:191|85:156|85:156|108:191|145:202,1,140.625005364418,10|0,0:2|0:0,0:0:0:0:
137,277,147292,2,0,B|124:320|124:320|127:328|127:328|112:372,1,93.7500035762788,2|0,0:2|0:0,0:0:0:0:
192,380,147776,2,0,B|204:341|204:341|201:333|201:333|214:290,1,93.7500035762788,2|0,0:2|0:0,0:0:0:0:
291,299,148259,2,0,B|306:254|284:207|284:207|307:255|351:271,1,187.500007152558,2|2,0:2|0:2,0:0:0:0:
475,108,149227,6,0,B|438:130|438:130|338:117,1,140.625005364418,10|0,0:2|0:0,0:0:0:0:
294,59,149872,2,0,P|243:77|228:113,1,93.7500035762788,2|0,0:2|0:0,0:0:0:0:
182,170,150356,2,0,P|219:209|258:208,1,93.7500035762788,2|0,0:2|0:0,0:0:0:0:
302,148,150840,2,0,B|277:96|223:100|223:100|167:100|146:50,1,187.500007152558,2|2,0:2|0:2,0:0:0:0:
37,250,151808,6,0,P|85:251|132:326,1,140.625005364418,10|0,0:2|0:0,0:0:0:0:
263,366,152453,2,0,P|308:332|349:332,1,93.7500035762788,2|0,3:2|0:0,0:0:0:0:
480,240,152937,1,2,0:2:0:0:
433,177,153098,2,0,P|390:200|333:195,1,93.7500035762788,8|2,3:2|0:2,0:0:0:0:
178,95,153582,1,0,0:0:0:0:
225,32,153743,2,0,P|268:55|325:50,1,93.7500035762788,0|0,3:2|0:0,0:0:0:0:
242,185,154227,1,0,0:0:0:0:
196,249,154388,2,0,B|201:292|201:292|207:299|207:299|213:341,1,93.7500035762788,8|2,3:2|0:2,0:0:0:0:
47,195,154872,5,2,0:2:0:0:
107,141,155034,2,0,P|88:106|68:98,1,46.8750017881394,2|2,3:2|0:2,0:0:0:0:
225,293,155356,2,0,P|208:308|201:331,1,46.8750017881394,0|0,3:0|0:0,0:0:0:0:
313,137,155679,2,0,P|294:102|274:94,1,46.8750017881394,0|0,3:2|0:0,0:0:0:0:
431,289,156001,2,0,P|414:304|407:327,1,46.8750017881394,0|2,3:0|0:2,0:0:0:0:
89,86,156808,5,0,1:0:0:0:
345,35,156969,1,8,0:3:0:0:
262,153,157130,1,8,0:3:0:0:
346,133,157292,1,4,0:3:0:0:
60,324,157614,6,0,B|102:317|102:317|110:318|110:318|153:310,1,84.3750003218651,6|0,3:1|0:0,0:0:0:0:
303,370,157937,1,2,0:2:0:0:
97,207,158098,2,0,B|182:223|182:223|187:229|187:229|270:242,1,168.75000064373,2|0,0:1|0:0,0:0:0:0:
484,350,158582,2,0,P|468:301|428:296,1,84.3750003218651,2|0,0:1|0:0,0:0:0:0:
270,117,158905,5,2,0:1:0:0:
449,170,159066,1,2,0:2:0:0:
229,53,159227,1,2,3:2:0:0:
381,214,159388,2,0,P|369:144|450:91,1,168.75000064373,2|0,0:1|0:0,0:0:0:0:
337,289,159872,2,0,P|306:315|250:316,1,84.3750003218651,2|0,0:1|0:0,0:0:0:0:
37,228,160195,6,0,B|43:270|43:270|42:277|42:277|48:317,1,84.3750003218651,2|0,3:1|0:0,0:0:0:0:
137,376,160517,1,2,0:0:0:0:
244,141,160678,2,0,B|238:183|238:183|239:190|239:190|233:224,1,84.3750003218651,2|8,3:1|0:2,0:0:0:0:
144,289,161000,1,0,0:0:0:0:
24,84,161162,2,0,B|93:91|121:159|121:159|114:89|175:41,1,253.125000965595,2|0,0:1|0:0,0:0:0:0:
395,109,161807,6,0,P|432:79|436:39,1,84.3750003218651,2|0,3:2|0:0,0:0:0:0:
290,190,162130,2,0,P|253:220|247:261,1,84.3750003218651,10|0,0:2|0:0,0:0:0:0:
360,39,162453,1,2,0:2:0:0:
321,257,162614,1,2,0:2:0:0:
217,62,162775,6,0,B|175:64|175:64|167:69|167:69|120:72,1,84.3750003218651,6|0,3:1|0:0,0:0:0:0:
186,214,163098,1,2,0:2:0:0:
79,47,163259,2,0,B|169:41|169:41|178:33|178:33|269:27,1,168.75000064373,2|0,0:1|0:0,0:0:0:0:
111,248,163743,2,0,P|131:279|186:296,1,84.3750003218651,2|0,0:1|0:0,0:0:0:0:
346,144,164065,5,2,0:1:0:0:
395,321,164227,1,2,0:2:0:0:
287,203,164388,1,2,3:2:0:0:
478,316,164549,2,0,P|428:245|342:258,1,168.75000064373,2|0,0:1|0:0,0:0:0:0:
483,62,165033,2,0,P|455:94|390:100,1,84.3750003218651,2|0,0:1|0:0,0:0:0:0:
159,9,165356,6,0,P|207:28|218:67,1,84.3750003218651,2|0,3:1|0:0,0:0:0:0:
174,123,165678,1,2,0:0:0:0:
389,77,165840,2,0,P|376:127|339:143,1,84.3750003218651,2|8,3:1|0:2,0:0:0:0:
278,107,166162,1,0,0:0:0:0:
194,309,166324,2,0,P|181:242|326:260,1,253.125000965595,2|0,0:1|0:0,0:0:0:0:
111,361,166969,6,0,B|80:354|80:354|67:356|67:356|16:346,1,84.3750003218651,2|0,3:2|0:0,0:0:0:0:
83,153,167291,2,0,B|114:146|114:146|127:148|127:148|178:138,1,84.3750003218651,10|0,0:2|0:0,0:0:0:0:
0,108,167614,1,2,0:2:0:0:
160,294,167775,1,2,0:2:0:0:
214,74,167936,6,0,B|252:81|252:81|265:79|265:79|296:86,1,84.3750003218651,6|0,3:1|0:0,0:0:0:0:
435,19,168259,1,2,0:2:0:0:
290,180,168420,2,0,B|374:168|374:168|377:161|377:161|456:149,1,168.75000064373,2|0,0:1|0:0,0:0:0:0:
347,333,168904,2,0,P|298:318|279:285,1,84.3750003218651,2|2,0:1|0:2,0:0:0:0:
59,178,169227,5,2,0:1:0:0:
85,304,169388,1,2,0:2:0:0:
170,186,169549,1,2,3:2:0:0:
206,327,169711,1,2,0:1:0:0:
25,252,169872,2,0,P|5:291|14:339,1,84.3750003218651,8|2,0:2|0:2,0:0:0:0:
230,239,170195,2,0,P|250:200|241:152,1,84.3750003218651,2|0,0:1|0:0,0:0:0:0:
62,29,170517,6,0,P|102:72|133:76,1,84.3750003218651,2|0,3:1|0:0,0:0:0:0:
215,8,170840,1,2,0:0:0:0:
163,233,171001,2,0,P|218:212|234:186,1,84.3750003218651,2|8,3:1|0:2,0:0:0:0:
203,83,171324,1,0,0:0:0:0:
385,248,171485,2,0,B|401:176|347:126|347:126|299:86|311:11,1,253.125000965595,2|0,0:1|0:0,0:0:0:0:
297,242,172130,6,0,B|305:281|305:281|302:288|302:288|313:341,1,84.3750003218651,2|0,3:2|0:0,0:0:0:0:
461,136,172453,2,0,B|468:99|468:99|465:92|465:92|473:53,1,84.3750003218651,10|0,0:2|0:0,0:0:0:0:
440,260,172775,1,2,0:2:0:0:
279,141,172936,1,2,0:2:0:0:
417,331,173098,2,0,P|366:292|362:256,1,84.3750003218651,6|0,3:1|0:0,0:0:0:0:
461,136,173420,1,2,0:2:0:0:
281,298,173582,2,0,P|304:219|387:197,1,168.75000064373,2|0,0:1|0:0,0:0:0:0:
283,48,174065,2,0,B|245:54|245:54|239:57|239:57|191:66,1,84.3750003218651,2|0,0:1|0:0,0:0:0:0:
10,46,174388,5,2,0:1:0:0:
121,164,174549,1,2,0:2:0:0:
159,5,174711,1,2,3:2:0:0:
117,177,174872,2,0,B|89:218|96:257|96:257|76:220|20:206,1,168.75000064373,2|0,0:1|0:0,0:0:0:0:
193,298,175356,2,0,B|205:319|204:338|204:338|216:317|244:309,1,84.3750003218651,2|0,0:1|0:0,0:0:0:0:
372,153,175678,6,0,P|320:188|313:233,1,84.3750003218651,2|0,3:1|0:0,0:0:0:0:
387,289,176001,1,2,0:0:0:0:
474,103,176162,2,0,P|430:57|384:58,1,84.3750003218651,2|8,3:1|0:2,0:0:0:0:
454,190,176485,1,0,0:0:0:0:
317,74,176646,2,0,B|250:50|200:105|200:105|148:156|53:120,1,253.125000965595,2|0,0:1|0:0,0:0:0:0:
164,322,177291,6,0,P|161:287|106:285,1,84.3750003218651,2|0,3:2|0:0,0:0:0:0:
282,152,177614,1,10,0:2:0:0:
256,192,178259,12,0,182130,0:0:0:0:
