osu file format v14

[General]
AudioFilename: audio.mp3
AudioLeadIn: 0
PreviewTime: -1
Countdown: 1
SampleSet: Normal
StackLeniency: 0.7
Mode: 0
LetterboxInBreaks: 0
SkinPreference:OSU! Lazer 2018.406.0 by DP05
WidescreenStoryboard: 0

[Editor]
DistanceSpacing: 1
BeatDivisor: 4
GridSize: 4
TimelineZoom: 1

[Metadata]
Title:Marshmello.Happier
TitleUnicode:Marshmello.Happier
Artist:Marshmello
ArtistUnicode:Marshmello
Creator:shadow_man788
Version:Happy
Source:
Tags:
BeatmapID:2097593
BeatmapSetID:1002105

[Difficulty]
HPDrainRate:6
CircleSize:5
OverallDifficulty:5
ApproachRate:3
SliderMultiplier:3
SliderTickRate:4

[Events]
//Background and Video events
//Break Periods
//Storyboard Layer 0 (Background)
//Storyboard Layer 1 (Fail)
//Storyboard Layer 2 (Pass)
//Storyboard Layer 3 (Foreground)
//Storyboard Sound Samples

[TimingPoints]
0,500,4,1,0,100,1,0

[HitObjects]
128,144,4250,5,0,0:0:0:0:
128,144,4375,1,0,0:0:0:0:
308,248,5125,1,0,0:0:0:0:
308,248,5250,1,0,0:0:0:0:
121,171,6000,5,0,0:0:0:0:
121,171,6125,1,0,0:0:0:0:
420,158,6625,1,0,0:0:0:0:
420,158,6750,1,0,0:0:0:0:
129,278,7500,1,0,0:0:0:0:
125,270,7625,1,0,0:0:0:0:
120,260,7750,1,0,0:0:0:0:
212,197,8875,1,0,0:0:0:0:
225,191,9000,1,0,0:0:0:0:
160,221,9875,1,0,0:0:0:0:
323,149,10000,1,0,0:0:0:0:
270,273,10125,1,0,0:0:0:0:
221,106,10250,1,0,0:0:0:0:
195,222,10875,1,0,0:0:0:0:
216,213,11000,1,0,0:0:0:0:
256,192,11500,12,0,12000,0:0:0:0:
140,170,13000,5,0,0:0:0:0:
212,149,13125,1,0,0:0:0:0:
190,228,13250,1,0,0:0:0:0:
223,208,13875,1,0,0:0:0:0:
460,29,14500,1,8,0:0:0:0:
185,248,14750,1,0,0:0:0:0:
185,248,14875,1,0,0:0:0:0:
248,142,15375,1,0,0:0:0:0:
271,133,15500,1,0,0:0:0:0:
298,297,15875,1,0,0:0:0:0:
325,261,16000,1,0,0:0:0:0:
190,126,16500,1,0,0:0:0:0:
190,126,16625,1,0,0:0:0:0:
190,126,16750,1,0,0:0:0:0:
152,249,17250,5,0,0:0:0:0:
296,256,17375,1,0,0:0:0:0:
172,107,17625,1,0,0:0:0:0:
299,113,17750,1,0,0:0:0:0:
230,184,18000,1,0,0:0:0:0:
256,192,18500,12,0,21750,0:0:0:0:
112,123,23500,5,0,0:0:0:0:
274,264,24000,1,8,0:0:0:0:
61,97,24500,1,0,0:0:0:0:
108,290,25125,1,8,0:0:0:0:
217,164,25875,5,0,0:0:0:0:
217,164,26125,1,0,0:0:0:0:
50,157,26875,1,0,0:0:0:0:
80,156,27000,1,0,0:0:0:0:
108,156,27125,1,0,0:0:0:0:
125,62,27500,1,0,0:0:0:0:
166,259,27750,1,0,0:0:0:0:
255,138,28000,1,0,0:0:0:0:
43,181,28250,1,0,0:0:0:0:
139,274,28750,1,0,0:0:0:0:
202,45,29000,1,0,0:0:0:0:
183,148,29500,2,0,B|473:238|472:237,1,300
469,236,30125,1,0,0:0:0:0:
97,64,31000,1,0,0:0:0:0:
112,111,32750,5,0,0:0:0:0:
176,176,32875,1,0,0:0:0:0:
194,310,33500,1,0,0:0:0:0:
256,306,33625,1,0,0:0:0:0:
142,78,34250,1,0,0:0:0:0:
208,206,34500,1,0,0:0:0:0:
363,286,34750,1,0,0:0:0:0:
78,98,36000,1,0,0:0:0:0:
195,235,36500,1,0,0:0:0:0:
228,195,36625,1,0,0:0:0:0:
226,226,36750,1,0,0:0:0:0:
371,62,37250,1,0,0:0:0:0:
361,122,37500,1,0,0:0:0:0:
222,62,37750,1,0,0:0:0:0:
277,237,38375,5,0,0:0:0:0:
384,98,38875,1,0,0:0:0:0:
332,157,39500,1,0,0:0:0:0:
175,261,39875,1,0,0:0:0:0:
111,90,40500,1,0,0:0:0:0:
226,282,40750,1,0,0:0:0:0:
332,110,41125,1,0,0:0:0:0:
82,140,41875,1,0,0:0:0:0:
106,145,42000,1,0,0:0:0:0:
228,50,43125,5,8,0:0:0:0:
112,288,44375,1,8,0:0:0:0:
374,78,45625,1,8,0:0:0:0:
256,192,46000,12,8,50500,0:0:0:0:
104,152,51500,5,0,0:0:0:0:
135,159,51625,1,0,0:0:0:0:
171,162,51750,1,0,0:0:0:0:
199,159,51875,1,0,0:0:0:0:
236,147,52000,1,0,0:0:0:0:
441,50,52125,1,8,0:0:0:0:
