osu file format v14

[General]
AudioFilename: audio.mp3
AudioLeadIn: 0
PreviewTime: -1
Countdown: 1
SampleSet: Normal
StackLeniency: 0.7
Mode: 0
LetterboxInBreaks: 0
WidescreenStoryboard: 0

[Editor]
DistanceSpacing: 1
BeatDivisor: 4
GridSize: 16
TimelineZoom: 1

[Metadata]
Title:Alone
TitleUnicode:Alone
Artist:Marshmello
ArtistUnicode:Marshmello
Creator:Zigma
Version:Zigmas Extra
Source:
Tags:
BeatmapID:1380667
BeatmapSetID:651477

[Difficulty]
HPDrainRate:5
CircleSize:4
OverallDifficulty:5
ApproachRate:10
SliderMultiplier:1.60000000596046
SliderTickRate:3

[Events]
//Background and Video events
//Break Periods
//Storyboard Layer 0 (Background)
//Storyboard Layer 1 (Fail)
//Storyboard Layer 2 (Pass)
//Storyboard Layer 3 (Foreground)
//Storyboard Sound Samples

[TimingPoints]
87,333.333333333333,4,1,0,100,1,0

[HitObjects]
48,320,88,5,0,0:0:0:0:
144,64,504,1,0,0:0:0:0:
272,320,921,1,0,0:0:0:0:
208,208,1336,1,0,0:0:0:0:
384,160,1753,1,0,0:0:0:0:
416,320,2170,1,0,0:0:0:0:
240,320,2503,2,0,P|160:320|192:320,3,80.000000298023
272,192,3470,1,0,0:0:0:0:
368,192,3657,2,0,L|368:112,1,80.000000298023
128,192,4125,5,0,0:0:0:0:
48,192,4312,2,0,L|48:288,1,80.000000298023
224,80,4753,1,0,0:0:0:0:
304,224,5170,1,0,0:0:0:0:
176,224,5586,1,0,0:0:0:0:
320,112,5998,1,0,0:0:0:0:
304,208,6373,2,0,L|384:208,1,80.000000298023
304,304,6841,1,0,0:0:0:0:
64,304,7253,1,0,0:0:0:0:
256,192,7670,1,0,0:0:0:0:
208,320,8086,1,0,0:0:0:0:
96,112,8336,1,0,0:0:0:0:
336,96,8503,1,0,0:0:0:0:
160,352,9753,5,0,0:0:0:0:
192,208,10170,1,0,0:0:0:0:
256,304,10586,1,0,0:0:0:0:
64,208,10962,1,0,0:0:0:0:
208,144,11336,1,0,0:0:0:0:
256,144,11617,1,0,0:0:0:0:
304,144,11898,5,0,0:0:0:0:
128,64,13209,1,0,0:0:0:0:
320,176,13584,1,0,0:0:0:0:
128,224,13958,1,0,0:0:0:0:
224,64,14427,1,0,0:0:0:0:
208,192,14708,2,0,L|160:256,3,80.000000298023
176,80,16487,1,0,0:0:0:0:
176,80,16955,2,0,P|272:80|256:80,1,80.000000298023
96,144,17330,1,0,0:0:0:0:
160,288,17798,1,0,0:0:0:0:
192,336,18266,1,0,0:0:0:0:
256,336,18454,1,0,0:0:0:0:
320,336,18641,1,0,0:0:0:0:
144,64,19838,5,0,0:0:0:0:
384,240,20139,1,0,0:0:0:0:
64,320,20420,1,0,0:0:0:0:
64,320,20701,1,0,0:0:0:0:
64,320,20982,1,0,0:0:0:0:
304,320,21638,1,0,0:0:0:0:
144,192,22012,1,0,0:0:0:0:
304,144,22293,1,0,0:0:0:0:
304,144,22574,1,0,0:0:0:0:
80,144,23323,1,0,0:0:0:0:
272,112,23754,1,0,0:0:0:0:
272,112,24087,1,0,0:0:0:0:
112,48,24421,1,0,0:0:0:0:
80,320,24728,1,0,0:0:0:0:
400,336,24915,1,0,0:0:0:0:
224,224,25009,1,0,0:0:0:0:
224,224,25384,5,0,0:0:0:0:
224,224,25758,1,0,0:0:0:0:
224,224,26039,1,0,0:0:0:0:
336,112,26695,1,0,0:0:0:0:
400,336,27088,1,0,0:0:0:0:
48,160,27350,1,0,0:0:0:0:
48,224,27631,1,0,0:0:0:0:
208,80,28006,1,0,0:0:0:0:
160,320,28380,1,0,0:0:0:0:
304,176,28755,1,0,0:0:0:0:
80,160,29036,1,0,0:0:0:0:
304,352,29411,1,0,0:0:0:0:
208,256,29598,1,0,0:0:0:0:
352,224,29972,5,0,0:0:0:0:
352,224,30347,1,0,0:0:0:0:
352,224,30628,1,0,0:0:0:0:
32,80,30909,1,0,0:0:0:0:
128,272,31190,1,0,0:0:0:0:
208,80,31471,1,0,0:0:0:0:
304,240,31752,1,0,0:0:0:0:
368,80,32126,1,0,0:0:0:0:
80,64,32501,1,0,0:0:0:0:
144,320,32782,1,0,0:0:0:0:
304,80,33063,1,0,0:0:0:0:
384,336,33250,1,0,0:0:0:0:
48,144,33438,1,0,0:0:0:0:
112,224,33812,2,0,L|128:336,1,80.000000298023
208,288,34187,2,0,L|192:208,1,80.000000298023
288,192,34561,2,0,L|304:304,1,80.000000298023
272,240,34749,2,0,B|-112:528|352:16,1,600.000002235172
144,240,36247,2,0,B|352:336|320:0|224:128,1,320.000001192092
64,112,37088,2,0,L|112:240,1,120.000000447034
176,192,37504,6,0,L|176:48,1,120.000000447034
288,112,37921,6,0,B|240:272|256:240,1,120.000000447034
432,208,38338,2,0,L|368:80,1,120.000000447034
32,32,38754,2,0,B|32:320|32:320|496:320,1,720.000002682207
160,272,41088,2,0,L|368:96,1,240.000000894069
336,32,41754,1,0,0:0:0:0:
256,48,41838,2,0,P|160:176|480:176,1,680.000002533195
272,272,44004,2,0,P|336:80|336:80,1,200.000000745057
96,80,44671,2,0,L|272:240,1,200.000000745057
80,288,45338,1,0,0:0:0:0:
160,272,45504,2,0,B|272:128|272:128|464:176|464:176|400:320|400:320|352:304,1,560.000002086161
304,352,46838,1,0,0:0:0:0:
208,336,47004,2,0,B|48:304|48:304|64:224,1,240.000000894069
80,128,47838,1,0,0:0:0:0:
160,352,48254,1,0,0:0:0:0:
32,64,48671,2,0,B|480:64|480:64|480:240|480:240|192:352,1,920.000003427264
80,96,50838,1,0,0:0:0:0:
240,320,51004,1,0,0:0:0:0:
352,80,51171,1,0,0:0:0:0:
224,192,51421,1,0,0:0:0:0:
32,304,51754,1,0,0:0:0:0:
128,48,52254,2,0,L|208:144,1,120.000000447034
240,304,52671,1,0,0:0:0:0:
288,96,53004,1,0,0:0:0:0:
352,256,53337,1,0,0:0:0:0:
