osu file format v14

[General]
AudioFilename: audio.mp3
AudioLeadIn: 0
PreviewTime: 101413
Countdown: 0
SampleSet: Normal
StackLeniency: 0.7
Mode: 0
LetterboxInBreaks: 0
WidescreenStoryboard: 0

[Editor]
Bookmarks: 5,13526,27047,40568,54089,67610,77751,81131,94652,108174,121695,123385,135216
DistanceSpacing: 1
BeatDivisor: 4
GridSize: 4
TimelineZoom: 1

[Metadata]
Title:Alone
TitleUnicode:Alone
Artist:Marshmello
ArtistUnicode:Marshmello
Creator:Venix
Version:ReFaller's Hard
Source:
Tags:Original Mix Monstercat Trap [C_u_r_i] C_u_r_i Curi MkGuh ReFaller Hazu Hazu-
BeatmapID:1382388
BeatmapSetID:649264

[Difficulty]
HPDrainRate:5
CircleSize:4
OverallDifficulty:7
ApproachRate:7.5
SliderMultiplier:1.4
SliderTickRate:1

[Events]
//Background and Video events
0,0,"bggggggggggggggggggg.jpg",0,0
//Break Periods
2,67610,76926
//Storyboard Layer 0 (Background)
//Storyboard Layer 1 (Fail)
//Storyboard Layer 2 (Pass)
//Storyboard Layer 3 (Foreground)
//Storyboard Sound Samples

[TimingPoints]
5,422.535211267606,4,2,0,30,1,0
27047,-100,4,2,0,20,0,0
28314,-100,4,2,0,25,0,0
30005,-100,4,2,0,30,0,0
31695,-100,4,2,0,35,0,0
33385,-100,4,2,0,38,0,0
35075,-100,4,2,0,42,0,0
36765,-100,4,2,0,45,0,0
38455,-100,4,2,0,50,0,0
38878,-100,4,2,0,20,0,0
40145,-100,4,2,0,80,0,0
40568,-100,4,2,0,100,0,1
40674,-100,4,2,0,70,0,0
54089,-100,4,2,0,100,0,0
54300,-100,4,2,0,70,0,0
60850,-100,4,2,0,100,0,0
60955,-100,4,2,0,70,0,0
77751,-100,4,2,0,20,0,0
81131,-100,4,1,0,50,0,0
84300,-100,4,1,0,30,0,0
84512,-100,4,1,0,55,0,0
86202,-100,4,1,0,60,0,0
87681,-100,4,2,0,40,0,0
87892,-100,4,1,0,60,0,0
90427,-100,4,1,0,65,0,0
92962,-100,4,1,0,70,0,0
94652,-100,4,1,0,90,0,0
94864,-100,4,1,0,75,0,0
100990,-100,4,1,0,100,0,0
101413,-100,4,1,0,60,0,0
101835,-100,4,1,0,62,0,0
102258,-100,4,1,0,65,0,0
102681,-100,4,1,0,67,0,0
103103,-100,4,1,0,70,0,0
103526,-100,4,1,0,72,0,0
103948,-100,4,1,0,75,0,0
104371,-100,4,1,0,77,0,0
104793,-100,4,1,0,80,0,0
105216,-100,4,1,0,82,0,0
105638,-100,4,1,0,85,0,0
106061,-100,4,1,0,90,0,0
106378,-100,4,2,0,5,0,0
108174,-90.9090909090909,4,2,0,90,0,1
121695,-90.9090909090909,4,2,0,70,0,0
123385,-90.9090909090909,4,2,0,95,0,1
135216,-100,4,2,0,70,0,0

[Colours]
Combo1 : 180,180,180
Combo2 : 17,179,232
Combo3 : 212,212,212
Combo4 : 23,107,200

[HitObjects]
136,44,13526,5,2,0:0:0:0:
56,69,13948,1,0,0:0:0:0:
56,153,14371,1,2,0:0:0:0:
136,179,14793,2,0,B|176:184|208:160,2,70,2|0|2,0:0|0:0|0:0,0:0:0:0:
448,100,16483,5,2,0:0:0:0:
448,184,16905,1,0,0:0:0:0:
368,210,17328,1,2,0:0:0:0:
319,142,17751,1,0,0:0:0:0:
368,75,18174,2,0,B|394:54|434:59,2,70,2|0|2,0:0|0:0|0:0,0:0:0:0:
104,308,19864,5,2,0:0:0:0:
168,228,20286,1,2,0:0:0:0:
256,280,20709,1,0,0:0:0:0:
320,200,21131,1,2,0:0:0:0:
408,252,21554,2,0,L|488:236,2,70,2|0|2,0:0|0:0|0:0,0:0:0:0:
424,96,23244,5,2,0:0:0:0:
348,168,23666,1,0,0:0:0:0:
256,120,24089,1,2,0:0:0:0:
164,72,24512,1,0,0:0:0:0:
88,144,24934,2,0,L|8:128,2,70,2|0|2,0:0|0:0|0:0,0:0:0:0:
328,244,26624,5,0,0:0:0:0:
328,244,27047,2,0,B|356:296|328:344,2,105,4|2|2,0:0|0:0|0:0,0:0:0:0:
172,224,28314,1,2,0:0:0:0:
172,224,28737,2,0,B|112:222|85:174,2,105,0|2|2,0:0|0:0|0:0,0:0:0:0:
268,100,30005,1,2,0:0:0:0:
268,100,30428,6,0,B|299:49|354:49,2,105,0|2|2,0:0|0:0|0:0,0:0:0:0:
244,284,31695,1,2,0:0:0:0:
244,284,32118,2,0,B|212:334|157:334,2,105,0|2|2,0:0|0:0|0:0,0:0:0:0:
244,284,33385,2,0,B|228:248|228:212,1,70,2|0,0:0|0:0,0:0:0:0:
264,148,33807,6,0,B|318:122|366:130,2,105,2|2|2,0:0|0:0|0:0,0:0:0:0:
140,344,35075,2,0,B|156:308|155:276,1,70,2|0,0:0|0:0,0:0:0:0:
120,208,35497,2,0,B|66:182|18:190,2,105,2|2|2,0:0|0:0|0:0,0:0:0:0:
392,208,36765,1,2,0:0:0:0:
476,236,36976,1,0,0:0:0:0:
408,296,37188,6,0,B|354:322|306:314,2,105,2|2|2,0:0|0:0|0:0,0:0:0:0:
120,208,38455,1,2,0:0:0:0:
36,236,38666,1,0,0:0:0:0:
52,148,38878,1,2,0:0:0:0:
52,148,40145,5,14,0:0:0:0:
460,148,40568,1,4,1:0:0:0:
436,60,40779,1,2,0:0:0:0:
372,128,40990,2,0,L|356:196,1,70,2|0,0:0|0:0,0:0:0:0:
332,280,41413,1,2,0:0:0:0:
244,304,41624,2,0,L|176:320,1,70,0|8,0:0|0:0,0:0:0:0:
104,244,42047,2,0,L|172:228,1,70,0|0,0:0|1:0,0:0:0:0:
88,340,42469,5,2,0:0:0:0:
52,168,42681,1,2,0:0:0:0:
52,168,43103,1,2,0:0:0:0:
152,144,43314,1,0,0:0:0:0:
172,227,43526,2,0,L|188:295,1,70,0|0,1:0|0:0,0:0:0:0:
291,276,43948,2,0,L|359:260,1,70,0|2,1:0|0:0,0:0:0:0:
452,240,44371,1,8,0:0:0:0:
452,240,44793,5,2,0:0:0:0:
359,259,45005,1,0,0:0:0:0:
268,188,45216,5,2,0:0:0:0:
361,169,45428,1,0,0:0:0:0:
280,288,45638,5,0,1:0:0:0:
192,304,45850,1,2,0:0:0:0:
192,304,46061,2,0,L|180:236,1,70,8|0,0:0|0:0,0:0:0:0:
192,80,46483,1,2,0:0:0:0:
192,80,46694,2,0,L|180:148,1,70,0|4,0:0|0:0,0:0:0:0:
104,192,47117,1,0,0:0:0:0:
16,192,47328,5,0,1:0:0:0:
80,288,47540,1,2,0:0:0:0:
192,304,47751,2,0,B|229:304|264:296,1,70,2|0,0:0|0:0,0:0:0:0:
416,296,48174,2,0,B|383:288|346:288,2,70,2|0|8,0:0|0:0|0:0,0:0:0:0:
296,216,48807,1,0,0:0:0:0:
465,217,49019,6,0,B|496:232|507:270,1,70,0|2,1:0|0:0,0:0:0:0:
512,360,49441,1,2,0:0:0:0:
512,360,49864,1,2,0:0:0:0:
507,270,50075,1,0,0:0:0:0:
504,180,50286,2,0,L|500:100,1,70,0|0,1:0|0:0,0:0:0:0:
496,20,50709,5,0,1:0:0:0:
392,28,50920,1,2,0:0:0:0:
400,128,51131,1,8,0:0:0:0:
152,152,51554,2,0,L|76:160,1,70,2|0,0:0|0:0,0:0:0:0:
96,320,51976,2,0,L|88:250,1,70,2|0,0:0|0:0,0:0:0:0:
72,72,52399,5,0,1:0:0:0:
82,159,52610,1,2,0:0:0:0:
160,224,52821,2,0,L|230:232,1,70,8|0,0:0|0:0,0:0:0:0:
348,300,53244,2,0,L|278:292,1,70,2|0,0:0|0:0,0:0:0:0:
264,160,53666,2,0,L|334:168,1,70,4|0,0:0|0:0,0:0:0:0:
430,159,54089,5,4,1:0:0:0:
348,300,54406,1,0,1:0:0:0:
348,300,54512,2,0,L|280:328,1,70,8|0,0:0|1:0,0:0:0:0:
132,352,54934,2,0,L|196:325,1,70,8|0,0:0|0:0,0:0:0:0:
244,256,55357,2,0,L|270:191,1,70,0|2,1:0|0:0,0:0:0:0:
320,120,55779,6,0,L|428:120,1,105,0|0,1:0|1:0,0:0:0:0:
425,120,56202,2,0,L|489:146,1,70,8|0,0:0|1:0,0:0:0:0:
372,212,56624,2,0,L|364:288,1,70,8|0,0:0|0:0,0:0:0:0:
270,191,57047,2,0,L|198:203,2,70,2|2|0,0:0|0:0|1:0,0:0:0:0:
120,240,57786,5,0,1:0:0:0:
120,240,57892,2,0,B|84:248|64:288,1,70,8|0,0:0|1:0,0:0:0:0:
200,202,58314,2,0,B|211:166|186:129,1,70,8|0,0:0|0:0,0:0:0:0:
192,290,58737,2,0,B|216:317|261:314,1,70,0|2,1:0|0:0,0:0:0:0:
432,344,59159,6,0,B|396:303|328:308,1,105,0|0,1:0|1:0,0:0:0:0:
337,307,59582,2,0,L|372:240,1,70,8|0,0:0|1:0,0:0:0:0:
264,192,60005,2,0,L|332:164,1,70,2|2,0:0|0:0,0:0:0:0:
240,72,60427,2,0,L|320:76,1,70,4|0,1:2|0:0,0:0:0:0:
408,128,60850,5,4,1:0:0:0:
264,192,61166,1,0,1:0:0:0:
264,192,61272,2,0,L|180:192,1,70,8|0,0:0|1:0,0:0:0:0:
104,204,61695,2,0,B|72:212|36:228,1,70,8|0,0:0|0:0,0:0:0:0:
32,328,62117,2,0,B|64:320|100:304,2,70,8|2|0,0:0|0:0|1:0,0:0:0:0:
192,292,62857,5,0,1:0:0:0:
192,292,62962,2,0,L|264:300,1,70,8|0,0:0|1:0,0:0:0:0:
388,280,63385,2,0,L|380:196,1,70,2|2,0:0|0:0,0:0:0:0:
436,88,63807,1,0,1:0:0:0:
224,32,64230,6,0,B|192:80|216:140,1,105,0|0,1:0|1:0,0:0:0:0:
213,132,64652,2,0,L|143:128,1,70,8|0,0:0|1:0,0:0:0:0:
231,221,65074,2,0,L|166:247,1,70,8|0,0:0|0:0,0:0:0:0:
272,301,65497,2,0,L|239:363,1,70,8|2,0:0|0:0,0:0:0:0:
360,340,65920,6,0,B|408:308|468:332,1,105,0|0,1:0|1:0,0:0:0:0:
460,329,66343,1,8,0:0:0:0:
500,244,66554,2,0,B|520:212|512:176,1,70,0|8,1:0|0:0,0:0:0:0:
408,248,66976,1,2,0:0:0:0:
332,200,67187,2,0,B|300:180|264:187,1,70,0|2,1:0|0:0,0:0:0:0:
256,192,77751,12,0,80709,0:0:0:0:
256,192,81131,5,0,0:0:0:0:
256,192,81554,1,0,0:0:0:0:
256,192,81976,1,0,0:0:0:0:
256,192,82399,2,0,B|272:228|268:268,1,70,0|0,0:0|2:0,0:0:0:0:
248,348,82821,2,0,B|176:380|96:372,2,140
40,316,84089,1,0,0:0:0:0:
52,228,84300,1,8,0:3:0:0:
52,228,84406,1,4,0:3:0:0:
52,228,84512,6,0,L|40:156,1,70,0|0,0:0|2:0,0:0:0:0:
140,160,84934,2,0,L|152:91,1,70,0|0,0:0|2:0,0:0:0:0:
244,132,85357,2,0,B|280:116|320:120,1,70,0|0,0:0|2:0,0:0:0:0:
400,192,85779,2,0,B|364:208|324:204,1,70,0|0,0:0|2:0,0:0:0:0:
200,204,86202,2,0,L|184:344,1,140
104,292,86835,1,0,2:0:0:0:
276,272,87047,2,0,L|288:344,1,70,0|0,0:0|2:0,0:0:0:0:
287,341,87469,1,0,0:0:0:0:
384,280,87681,6,0,L|396:208,1,70,4|0,0:0|0:0,0:0:0:0:
436,48,88314,1,0,0:0:0:0:
436,48,88737,1,0,0:0:0:0:
436,48,89159,1,0,0:0:0:0:
348,84,89371,1,0,2:0:0:0:
256,100,89582,2,0,B|184:112|112:120,1,140
36,120,90216,2,0,B|72:114|108:110,1,70,0|0,2:0|0:0,0:0:0:0:
200,200,90638,1,0,2:0:0:0:
200,200,90850,2,0,B|164:206|128:210,1,70,0|0,0:0|2:0,0:0:0:0:
36,224,91272,6,0,B|32:260|45:293,1,70,0|0,0:0|2:0,0:0:0:0:
184,368,91695,2,0,B|188:332|174:298,1,70,0|0,0:0|2:0,0:0:0:0:
288,228,92117,2,0,L|428:216,1,140
512,256,92751,1,0,2:0:0:0:
512,256,92962,5,0,0:0:0:0:
496,348,93174,1,0,2:0:0:0:
427,216,93385,5,0,0:0:0:0:
443,124,93597,1,0,2:0:0:0:
352,36,93807,5,4,0:2:0:0:
344,32,94230,1,4,0:2:0:0:
256,16,94441,1,0,0:0:0:0:
168,32,94652,6,0,L|92:44,1,70,4|0,0:0|0:0,0:0:0:0:
48,152,95075,2,0,L|60:228,1,70,8|0,0:0|0:0,0:0:0:0:
176,152,95497,2,0,L|252:140,1,70,8|0,0:0|0:0,0:0:0:0:
364,168,95920,2,0,L|376:244,1,70,8|0,0:0|0:0,0:0:0:0:
276,352,96343,2,2,B|336:336|414:330,2,140
68,312,97610,1,0,0:0:0:0:
68,312,97716,1,0,0:0:0:0:
68,312,97821,1,0,0:0:0:0:
68,312,97927,1,0,0:0:0:0:
68,312,98033,6,0,L|144:304,1,70,8|0,0:0|0:0,0:0:0:0:
208,184,98455,2,0,L|138:191,1,70,8|0,0:0|0:0,0:0:0:0:
244,332,98878,2,0,L|320:324,1,70,8|0,0:0|0:0,0:0:0:0:
384,204,99300,2,0,L|314:211,1,70,8|0,0:0|0:0,0:0:0:0:
244,332,99723,1,0,0:0:0:0:
244,332,99828,1,0,0:0:0:0:
244,332,99934,1,0,0:0:0:0:
244,332,100040,1,0,0:0:0:0:
244,332,100145,1,2,0:2:0:0:
328,360,100357,6,0,L|368:372,2,35,0|0|2,0:0|0:0|0:2,0:0:0:0:
236,236,100779,1,0,0:0:0:0:
160,376,100990,1,4,0:0:0:0:
256,192,101413,12,14,106378,1:0:0:0:
92,208,108174,6,0,L|16:216,1,77.0000023498536,4|0,1:0|0:0,0:0:0:0:
168,260,108596,2,0,L|244:252,1,77.0000023498536,0|0,1:0|0:0,0:0:0:0:
84,292,109019,2,0,L|92:368,1,77.0000023498536,8|0,0:0|0:0,0:0:0:0:
176,176,109441,2,0,L|159:23,1,154.000004699707,0|0,1:0|0:0,0:0:0:0:
76,28,110075,1,0,0:0:0:0:
248,16,110286,2,0,L|256:92,1,77.0000023498536,0|0,1:0|0:0,0:0:0:0:
264,184,110709,1,8,0:0:0:0:
264,184,111131,1,2,0:0:0:0:
336,148,111343,1,0,0:0:0:0:
416,128,111554,6,0,B|453:120|496:128,1,77.0000023498536,0|0,1:0|0:0,0:0:0:0:
456,212,111976,2,0,B|464:248|456:288,1,77.0000023498536,0|0,1:0|0:0,0:0:0:0:
368,272,112399,2,0,B|332:260|288:260,1,77.0000023498536,8|0,0:0|0:0,0:0:0:0:
240,336,112821,2,0,B|284:260|232:192,1,154.000004699707,0|2,1:0|0:0,0:0:0:0:
204,92,113455,1,0,0:0:0:0:
151,191,113666,2,0,L|311:159,2,154.000004699707,0|8|0,1:0|0:0|0:0,0:0:0:0:
72,136,114723,1,0,0:0:0:0:
216,264,114934,6,0,B|224:300|200:340,1,77.0000023498536,4|0,1:0|0:0,0:0:0:0:
57,209,115357,2,0,B|49:173|73:133,1,77.0000023498536,0|0,1:0|0:0,0:0:0:0:
136,72,115779,1,8,0:0:0:0:
160,152,115990,1,0,0:0:0:0:
224,84,116202,2,0,B|284:24|376:48,1,154.000004699707,0|0,1:0|0:0,0:0:0:0:
452,72,116835,1,0,0:0:0:0:
496,180,117047,2,0,L|480:260,1,77.0000023498536,0|0,1:0|0:0,0:0:0:0:
360,284,117469,1,8,0:0:0:0:
360,284,117892,1,2,0:0:0:0:
480,255,118103,1,0,0:0:0:0:
360,284,118314,6,0,L|280:300,1,77.0000023498536,0|0,1:0|0:0,0:0:0:0:
132,268,118737,2,0,L|207:252,1,77.0000023498536,0|0,1:0|0:0,0:0:0:0:
148,356,119159,2,0,L|72:371,1,77.0000023498536,8|0,0:0|0:0,0:0:0:0:
132,268,119582,2,0,B|176:192|124:124,1,154.000004699707,0|2,1:0|0:0,0:0:0:0:
48,176,120216,1,0,0:0:0:0:
124,124,120427,2,0,L|112:48,1,77.0000023498536,0|0,1:0|0:0,0:0:0:0:
232,92,120850,2,0,B|244:160|244:160|240:176|240:176|252:244,1,154.000004699707,8|0,0:0|0:0,0:0:0:0:
272,336,121483,1,0,0:0:0:0:
368,328,121695,5,0,0:0:0:0:
368,328,122962,2,0,L|376:368,3,38.5000011749268
376,316,123385,2,0,L|452:296,1,77.0000023498536,4|0,1:0|0:0,0:0:0:0:
300,256,123807,2,0,L|224:276,1,77.0000023498536,0|0,1:0|0:0,0:0:0:0:
96,264,124230,2,0,B|64:236|72:188,1,77.0000023498536,0|2,1:0|0:0,0:0:0:0:
71,194,124547,2,0,L|184:164,1,115.50000352478,0|0,1:0|1:0,0:0:0:0:
284,64,125075,6,0,L|268:144,1,77.0000023498536,0|0,1:0|0:0,0:0:0:0:
412,144,125497,2,0,L|344:189,1,77.0000023498536,0|0,1:0|0:0,0:0:0:0:
472,296,125920,2,0,L|355:272,2,115.50000352478,0|0|0,1:0|1:0|1:0,0:0:0:0:
424,200,126765,1,0,1:0:0:0:
336,240,126976,1,0,0:0:0:0:
248,280,127188,2,0,L|232:368,1,77.0000023498536,0|0,1:0|0:0,0:0:0:0:
140,360,127610,2,0,B|64:373,1,77.0000023498536,0|2,1:0|0:0,0:0:0:0:
44,377,127927,1,0,1:0:0:0:
28,381,128033,2,0,B|4:349|20:301,1,77.0000023498536,2|0,0:0|1:0,0:0:0:0:
136,240,128455,6,0,L|56:228,1,77.0000023498536,4|0,1:0|0:0,0:0:0:0:
137,147,128878,2,0,L|89:82,1,77.0000023498536,0|0,1:0|0:0,0:0:0:0:
204,84,129300,2,0,L|216:4,1,77.0000023498536,0|2,1:0|0:0,0:0:0:0:
215,7,129617,2,0,B|240:60|304:80,1,115.50000352478,0|0,1:0|1:0,0:0:0:0:
392,88,130145,5,0,1:0:0:0:
488,95,130357,1,0,0:0:0:0:
484,196,130568,2,0,L|472:272,1,77.0000023498536,0|0,1:0|0:0,0:0:0:0:
384,304,130990,2,0,B|264:344,2,115.50000352478,0|0|0,1:0|1:0|1:0,0:0:0:0:
472,272,131835,5,0,1:0:0:0:
460,368,132047,1,0,0:0:0:0:
384,304,132258,2,0,L|372:227,1,77.0000023498536,0|0,1:0|0:0,0:0:0:0:
452,188,132681,2,0,L|463:111,1,77.0000023498536,0|2,1:0|0:0,0:0:0:0:
488,112,132997,2,0,L|373:94,1,115.50000352478,0|0,1:0|1:0,0:0:0:0:
300,20,133526,5,0,1:0:0:0:
204,64,133737,1,0,0:0:0:0:
220,164,133948,1,0,1:0:0:0:
320,180,134160,1,0,0:0:0:0:
373,94,134371,1,0,1:0:0:0:
284,100,134582,5,2,0:0:0:0:
284,100,134688,1,0,1:0:0:0:
256,248,134899,1,2,0:0:0:0:
256,248,135005,1,0,1:0:0:0:
408,207,135216,5,4,0:0:0:0:
