osu file format v14

[General]
AudioFilename: audio.mp3
AudioLeadIn: 0
PreviewTime: 101413
Countdown: 0
SampleSet: Soft
StackLeniency: 0.7
Mode: 0
LetterboxInBreaks: 0
WidescreenStoryboard: 0

[Editor]
Bookmarks: 13526,27047,40568,54089,67610,81131,94652,108174,121695,123385,135216
DistanceSpacing: 1.8
BeatDivisor: 4
GridSize: 4
TimelineZoom: 1

[Metadata]
Title:Alone
TitleUnicode:Alone
Artist:Marshmello
ArtistUnicode:Marshmello
Creator:Venix
Version:Hazu's Insane
Source:
Tags:Original Mix Monstercat Trap [C_u_r_i] C_u_r_i Curi MkGuh ReFaller Hazu Hazu-
BeatmapID:1379275
BeatmapSetID:649264

[Difficulty]
HPDrainRate:7
CircleSize:3.8
OverallDifficulty:7.5
ApproachRate:8
SliderMultiplier:1.6
SliderTickRate:1

[Events]
//Background and Video events
0,0,"bggggggggggggggggggg.jpg",0,0
//Break Periods
//Storyboard Layer 0 (Background)
//Storyboard Layer 1 (Fail)
//Storyboard Layer 2 (Pass)
//Storyboard Layer 3 (Foreground)
//Storyboard Sound Samples

[TimingPoints]
5,422.535211267606,4,2,0,30,1,0
13526,-111.111111111111,4,2,0,30,0,0
16800,-111.111111111111,4,2,0,5,0,0
16906,-111.111111111111,4,2,0,30,0,0
20181,-111.111111111111,4,2,0,5,0,0
20286,-111.111111111111,4,2,0,30,0,0
23561,-111.111111111111,4,2,0,5,0,0
23666,-111.111111111111,4,2,0,30,0,0
26941,-111.111111111111,4,2,0,5,0,0
27047,-111.111111111111,4,2,0,20,0,0
28314,-111.111111111111,4,2,0,25,0,0
30005,-111.111111111111,4,2,0,30,0,0
31695,-111.111111111111,4,2,0,35,0,0
33385,-111.111111111111,4,2,0,38,0,0
35075,-111.111111111111,4,2,0,42,0,0
36765,-111.111111111111,4,2,0,45,0,0
38455,-111.111111111111,4,2,0,50,0,0
38878,-111.111111111111,4,2,0,20,0,0
40145,-90.9090909090909,4,2,0,80,0,0
40462,-90.9090909090909,4,2,0,5,0,0
40568,-100,4,2,0,100,0,1
40674,-100,4,2,0,70,0,0
54089,-100,4,2,0,100,0,0
54195,-100,4,2,0,70,0,0
60850,-100,4,2,0,100,0,0
60955,-100,4,2,0,70,0,0
67610,-142.857142857143,4,2,0,20,0,0
68033,-142.857142857143,4,2,0,15,0,0
68455,-142.857142857143,4,2,0,10,0,0
69300,-142.857142857143,4,2,0,13,0,0
70990,-142.857142857143,4,2,0,16,0,0
73103,-142.857142857143,4,2,0,20,0,0
74265,-142.857142857143,4,2,0,5,0,0
74371,-142.857142857143,4,2,0,25,0,0
76061,-142.857142857143,4,2,0,30,0,0
77328,-142.857142857143,4,2,0,35,0,0
78596,-142.857142857143,4,2,0,40,0,0
80286,-142.857142857143,4,2,0,45,0,0
81131,-125,4,2,0,50,0,0
84512,-125,4,2,0,55,0,0
86202,-125,4,2,0,60,0,0
87681,-125,4,2,0,40,0,0
87892,-111.111111111111,4,2,0,60,0,0
90427,-111.111111111111,4,2,0,65,0,0
92962,-111.111111111111,4,2,0,70,0,0
94652,-100,4,1,0,90,0,0
94864,-100,4,1,0,75,0,0
100990,-100,4,1,0,100,0,0
101307,-100,4,2,0,5,0,0
101413,-100,4,1,0,80,0,0
108174,-90.9090909090909,4,2,0,90,0,1
121695,-90.9090909090909,4,2,0,70,0,0
123385,-90.9090909090909,4,2,0,95,0,1
135216,-100,4,2,0,70,0,0

[Colours]
Combo1 : 180,180,180
Combo2 : 17,179,232
Combo3 : 212,212,212
Combo4 : 23,107,200

[HitObjects]
120,112,13526,6,0,P|124:152|128:200,1,71.9999978027344,2|0,0:0|0:0,0:0:0:0:
204,312,13948,2,0,P|200:272|196:224,1,71.9999978027344
40,156,14371,2,0,P|44:212|52:308,1,143.999995605469,2|2,0:0|0:0,0:0:0:0:
120,380,15005,1,0,0:0:0:0:
136,224,15216,5,2,0:0:0:0:
136,224,16483,2,0,P|192:228|268:232,1,107.999996704102,2|0,0:0|0:0,0:0:0:0:
276,260,16906,6,0,L|360:264,1,71.9999978027344,2|0,0:0|0:0,0:0:0:0:
488,200,17328,2,0,L|416:196,1,71.9999978027344
232,184,17751,2,0,P|240:252|248:360,1,143.999995605469,2|2,0:0|0:0,0:0:0:0:
320,192,18385,1,0,0:0:0:0:
152,280,18596,5,2,0:0:0:0:
152,280,19864,2,0,P|120:240|128:168,1,107.999996704102,2|0,0:0|0:0,0:0:0:0:
140,144,20286,6,0,P|184:140|236:136,1,71.9999978027344,2|0,0:0|0:0,0:0:0:0:
360,176,20709,2,0,P|324:178|288:182,1,71.9999978027344
188,60,21131,2,0,L|236:56|332:48,1,143.999995605469,2|2,0:0|0:0,0:0:0:0:
444,96,21765,1,0,0:0:0:0:
268,144,21976,5,2,0:0:0:0:
268,144,23244,2,0,P|272:196|276:280,1,107.999996704102,2|0,0:0|0:0,0:0:0:0:
276,296,23666,6,0,P|308:288|368:280,1,71.9999978027344,2|0,0:0|0:0,0:0:0:0:
512,248,24089,2,0,P|476:242|441:233,1,71.9999978027344,2|0,0:0|0:0,0:0:0:0:
336,76,24512,2,0,P|352:108|312:212,1,143.999995605469,2|2,0:0|0:0,0:0:0:0:
232,272,25145,1,0,0:0:0:0:
260,132,25357,5,2,0:0:0:0:
260,132,26624,2,0,P|264:180|268:252,1,107.999996704102,2|0,0:0|0:0,0:0:0:0:
272,292,27047,6,0,P|244:288|168:280,1,71.9999978027344,4|0,0:0|0:0,0:0:0:0:
380,216,27469,2,0,P|408:220|484:228,1,71.9999978027344
320,376,27892,2,0,P|244:368|164:360,1,143.999995605469,2|0,0:0|0:0,0:0:0:0:
56,304,28526,1,0,0:0:0:0:
240,276,28737,6,0,P|280:280|328:284,1,71.9999978027344,2|0,0:0|0:0,0:0:0:0:
456,232,29159,2,0,P|416:228|368:224,1,71.9999978027344,2|0,0:0|0:0,0:0:0:0:
248,152,29582,2,0,P|288:156|336:160,1,71.9999978027344,2|0,0:0|0:0,0:0:0:0:
472,120,30005,1,2,0:0:0:0:
472,120,30216,1,0,0:0:0:0:
336,12,30427,6,0,P|340:52|344:104,1,71.9999978027344,2|0,0:0|0:0,0:0:0:0:
388,224,30850,2,0,P|392:184|396:132,1,71.9999978027344
264,100,31272,2,0,B|184:92|208:144|112:128,1,143.999995605469,2|0,0:0|0:0,0:0:0:0:
144,32,31906,1,0,0:0:0:0:
248,184,32117,6,0,P|244:224|240:276,1,71.9999978027344,2|0,0:0|0:0,0:0:0:0:
312,368,32540,2,0,P|314:332|318:296,1,71.9999978027344,2|0,0:0|0:0,0:0:0:0:
164,252,32962,2,0,P|160:292|156:344,1,71.9999978027344,2|0,0:0|0:0,0:0:0:0:
292,208,33385,1,2,0:0:0:0:
292,208,33596,1,0,0:0:0:0:
152,152,33807,6,0,P|112:156|64:160,1,71.9999978027344,2|0,0:0|0:0,0:0:0:0:
228,64,34230,2,0,P|263:60|299:57,1,71.9999978027344
434,100,34652,2,0,P|462:152|418:248,1,143.999995605469,2|0,0:0|0:0,0:0:0:0:
356,320,35286,1,0,0:0:0:0:
292,176,35497,6,0,P|328:172|380:168,1,71.9999978027344,2|0,0:0|0:0,0:0:0:0:
505,93,35920,2,0,P|469:95|433:99,1,71.9999978027344,2|0,0:0|0:0,0:0:0:0:
276,64,36343,2,0,P|312:60|364:56,1,71.9999978027344,2|0,0:0|0:0,0:0:0:0:
484,4,36765,1,2,0:0:0:0:
484,4,36976,1,0,0:0:0:0:
416,160,37188,6,0,P|380:156|332:152,1,71.9999978027344,2|0,0:0|0:0,0:0:0:0:
216,80,37610,2,0,P|252:84|300:88,1,71.9999978027344
472,100,38033,2,0,P|464:164|456:272,1,143.999995605469,2|2,0:0|0:0,0:0:0:0:
404,340,38666,1,0,0:0:0:0:
376,196,38878,5,2,0:0:0:0:
376,196,40145,2,0,B|312:176|312:224|228:196,1,132.00000402832,12|0,0:0|0:0,0:0:0:0:
208,188,40568,6,0,P|212:224|216:284,1,80,4|0,1:0|0:0,0:0:0:0:
144,308,40885,2,0,P|140:272|136:212,1,80,0|0,1:0|0:0,0:0:0:0:
128,152,41202,5,0,1:0:0:0:
220,352,41413,1,2,0:0:0:0:
56,264,41624,1,0,0:0:0:0:
264,216,41835,2,0,P|300:220|360:224,1,80,8|0,0:0|0:0,0:0:0:0:
176,64,42258,6,0,P|140:60|80:56,1,80,0|0,1:0|0:0,0:0:0:0:
56,132,42575,2,0,P|95:134|135:139,1,80,0|0,1:0|0:0,0:0:0:0:
216,156,42892,5,0,1:0:0:0:
16,52,43103,1,2,0:0:0:0:
96,224,43314,1,2,0:0:0:0:
160,28,43526,2,0,P|204:32|260:36,1,80,0|0,1:0|0:0,0:0:0:0:
412,168,43948,6,0,P|424:208|416:268,1,80,0|0,1:0|0:0,0:0:0:0:
352,304,44265,2,0,P|340:264|348:204,1,80,0|0,1:0|0:0,0:0:0:0:
320,148,44582,5,0,1:0:0:0:
432,320,44793,1,2,0:0:0:0:
248,248,45005,1,0,0:0:0:0:
440,140,45216,2,0,P|436:180|432:248,1,80,8|0,0:0|0:0,0:0:0:0:
240,120,45638,6,0,P|244:80|248:12,1,80,0|0,1:0|0:0,0:0:0:0:
168,8,45956,2,0,P|165:47|161:87,1,80,0|0,1:0|0:0,0:0:0:0:
152,168,46272,5,0,1:0:0:0:
344,80,46483,1,2,0:0:0:0:
168,8,46695,1,2,0:0:0:0:
268,152,46906,2,0,P|264:192|260:244,1,80,4|0,0:0|0:0,0:0:0:0:
148,352,47328,6,0,P|112:348|60:344,1,80,0|0,1:0|0:0,0:0:0:0:
52,268,47646,2,0,P|91:271|131:275,1,80,0|0,1:0|0:0,0:0:0:0:
212,288,47962,5,0,1:0:0:0:
408,384,48174,1,2,0:0:0:0:
220,384,48385,1,0,0:0:0:0:
352,200,48596,2,0,P|356:240|360:296,1,80,8|0,0:0|0:0,0:0:0:0:
128,360,49019,6,0,P|124:320|120:264,1,80,0|0,1:0|0:0,0:0:0:0:
192,228,49335,2,0,P|196:268|200:324,1,80,0|0,1:0|0:0,0:0:0:0:
252,372,49652,5,0,1:0:0:0:
112,192,49864,1,2,0:0:0:0:
284,276,50075,1,2,0:0:0:0:
96,376,50286,2,0,P|100:332|104:276,1,80,0|0,1:0|0:0,0:0:0:0:
164,96,50709,6,0,P|220:84|260:96,1,80,0|0,1:0|0:0,0:0:0:0:
320,68,51026,2,0,P|376:80|416:68,1,80,0|0,1:0|0:0,0:0:0:0:
472,32,51343,5,0,1:0:0:0:
340,180,51554,1,2,0:0:0:0:
368,0,51765,1,0,0:0:0:0:
512,176,51976,2,0,P|476:172|420:168,1,80,8|0,0:0|0:0,0:0:0:0:
204,148,52399,6,0,P|208:192|212:244,1,80,0|0,1:0|0:0,0:0:0:0:
140,284,52716,2,0,P|136:240|132:188,1,80,0|0,1:0|0:0,0:0:0:0:
124,128,53033,5,0,1:0:0:0:
220,312,53244,1,2,0:0:0:0:
44,232,53455,1,2,0:0:0:0:
284,212,53666,2,0,P|344:216|396:220,1,80,4|0,0:0|0:0,0:0:0:0:
512,48,54090,6,0,P|452:44|400:40,1,80,4|0,1:0|0:0,0:0:0:0:
356,80,54406,2,0,P|296:76|244:72,1,80,0|0,1:0|0:0,0:0:0:0:
196,104,54723,5,0,1:0:0:0:
364,0,54934,1,8,0:0:0:0:
324,180,55145,1,0,0:0:0:0:
224,16,55357,2,0,P|172:20|128:24,1,80,0|2,1:0|0:0,0:0:0:0:
24,188,55779,6,0,P|20:232|40:280,1,80,0|0,1:0|0:0,0:0:0:0:
108,304,56096,2,0,P|112:260|92:212,1,80,0|0,1:0|0:0,0:0:0:0:
156,164,56413,5,0,1:0:0:0:
40,344,56624,1,8,0:0:0:0:
80,128,56835,1,0,0:0:0:0:
200,272,57047,2,0,P|244:268|304:264,1,80,2|2,0:0|0:0,0:0:0:0:
364,88,57469,6,0,P|320:92|260:96,1,80,0|0,1:0|0:0,0:0:0:0:
208,72,57786,2,0,P|164:76|104:80,1,80,0|0,1:0|0:0,0:0:0:0:
48,60,58103,5,0,1:0:0:0:
216,180,58314,1,8,0:0:0:0:
4,156,58526,1,0,0:0:0:0:
208,72,58737,2,0,P|248:76|300:80,1,80,0|2,1:0|0:0,0:0:0:0:
452,176,59159,6,0,P|464:216|444:280,1,80,0|0,1:0|0:0,0:0:0:0:
388,300,59476,2,0,P|376:260|396:196,1,80,0|0,1:0|0:0,0:0:0:0:
352,148,59793,5,0,1:0:0:0:
468,336,60005,1,2,0:0:0:0:
296,256,60216,1,2,0:0:0:0:
488,152,60427,2,0,P|484:192|480:244,1,80,4|0,0:0|0:0,0:0:0:0:
232,308,60850,6,0,P|216:264|228:212,1,80,4|0,1:0|0:0,0:0:0:0:
252,160,61166,2,0,P|268:116|256:64,1,80,0|0,1:0|0:0,0:0:0:0:
224,16,61483,5,0,1:0:0:0:
364,172,61695,1,8,0:0:0:0:
176,108,61906,1,0,0:0:0:0:
400,88,62117,2,0,P|396:48|392:0,1,80,8|2,0:0|0:0,0:0:0:0:
268,220,62540,6,0,P|272:260|276:308,1,80,0|0,1:0|0:0,0:0:0:0:
356,320,62857,2,0,P|352:280|348:232,1,80,0|0,1:0|0:0,0:0:0:0:
340,160,63174,5,0,1:0:0:0:
292,376,63385,1,2,0:0:0:0:
432,240,63596,1,2,0:0:0:0:
204,260,63807,2,0,P|164:264|120:268,1,80,0|0,1:0|0:0,0:0:0:0:
68,84,64230,6,0,P|107:80|147:76,1,80,0|0,1:0|0:0,0:0:0:0:
228,88,64547,2,0,P|267:84|307:80,1,80,0|0,1:0|0:0,0:0:0:0:
388,96,64864,5,0,1:0:0:0:
436,284,65075,1,8,0:0:0:0:
296,176,65286,1,0,0:0:0:0:
504,136,65497,2,0,P|508:172|512:228,1,80,8|2,0:0|0:0,0:0:0:0:
356,340,65920,6,0,P|324:332|276:328,1,80,0|0,1:0|0:0,0:0:0:0:
212,288,66237,2,0,P|180:296|132:300,1,80,0|0,1:0|0:0,0:0:0:0:
56,272,66554,5,0,1:0:0:0:
248,200,66765,1,8,0:0:0:0:
160,376,66976,1,2,0:0:0:0:
88,188,67188,2,0,P|92:140|96:84,1,80,0|2,1:0|0:0,0:0:0:0:
280,24,67610,6,0,L|276:104,1,55.9999982910157,4|0,0:0|0:0,0:0:0:0:
340,184,68033,2,0,L|344:104,1,55.9999982910157
200,88,68455,2,0,B|144:72|144:108|80:88,1,111.999996582031,2|2,0:0|0:0,0:0:0:0:
0,52,69089,1,0,0:0:0:0:
28,188,69300,5,2,0:0:0:0:
28,188,70779,1,0,0:0:0:0:
100,240,70990,6,0,P|140:240|176:228,1,55.9999982910157,2|0,0:0|0:0,0:0:0:0:
276,176,71413,2,0,P|248:170|220:172,1,55.9999982910157,2|0,0:0|0:0,0:0:0:0:
192,316,71835,2,0,P|276:308|328:304,1,111.999996582031,2|0,0:0|0:0,0:0:0:0:
400,352,72469,1,0,0:0:0:0:
368,212,72681,6,0,P|364:156|400:96,1,111.999996582031,2|0,0:0|0:0,0:0:0:0:
456,40,73314,1,0,0:0:0:0:
508,120,73526,2,0,P|504:152|500:192,1,55.9999982910157,2|0,0:0|0:0,0:0:0:0:
456,272,73948,2,0,P|416:264|352:256,1,83.9999974365235,2|0,0:0|0:0,0:0:0:0:
336,232,74371,6,0,L|256:236,1,55.9999982910157
156,292,74793,2,0,L|236:288,1,55.9999982910157,2|0,0:0|0:0,0:0:0:0:
276,160,75216,2,0,P|268:108|220:72,1,111.999996582031,2|0,0:0|0:0,0:0:0:0:
132,48,75850,1,0,0:0:0:0:
84,156,76061,6,0,P|88:208|92:288,1,111.999996582031,2|0,0:0|0:0,0:0:0:0:
80,356,76695,2,0,P|112:300|180:288,1,111.999996582031,2|2,0:0|0:0,0:0:0:0:
252,316,77328,1,0,0:0:0:0:
168,376,77540,1,0,0:0:0:0:
152,208,77751,6,0,P|156:172|160:132,1,55.9999982910157,2|0,0:0|0:0,0:0:0:0:
248,96,78174,2,0,P|244:132|240:172,1,55.9999982910157,2|0,0:0|0:0,0:0:0:0:
232,236,78596,1,2,0:0:0:0:
64,136,79019,1,0,0:0:0:0:
328,104,79441,6,0,P|364:108|404:112,1,55.9999982910157,2|0,0:0|0:0,0:0:0:0:
456,196,79863,2,0,P|428:193|400:189,1,55.9999982910157,2|0,0:0|0:0,0:0:0:0:
312,220,80286,1,2,0:0:0:0:
424,48,80709,1,2,0:0:0:0:
440,276,81131,6,0,L|436:320|432:364,1,64,0|0,1:0|0:0,0:0:0:0:
344,180,81554,2,0,L|348:224|352:268,1,64,0|0,1:0|0:0,0:0:0:0:
440,96,81976,2,0,L|436:140|432:184,1,64,0|0,1:0|0:0,0:0:0:0:
352,24,82399,1,0,1:0:0:0:
352,24,82610,1,0,0:0:0:0:
260,124,82821,6,0,P|224:112|184:116,1,64,0|2,1:0|0:0,0:0:0:0:
116,232,83244,2,0,P|144:206|160:170,1,64,0|2,1:0|0:0,0:0:0:0:
96,52,83666,2,0,P|103:89|127:121,2,64,0|2|0,1:0|0:0|1:0,0:0:0:0:
198,112,84300,1,2,0:0:0:0:
64,168,84512,6,0,P|36:164|0:160,1,64,0|0,1:0|0:0,0:0:0:0:
64,268,84934,2,0,P|92:272|128:276,1,64,0|0,1:0|0:0,0:0:0:0:
244,200,85357,2,0,P|268:164|248:76,1,128,0|0,1:0|1:0,0:0:0:0:
168,16,85990,1,0,0:0:0:0:
136,152,86202,6,0,P|140:204|144:296,1,128,0|0,1:0|1:0,0:0:0:0:
216,352,86835,1,2,0:0:0:0:
52,288,87047,2,0,P|48:332|44:380,1,64,0|2,1:0|0:0,0:0:0:0:
0,188,87469,1,0,1:0:0:0:
143,279,87681,1,4,0:0:0:0:
143,279,87786,1,0,0:0:0:0:
143,279,87892,6,0,P|184:280|220:272,1,71.9999978027344,0|0,1:0|0:0,0:0:0:0:
368,324,88314,2,0,P|332:317|296:318,1,71.9999978027344,0|0,1:0|0:0,0:0:0:0:
272,108,88737,2,0,P|304:152|284:248,1,143.999995605469,0|0,1:0|1:0,0:0:0:0:
216,328,89371,1,0,0:0:0:0:
168,196,89582,6,0,P|172:140|180:48,1,143.999995605469,0|0,1:0|1:0,0:0:0:0:
52,140,90216,2,0,P|56:196|64:288,1,143.999995605469,2|2,0:0|0:0,0:0:0:0:
124,372,90850,1,0,1:0:0:0:
152,248,91061,1,0,0:0:0:0:
244,340,91272,6,0,P|280:336|324:332,1,71.9999978027344,0|2,1:0|0:0,0:0:0:0:
472,292,91695,2,0,L|436:288|400:284,1,71.9999978027344,0|2,1:0|0:0,0:0:0:0:
284,228,92117,1,0,1:0:0:0:
408,376,92540,1,0,1:0:0:0:
432,144,92962,6,0,P|428:96|424:52,1,71.9999978027344,0|2,1:0|0:0,0:0:0:0:
284,12,93385,2,0,P|288:60|292:104,1,71.9999978027344,0|2,1:0|0:0,0:0:0:0:
240,200,93807,1,4,0:0:0:0:
425,72,94230,1,4,0:0:0:0:
124,36,94652,6,0,L|120:80|116:124,1,80,4|0,0:0|0:0,0:0:0:0:
32,248,95075,2,0,L|28:204|24:160,1,80,8|0,0:0|0:0,0:0:0:0:
200,120,95497,2,0,B|255:123|255:123|298:146|298:146|354:150,1,160,8|8,0:0|0:0,0:0:0:0:
272,40,96131,1,0,0:0:0:0:
192,208,96343,6,0,P|196:248|200:296,1,80
380,236,96765,2,0,P|340:228|288:232,1,80,2|0,0:2|0:0,0:0:0:0:
156,372,97188,2,0,P|196:380|248:376,1,80,2|0,0:2|0:0,0:0:0:0:
360,320,97610,1,0,0:0:0:0:
199,287,97821,1,0,0:0:0:0:
332,172,98033,6,0,P|328:216|324:276,1,80,8|0,0:0|0:0,0:0:0:0:
232,92,98455,2,0,P|236:48|240:-12,1,80,8|0,0:0|0:0,0:0:0:0:
424,84,98878,2,0,P|420:128|412:248,1,160,8|8,0:0|0:0,0:0:0:0:
320,92,99512,1,0,0:0:0:0:
512,144,99723,6,0,P|508:188|500:308,1,160,0|2,0:0|0:2,0:0:0:0:
340,328,100357,1,0,0:0:0:0:
420,204,100568,1,2,0:2:0:0:
436,372,100779,1,0,0:0:0:0:
304,220,100990,2,0,P|264:224|168:232,1,120,4|0,0:0|0:0,0:0:0:0:
144,212,101413,6,0,L|100:216,3,40,2|0|0|0,0:2|0:0|0:0|0:0,0:0:0:0:
212,108,101835,2,0,L|168:112,3,40,2|0|0|0,0:2|0:0|0:0|0:0,0:0:0:0:
304,196,102258,2,0,L|260:200,3,40,2|0|0|0,0:2|0:0|0:0|0:0,0:0:0:0:
372,92,102680,2,0,L|328:96,3,40,2|0|0|0,0:2|0:0|0:0|0:0,0:0:0:0:
480,164,103103,5,2,0:2:0:0:
504,195,103208,1,0,0:0:0:0:
512,233,103314,1,0,0:0:0:0:
511,273,103419,1,0,0:0:0:0:
493,308,103526,2,0,L|448:312,3,40,2|0|0|0,0:2|0:0|0:0|0:0,0:0:0:0:
336,352,103948,1,2,0:2:0:0:
296,347,104053,1,0,0:0:0:0:
256,344,104159,1,0,0:0:0:0:
216,340,104264,1,0,0:0:0:0:
176,337,104371,2,0,L|120:344,3,40,2|0|0|0,0:2|0:0|0:0|0:0,0:0:0:0:
60,228,104793,6,0,L|64:184,3,40,2|0|0|0,0:2|0:0|0:0|0:0,0:0:0:0:
164,100,105216,2,0,L|160:144,3,40,2|0|0|0,0:2|0:0|0:0|0:0,0:0:0:0:
224,256,105638,1,2,0:2:0:0:
260,271,105743,1,0,0:0:0:0:
300,271,105849,1,0,0:0:0:0:
336,255,105954,1,0,0:0:0:0:
364,226,106061,2,0,L|360:168,1,40,2|0,0:2|0:0,0:0:0:0:
432,84,106272,2,0,L|436:142,1,40,2|0,0:2|0:0,0:0:0:0:
434,123,108174,6,0,P|430:167|426:231,1,88.000002685547,4|0,1:0|0:0,0:0:0:0:
344,352,108596,2,0,P|340:308|336:244,1,88.000002685547,0|0,1:0|0:0,0:0:0:0:
244,124,109019,1,8,0:0:0:0:
232,284,109230,1,0,0:0:0:0:
352,176,109441,2,0,P|400:168|448:172,1,88.000002685547,0|0,1:0|0:0,0:0:0:0:
216,112,109864,6,0,P|172:114|128:106,1,88.000002685547,2|0,0:0|0:0,0:0:0:0:
340,16,110287,2,0,P|336:52|332:120,1,88.000002685547,0|0,1:0|0:0,0:0:0:0:
448,196,110709,1,8,0:0:0:0:
428,56,110920,1,0,0:0:0:0:
344,208,111131,2,0,P|304:200|248:196,1,88.000002685547,2|0,0:0|0:0,0:0:0:0:
96,272,111554,6,0,P|100:312|104:372,1,88.000002685547,0|0,1:0|0:0,0:0:0:0:
140,144,111976,2,0,P|136:104|132:44,1,88.000002685547,0|0,1:0|0:0,0:0:0:0:
184,240,112399,1,8,0:0:0:0:
56,172,112610,1,0,0:0:0:0:
228,136,112821,2,0,P|272:132|328:132,1,88.000002685547,0|0,1:0|0:0,0:0:0:0:
420,248,113244,6,0,P|424:304|428:368,1,88.000002685547,2|0,0:0|0:0,0:0:0:0:
512,100,113666,2,0,P|508:156|504:220,1,88.000002685547,0|0,1:0|0:0,0:0:0:0:
356,64,114089,1,8,0:0:0:0:
328,216,114300,1,0,0:0:0:0:
360,48,114512,1,2,0:0:0:0:
432,168,114723,1,0,0:0:0:0:
256,128,114934,6,0,P|208:132|148:136,1,88.000002685547,4|0,1:0|0:0,0:0:0:0:
8,204,115357,2,0,P|56:208|116:212,1,88.000002685547,0|0,1:0|0:0,0:0:0:0:
208,300,115779,1,8,0:0:0:0:
168,134,115990,1,0,0:0:0:0:
112,296,116202,2,0,P|116:344|120:408,1,88.000002685547,0|0,1:0|0:0,0:0:0:0:
292,232,116624,6,0,P|244:220|176:232,1,88.000002685547,2|0,0:0|0:0,0:0:0:0:
24,192,117047,2,0,P|67:193|110:182,1,88.000002685547,0|0,1:0|0:0,0:0:0:0:
248,96,117469,1,8,0:0:0:0:
100,72,117681,1,0,0:0:0:0:
192,188,117892,2,0,L|188:236|184:284,1,88.000002685547,2|0,0:0|0:0,0:0:0:0:
344,372,118314,6,0,L|348:324|352:276,1,88.000002685547,0|0,1:0|0:0,0:0:0:0:
284,120,118737,2,0,L|280:168|276:216,1,88.000002685547,0|0,1:0|0:0,0:0:0:0:
428,264,119160,1,8,0:0:0:0:
384,136,119371,1,0,0:0:0:0:
280,292,119582,2,0,P|236:288|176:284,1,88.000002685547,0|0,1:0|0:0,0:0:0:0:
36,192,120005,6,0,P|28:140|40:96,1,88.000002685547,2|0,0:0|0:0,0:0:0:0:
196,56,120427,2,0,P|192:100|188:168,1,88.000002685547,0|0,1:0|0:0,0:0:0:0:
96,12,120850,1,8,0:0:0:0:
276,24,121061,1,0,0:0:0:0:
104,124,121272,2,0,P|64:120|8:116,1,88.000002685547,2|0,0:0|0:0,0:0:0:0:
216,236,121695,6,0,P|259:232|303:228,1,88.000002685547,0|2,0:0|0:0,0:0:0:0:
84,236,122117,2,0,P|88:272|92:344,1,88.000002685547,0|2,0:0|0:0,0:0:0:0:
260,144,122540,2,0,P|236:136|168:144,1,88.000002685547,0|2,0:0|0:0,0:0:0:0:
308,252,122962,1,2,0:0:0:0:
340,108,123174,1,2,0:0:0:0:
216,236,123385,6,0,P|220:288|224:352,1,88.000002685547,4|0,1:0|0:0,0:0:0:0:
400,260,123807,2,0,P|396:208|392:144,1,88.000002685547,0|0,1:0|0:0,0:0:0:0:
356,364,124230,1,0,1:0:0:0:
492,288,124441,1,8,0:0:0:0:
492,288,124547,1,0,1:0:0:0:
492,288,124652,2,0,P|488:236|484:172,1,88.000002685547,8|0,0:0|1:0,0:0:0:0:
336,96,125075,6,0,P|284:88|240:96,1,88.000002685547,0|0,1:0|0:0,0:0:0:0:
100,176,125497,2,0,P|143:181|186:173,1,88.000002685547,0|0,1:0|0:0,0:0:0:0:
64,56,125920,1,0,1:0:0:0:
12,192,126131,1,2,0:0:0:0:
12,192,126237,1,0,1:0:0:0:
12,192,126343,2,0,P|16:236|20:292,1,88.000002685547,8|0,0:0|1:0,0:0:0:0:
200,352,126765,6,0,P|196:308|192:252,1,88.000002685547,0|0,1:0|0:0,0:0:0:0:
88,124,127188,2,0,P|92:168|96:224,1,88.000002685547,0|0,1:0|0:0,0:0:0:0:
104,360,127610,1,0,1:0:0:0:
216,236,127821,1,2,0:0:0:0:
216,236,127927,1,0,1:0:0:0:
216,236,128033,2,0,P|264:228|312:232,1,88.000002685547,2|0,0:0|1:0,0:0:0:0:
464,288,128455,6,0,P|460:332|456:404,1,88.000002685547,4|0,1:0|0:0,0:0:0:0:
376,124,128878,2,0,P|380:168|384:240,1,88.000002685547,0|0,1:0|0:0,0:0:0:0:
444,40,129300,1,0,1:0:0:0:
304,36,129512,1,2,0:0:0:0:
304,36,129617,1,0,1:0:0:0:
304,36,129723,2,0,P|244:40|188:44,1,88.000002685547,8|0,0:0|1:0,0:0:0:0:
32,96,130145,6,0,P|92:100|148:104,1,88.000002685547,0|0,1:0|0:0,0:0:0:0:
296,144,130568,2,0,P|288:188|284:244,1,88.000002685547,0|0,1:0|0:0,0:0:0:0:
236,36,130990,1,0,1:0:0:0:
392,92,131202,1,8,0:0:0:0:
392,92,131307,1,0,1:0:0:0:
392,92,131413,2,0,P|384:136|380:192,1,88.000002685547,8|0,0:0|1:0,0:0:0:0:
284,344,131835,6,0,P|280:300|272:256,1,88.000002685547,0|0,1:0|0:0,0:0:0:0:
168,140,132258,2,0,P|127:123|84:129,1,88.000002685547,0|0,1:0|0:0,0:0:0:0:
172,252,132681,1,0,1:0:0:0:
260,116,132892,1,2,0:0:0:0:
260,116,132997,1,0,1:0:0:0:
260,116,133103,2,0,L|256:60|252:4,1,88.000002685547,8|0,0:0|1:0,0:0:0:0:
60,112,133526,6,0,L|64:168|68:224,1,88.000002685547,0|0,1:0|0:0,0:0:0:0:
200,260,133948,2,0,L|196:204|192:148,1,88.000002685547,0|0,1:0|0:0,0:0:0:0:
116,352,134371,1,0,1:0:0:0:
284,308,134582,1,2,0:0:0:0:
284,308,134688,1,0,1:0:0:0:
284,308,134793,2,0,P|336:300|384:296,1,88.000002685547,2|0,0:0|1:0,0:0:0:0:
120,224,135216,5,4,0:0:0:0:
