osu file format v14

[General]
AudioFilename: audio.mp3
AudioLeadIn: 0
PreviewTime: 101413
Countdown: 0
SampleSet: Soft
StackLeniency: 0.7
Mode: 0
LetterboxInBreaks: 0
WidescreenStoryboard: 0

[Editor]
Bookmarks: 5,13526,27047,40568,54089,67610,81131,94652,108174,121695,123385,135216
DistanceSpacing: 1.5
BeatDivisor: 4
GridSize: 16
TimelineZoom: 1

[Metadata]
Title:Alone
TitleUnicode:Alone
Artist:Marshmello
ArtistUnicode:Marshmello
Creator:Venix
Version:Curi's Advanced
Source:
Tags:Original Mix Monstercat Trap [C_u_r_i] C_u_r_i Curi MkGuh ReFaller Hazu Hazu-
BeatmapID:1382310
BeatmapSetID:649264

[Difficulty]
HPDrainRate:4
CircleSize:3.5
OverallDifficulty:5
ApproachRate:7
SliderMultiplier:1.2
SliderTickRate:1

[Events]
//Background and Video events
0,0,"bggggggggggggggggggg.jpg",0,0
//Break Periods
2,67610,80231
//Storyboard Layer 0 (Background)
//Storyboard Layer 1 (Fail)
//Storyboard Layer 2 (Pass)
//Storyboard Layer 3 (Foreground)
//Storyboard Sound Samples

[TimingPoints]
5,422.535211267606,4,2,0,30,1,0
27047,-100,4,2,0,20,0,0
28314,-100,4,2,0,25,0,0
30005,-100,4,2,0,30,0,0
31695,-100,4,2,0,35,0,0
33385,-100,4,2,0,38,0,0
35075,-100,4,2,0,42,0,0
36765,-100,4,2,0,45,0,0
38455,-100,4,2,0,50,0,0
38878,-100,4,2,0,20,0,0
39723,-100,4,2,0,80,0,0
40568,-100,4,2,0,100,0,1
40674,-100,4,2,0,70,0,0
54089,-100,4,2,0,100,0,0
54300,-100,4,2,0,70,0,0
60850,-100,4,2,0,100,0,0
61061,-100,4,2,0,70,0,0
81131,-100,4,2,0,50,0,0
84300,-100,4,2,0,30,0,0
84512,-100,4,2,0,55,0,0
86202,-100,4,2,0,60,0,0
87681,-100,4,2,0,40,0,0
87892,-100,4,2,0,60,0,0
90427,-100,4,2,0,65,0,0
92962,-100,4,2,0,70,0,0
94652,-100,4,1,0,90,0,0
94864,-100,4,1,0,75,0,0
100990,-100,4,1,0,100,0,0
101307,-100,4,1,0,80,0,0
108174,-100,4,2,0,90,0,1
121695,-100,4,2,0,70,0,0
123385,-100,4,2,0,95,0,1
135216,-100,4,2,0,70,0,0

[Colours]
Combo1 : 180,180,180
Combo2 : 17,179,232
Combo3 : 212,212,212
Combo4 : 23,107,200

[HitObjects]
151,129,13526,6,0,P|200:102|271:121,2,120,2|0|2,0:0|0:0|0:0,0:0:0:0:
151,129,14793,1,0,0:0:0:0:
215,191,15005,1,0,0:0:0:0:
195,278,15216,2,0,P|227:280|268:261,1,60,2|0,0:0|0:0,0:0:0:0:
303,197,15638,2,0,P|335:194|376:213,1,60,2|0,0:0|0:0,0:0:0:0:
408,279,16061,2,0,L|398:355,1,60,2|0,0:0|0:0,0:0:0:0:
488,323,16483,1,2,0:0:0:0:
488,323,16906,6,0,L|500:197,2,120,2|0|2,0:0|0:0|0:0,0:0:0:0:
488,323,18174,1,0,0:0:0:0:
408,279,18385,1,0,0:0:0:0:
328,321,18596,2,0,P|294:332|247:323,1,60,2|0,0:0|0:0,0:0:0:0:
182,307,19019,2,0,P|151:288|128:246,1,60,2|0,0:0|0:0,0:0:0:0:
103,185,19441,2,0,P|98:149|115:104,1,60,2|0,0:0|0:0,0:0:0:0:
150,49,19864,1,2,0:0:0:0:
150,49,20286,6,0,P|211:54|289:64,2,120,2|0|2,0:0|0:0|0:0,0:0:0:0:
150,49,21554,1,0,0:0:0:0:
102,126,21765,1,0,0:0:0:0:
169,185,21976,2,0,P|210:183|242:178,1,60,2|0,0:0|0:0,0:0:0:0:
308,138,22399,2,0,P|349:140|381:145,1,60,2|0,0:0|0:0,0:0:0:0:
429,207,22821,2,0,P|427:248|422:280,1,60,2|0,0:0|0:0,0:0:0:0:
353,322,23244,1,2,0:0:0:0:
353,322,23666,6,0,P|284:329|231:280,2,120,2|0|2,0:0|0:0|0:0,0:0:0:0:
353,322,24934,1,0,0:0:0:0:
313,241,25145,1,0,0:0:0:0:
244,302,25357,2,0,P|201:314|158:313,1,60,2|0,0:0|0:0,0:0:0:0:
111,264,25779,2,0,P|99:221|100:178,1,60,2|0,0:0|0:0,0:0:0:0:
149,131,26202,2,0,P|192:119|235:120,1,60,2|0,0:0|0:0,0:0:0:0:
288,156,26624,1,2,0:0:0:0:
288,156,27047,6,0,L|297:23,2,120,4|0|2,0:0|0:0|0:0,0:0:0:0:
288,156,28314,1,0,0:0:0:0:
374,129,28526,1,0,0:0:0:0:
448,179,28737,2,0,L|440:266,1,60,2|0,0:0|0:0,0:0:0:0:
384,307,29159,2,0,P|349:313|299:291,1,60,2|0,0:0|0:0,0:0:0:0:
264,241,29582,2,0,P|229:235|179:257,1,60,2|0,0:0|0:0,0:0:0:0:
129,288,30005,1,2,0:0:0:0:
129,288,30427,6,0,L|133:161,2,120,2|0|2,0:0|0:0|0:0,0:0:0:0:
129,288,31695,1,0,0:0:0:0:
44,256,31906,1,0,0:0:0:0:
45,166,32117,2,0,L|47:76,1,60,2|0,0:0|0:0,0:0:0:0:
97,31,32540,2,0,P|152:28|176:38,1,60,2|0,0:0|0:0,0:0:0:0:
222,89,32962,2,0,P|277:92|301:82,1,60,2|0,0:0|0:0,0:0:0:0:
351,34,33385,1,2,0:0:0:0:
351,34,33807,6,0,P|336:99|367:153,2,120,2|0|2,0:0|0:0|0:0,0:0:0:0:
351,34,35075,1,0,0:0:0:0:
424,85,35286,1,0,0:0:0:0:
358,144,35497,2,0,L|368:237,1,60,2|0,0:0|0:0,0:0:0:0:
439,253,35920,2,0,L|429:346,1,60,2|0,0:0|0:0,0:0:0:0:
360,366,36343,2,0,P|300:356|282:341,1,60,2|0,0:0|0:0,0:0:0:0:
251,282,36765,1,2,0:0:0:0:
251,282,37188,6,0,P|165:279|129:319,2,120,2|0|2,0:0|0:0|0:0,0:0:0:0:
251,282,38455,1,2,0:0:0:0:
207,360,38666,1,0,0:0:0:0:
142,297,38878,1,2,0:0:0:0:
370,87,40145,5,12,0:0:0:0:
370,87,40568,6,0,L|276:80,2,90,4|0|0,1:0|1:0|1:0,0:0:0:0:
459,96,41413,2,0,P|449:144|442:183,1,60,2|0,0:0|0:0,0:0:0:0:
362,186,41835,2,0,P|372:234|379:273,1,60,8|0,0:0|0:0,0:0:0:0:
408,328,42258,6,0,P|434:309|495:302,2,90,0|0|0,1:0|1:0|1:0,0:0:0:0:
324,363,43103,2,0,P|268:358|244:350,1,60,2|0,0:0|0:0,0:0:0:0:
204,289,43526,2,0,P|148:294|124:302,1,60,0|0,1:0|0:0,0:0:0:0:
72,348,43948,6,0,L|60:247,2,90,0|0|0,1:0|1:0|1:0,0:0:0:0:
144,294,44793,2,0,L|134:213,1,60,2|0,0:0|0:0,0:0:0:0:
70,173,45216,2,0,L|80:92,1,60,8|0,0:0|0:0,0:0:0:0:
129,40,45638,6,0,P|189:32|221:51,2,90,0|0|0,1:0|1:0|1:0,0:0:0:0:
77,113,46483,2,0,P|130:122|159:129,1,60,2|0,0:0|0:0,0:0:0:0:
195,191,46906,1,4,0:0:0:0:
270,142,47117,1,0,0:0:0:0:
332,206,47328,6,0,P|392:214|424:195,2,90,0|0|0,1:0|1:0|1:0,0:0:0:0:
270,142,48174,2,0,L|281:74,1,60,2|0,0:0|0:0,0:0:0:0:
341,18,48596,2,0,P|381:19|420:42,1,60,8|0,0:0|0:0,0:0:0:0:
427,112,49019,6,0,L|415:206,2,90,0|0|0,1:0|1:0|1:0,0:0:0:0:
508,150,49864,2,0,L|500:215,1,60,2|0,0:0|0:0,0:0:0:0:
447,282,50286,2,0,P|413:288|378:281,1,60,0|0,1:0|0:0,0:0:0:0:
316,229,50709,6,0,P|272:227|223:257,2,90,0|0|0,1:0|1:0|1:0,0:0:0:0:
288,314,51554,2,0,P|264:330|225:333,1,60,2|0,0:0|0:0,0:0:0:0:
156,288,51976,2,0,P|146:252|151:223,1,60,8|0,0:0|0:0,0:0:0:0:
204,158,52399,6,0,P|206:109|169:55,2,90,0|0|0,1:0|1:0|1:0,0:0:0:0:
148,229,53244,2,0,L|71:221,1,60,2|0,0:0|0:0,0:0:0:0:
8,181,53666,2,0,P|9:143|22:113,1,60,4|0,0:0|0:0,0:0:0:0:
99,84,54089,6,0,L|199:71,1,90,4|0,1:0|1:0,0:0:0:0:
217,37,54512,2,0,L|300:45,1,60,8|0,0:0|1:0,0:0:0:0:
351,91,54934,2,0,L|410:85,1,60,8|0,0:0|0:0,0:0:0:0:
485,35,55357,2,0,P|502:75|499:105,1,60,0|2,1:0|0:0,0:0:0:0:
451,165,55779,6,0,P|436:207|442:261,1,90,0|0,1:0|1:0,0:0:0:0:
465,288,56202,2,0,P|458:332|444:356,1,60,8|0,0:0|1:0,0:0:0:0:
363,365,56624,2,0,L|290:357,1,60,8|0,0:0|0:0,0:0:0:0:
224,314,57047,2,0,L|164:320,1,60,2|2,0:0|0:0,0:0:0:0:
79,351,57469,6,0,P|76:296|95:256,1,90,0|0,1:0|1:0,0:0:0:0:
129,243,57892,2,0,L|189:237,1,60,8|0,0:0|1:0,0:0:0:0:
250,171,58314,2,0,L|310:177,1,60,8|0,0:0|0:0,0:0:0:0:
372,242,58737,2,0,L|432:236,1,60,0|2,1:0|0:0,0:0:0:0:
484,163,59159,6,0,P|478:109|440:70,1,90,0|0,1:0|1:0,0:0:0:0:
415,63,59582,2,0,L|344:69,1,60,8|0,0:0|1:0,0:0:0:0:
270,98,60005,2,0,L|210:92,1,60,2|2,0:0|0:0,0:0:0:0:
139,38,60427,1,4,0:0:0:0:
54,67,60638,1,0,0:0:0:0:
28,153,60850,6,0,L|44:264,1,90,4|0,1:0|1:0,0:0:0:0:
40,287,61272,2,0,P|86:299|109:293,1,60,8|0,0:0|1:0,0:0:0:0:
163,235,61695,2,0,P|209:223|232:229,1,60,8|0,0:0|0:0,0:0:0:0:
275,295,62117,2,0,P|321:307|344:301,1,60,8|2,0:0|0:0,0:0:0:0:
408,256,62540,6,0,P|423:214|401:150,1,90,0|0,1:0|1:0,0:0:0:0:
378,143,62962,2,0,P|372:107|379:76,1,60,8|0,0:0|1:0,0:0:0:0:
409,0,63385,2,0,L|348:6,1,60,2|2,0:0|0:0,0:0:0:0:
277,59,63807,2,0,L|216:53,1,60,0|0,1:0|0:0,0:0:0:0:
127,58,64230,6,0,P|108:112|120:158,1,90,0|0,1:0|1:0,0:0:0:0:
141,177,64652,2,0,L|211:185,1,60,8|0,0:0|1:0,0:0:0:0:
270,240,65075,2,0,L|340:232,1,60,8|0,0:0|0:0,0:0:0:0:
408,190,65497,2,0,P|420:231|417:257,1,60,8|2,0:0|0:0,0:0:0:0:
360,316,65920,6,0,L|245:330,1,90,0|0,1:0|1:0,0:0:0:0:
234,354,66343,2,0,L|169:347,1,60,8|0,0:0|1:0,0:0:0:0:
93,308,66765,2,0,P|84:265|93:236,1,60,8|2,0:0|0:0,0:0:0:0:
141,177,67188,2,0,P|184:168|213:177,1,60,0|2,1:0|0:0,0:0:0:0:
314,233,81131,6,0,L|387:227,1,60,0|0,1:0|0:0,0:0:0:0:
433,160,81554,2,0,L|427:87,1,60,0|0,1:0|0:0,0:0:0:0:
362,38,81976,2,0,L|289:44,1,60,0|0,1:0|0:0,0:0:0:0:
243,111,82399,2,0,L|249:184,1,60,0|0,1:0|0:0,0:0:0:0:
314,233,82821,6,0,P|362:232|382:225,1,60,0|2,1:0|0:0,0:0:0:0:
433,160,83244,2,0,P|432:112|425:92,1,60,0|2,1:0|0:0,0:0:0:0:
362,38,83666,2,0,P|314:39|294:46,1,60,0|2,1:0|0:0,0:0:0:0:
243,111,84089,2,0,P|244:159|251:179,1,60,0|8,1:0|0:3,0:0:0:0:
276,204,84406,1,4,0:3:0:0:
276,204,84512,6,0,P|275:252|268:272,1,60,0|0,1:0|0:0,0:0:0:0:
203,323,84935,2,0,P|155:322|135:315,1,60,0|0,1:0|0:0,0:0:0:0:
81,252,85357,2,0,P|82:204|89:184,1,60,0|0,1:0|0:0,0:0:0:0:
154,133,85780,2,0,P|202:134|222:141,1,60,0|0,1:0|0:0,0:0:0:0:
276,204,86202,6,0,L|270:277,1,60,0|2,1:0|0:0,0:0:0:0:
203,323,86625,2,0,L|130:317,1,60,0|2,1:0|0:0,0:0:0:0:
81,252,87047,2,0,L|87:179,1,60,0|2,1:0|0:0,0:0:0:0:
154,133,87470,2,0,L|227:139,1,60,0|4,1:0|0:0,0:0:0:0:
276,204,87892,5,0,1:0:0:0:
276,204,88314,2,0,L|349:198,1,60,0|0,1:0|0:0,0:0:0:0:
395,131,88737,2,0,L|389:58,1,60,0|0,1:0|0:0,0:0:0:0:
328,6,89159,2,0,L|255:12,1,60,0|0,1:0|0:0,0:0:0:0:
209,78,89582,6,0,P|210:126|217:146,1,60,0|2,1:0|0:0,0:0:0:0:
276,203,90005,2,0,P|324:202|344:195,1,60,0|2,1:0|0:0,0:0:0:0:
395,130,90427,2,0,P|394:82|387:62,1,60,0|2,1:0|0:0,0:0:0:0:
328,6,90850,2,0,P|280:7|260:14,1,60,0|2,1:0|0:0,0:0:0:0:
209,78,91272,6,0,L|215:153,1,60,0|0,1:0|0:0,0:0:0:0:
123,145,91695,2,0,L|118:85,1,60,0|0,1:0|0:0,0:0:0:0:
28,95,92117,2,0,L|32:154,1,60,0|0,1:0|0:0,0:0:0:0:
45,244,92540,2,0,P|81:249|114:235,1,60,0|0,1:0|0:0,0:0:0:0:
179,193,92962,6,0,P|215:188|248:202,1,60,0|2,1:0|0:0,0:0:0:0:
300,258,93385,2,0,P|336:263|369:249,1,60,0|2,1:0|0:0,0:0:0:0:
408,181,93807,2,0,P|413:145|399:112,1,60,0|2,1:0|0:0,0:0:0:0:
379,86,94124,1,2,0:0:0:0:
379,86,94230,2,0,L|292:89,1,60,4|0,0:0|0:0,0:0:0:0:
232,112,94652,6,0,L|145:109,1,60,4|0,0:0|0:0,0:0:0:0:
108,173,95075,2,0,L|105:260,1,60,8|0,0:0|0:0,0:0:0:0:
168,297,95497,2,0,L|255:300,1,60,8|0,0:0|0:0,0:0:0:0:
310,263,95920,1,8,0:0:0:0:
387,308,96131,1,0,0:0:0:0:
460,255,96343,6,0,P|468:224|458:175,1,60,0|0,0:0|0:2,0:0:0:0:
404,130,96765,2,0,P|373:122|324:132,1,60,2|0,0:2|0:2,0:0:0:0:
274,180,97188,2,0,P|243:188|194:178,1,60,2|0,0:2|0:2,0:0:0:0:
147,126,97610,2,0,L|150:87,3,30
106,79,98033,6,0,L|102:156,1,60,8|0,0:0|0:0,0:0:0:0:
37,200,98455,2,0,L|41:277,1,60,8|0,0:0|0:0,0:0:0:0:
89,335,98878,2,0,P|136:347|166:337,1,60,8|0,0:0|0:0,0:0:0:0:
217,290,99300,1,8,0:0:0:0:
282,352,99512,1,0,0:0:0:0:
365,319,99723,6,0,L|407:327,3,30
439,331,100145,2,0,L|432:245,1,60,2|0,0:2|0:0,0:0:0:0:
405,236,100462,1,0,0:0:0:0:
405,236,100568,2,0,L|412:150,1,60,2|0,0:2|0:0,0:0:0:0:
458,100,100990,2,0,P|417:86|355:105,1,90,4|0,0:0|0:0,0:0:0:0:
339,126,101413,6,0,P|308:131|291:130,3,30
264,128,101835,2,0,L|268:49,1,60,2|0,0:2|0:0,0:0:0:0:
184,31,102258,2,0,L|178:170,1,120,2|0,0:2|0:0,0:0:0:0:
211,234,102892,1,0,0:0:0:0:
192,321,103103,6,0,P|226:320|246:312,3,30
264,305,103526,1,0,0:0:0:0:
322,237,103737,2,0,P|373:228|444:274,1,120,2|2,0:2|0:2,0:0:0:0:
468,340,104371,2,0,P|445:348|396:340,1,60
431,257,104793,6,0,L|424:121,1,120,2|0,0:2|0:0,0:0:0:0:
385,55,105427,2,0,P|319:35|270:59,1,120,2|0,0:2|0:0,0:0:0:0:
228,132,106061,1,0,0:0:0:0:
145,97,106272,1,2,0:2:0:0:
145,97,108174,6,0,L|152:162,2,60,4|0|0,1:0|0:0|1:0,0:0:0:0:
96,21,108807,1,0,0:0:0:0:
61,104,109019,2,0,L|68:169,1,60,8|0,0:0|0:0,0:0:0:0:
120,235,109441,2,0,L|113:300,1,60,0|0,1:0|0:0,0:0:0:0:
70,374,109864,6,0,P|135:383|147:379,2,60,2|0|0,0:0|0:0|1:0,0:0:0:0:
113,294,110497,1,0,0:0:0:0:
197,263,110709,2,0,P|262:254|274:258,1,60,8|0,0:0|0:0,0:0:0:0:
328,304,111131,2,0,P|393:313|405:309,1,60
469,281,111554,6,0,L|463:203,2,60,0|0|0,1:0|0:0|1:0,0:0:0:0:
457,370,112188,1,0,0:0:0:0:
385,314,112399,2,0,P|355:314|327:324,1,60,8|0,0:0|0:0,0:0:0:0:
242,354,112821,2,0,L|245:288,1,60,0|0,1:0|0:0,0:0:0:0:
314,236,113244,6,0,L|311:170,2,60,2|0|0,0:0|0:0|1:0,0:0:0:0:
327,324,113878,1,0,0:0:0:0:
244,294,114089,2,0,P|195:289|167:296,1,60,8|0,0:0|0:0,0:0:0:0:
112,345,114512,2,0,P|63:350|35:343,1,60
1,240,114934,5,4,1:0:0:0:
5,150,115145,2,0,L|9:79,2,60,0|0|0,0:0|1:0|0:0,0:0:0:0:
80,200,115779,2,0,P|121:200|159:187,1,60,8|0,0:0|0:0,0:0:0:0:
209,138,116202,2,0,P|250:138|288:151,1,60,0|0,1:0|0:0,0:0:0:0:
338,198,116624,6,0,P|379:198|417:185,2,60,2|0|0,0:0|0:0|1:0,0:0:0:0:
363,111,117258,1,0,0:0:0:0:
452,122,117469,2,0,P|480:158|487:187,1,60,8|0,0:0|0:0,0:0:0:0:
458,257,117892,2,0,P|424:278|385:280,1,60
314,283,118314,6,0,L|248:280,2,60,0|0|0,1:0|0:0|1:0,0:0:0:0:
404,281,118948,1,0,0:0:0:0:
366,199,119159,2,0,L|300:196,1,60,8|0,0:0|0:0,0:0:0:0:
227,151,119582,2,0,L|161:154,1,60,0|0,1:0|0:0,0:0:0:0:
94,206,120005,6,0,P|90:254|101:281,1,60,2|0,0:0|0:0,0:0:0:0:
161,323,120427,2,0,P|209:327|236:316,1,60,0|0,1:0|0:0,0:0:0:0:
272,250,120850,1,8,0:0:0:0:
265,160,121061,2,0,L|255:95,2,60
379,196,121695,5,0,0:0:0:0:
344,112,121906,2,0,P|377:105|419:114,2,60,2|2|0,0:0|0:0|0:0,0:0:0:0:
265,160,122540,2,0,P|235:162|206:156,2,60,2|2|0,0:0|0:0|0:0,0:0:0:0:
246,71,123174,1,2,0:0:0:0:
156,82,123385,6,0,L|42:92,1,90,4|0,1:0|0:0,0:0:0:0:
40,127,123807,2,0,P|32:179|61:232,1,90,0|0,1:0|0:0,0:0:0:0:
83,236,124230,1,0,1:0:0:0:
194,159,124547,1,0,1:0:0:0:
190,294,124864,1,0,1:0:0:0:
242,367,125075,6,0,L|130:377,1,90,0|0,1:0|0:0,0:0:0:0:
107,368,125497,2,0,P|88:326|103:270,1,90,0|0,1:0|0:0,0:0:0:0:
122,247,125920,1,0,1:0:0:0:
248,198,126237,1,0,1:0:0:0:
141,114,126554,1,0,1:0:0:0:
90,39,126765,6,0,P|139:23|186:36,1,90,0|0,1:0|0:0,0:0:0:0:
212,56,127188,2,0,P|261:72|308:59,1,90,0|0,1:0|0:0,0:0:0:0:
334,38,127610,1,0,1:0:0:0:
467,56,127927,1,0,1:0:0:0:
384,163,128244,1,0,1:0:0:0:
457,214,128455,6,0,L|449:315,1,90,4|0,1:0|0:0,0:0:0:0:
447,349,128878,2,0,P|380:369|342:352,1,90,0|0,1:0|0:0,0:0:0:0:
327,336,129300,1,0,1:0:0:0:
218,255,129617,1,0,1:0:0:0:
133,360,129934,1,0,1:0:0:0:
64,301,130145,6,0,L|69:205,1,90,0|0,1:0|0:0,0:0:0:0:
102,181,130568,2,0,L|97:85,1,90,0|0,1:0|0:0,0:0:0:0:
94,46,130990,1,0,1:0:0:0:
191,139,131307,1,0,1:0:0:0:
223,7,131624,1,0,1:0:0:0:
298,55,131835,6,0,P|336:64|396:37,1,90,0|0,1:0|0:0,0:0:0:0:
417,18,132258,2,0,L|412:129,1,90,0|0,1:0|0:0,0:0:0:0:
412,153,132681,1,0,1:0:0:0:
407,287,132997,1,0,1:0:0:0:
289,219,133314,1,0,1:0:0:0:
223,280,133526,6,0,P|190:286|133:261,1,90,0|0,1:0|0:0,0:0:0:0:
108,232,133948,2,0,L|113:124,1,90,0|0,1:0|0:0,0:0:0:0:
113,96,134371,1,0,1:0:0:0:
246,73,134688,1,0,1:0:0:0:
195,198,135005,1,0,1:0:0:0:
223,280,135216,5,4,0:0:0:0:
