osu file format v14

[General]
AudioFilename: audio.mp3
AudioLeadIn: 0
PreviewTime: 101413
Countdown: 0
SampleSet: Soft
StackLeniency: 0.6
Mode: 0
LetterboxInBreaks: 0
WidescreenStoryboard: 0

[Editor]
Bookmarks: 5,13526,27047,40568,54089,67610,81131,94652,108174,121695,123385,135216
DistanceSpacing: 1.8
BeatDivisor: 4
GridSize: 16
TimelineZoom: 1

[Metadata]
Title:Alone
TitleUnicode:Alone
Artist:Marshmello
ArtistUnicode:Marshmello
Creator:Venix
Version:Forever
Source:
Tags:Original Mix Monstercat Trap [C_u_r_i] C_u_r_i Curi MkGuh ReFaller Hazu Hazu-
BeatmapID:1375578
BeatmapSetID:649264

[Difficulty]
HPDrainRate:7
CircleSize:4
OverallDifficulty:8
ApproachRate:9
SliderMultiplier:1.8
SliderTickRate:1

[Events]
//Background and Video events
0,0,"bggggggggggggggggggg.jpg",0,0
//Break Periods
//Storyboard Layer 0 (Background)
//Storyboard Layer 1 (Fail)
//Storyboard Layer 2 (Pass)
//Storyboard Layer 3 (Foreground)
//Storyboard Sound Samples

[TimingPoints]
5,422.535211267606,4,2,0,30,1,0
27047,-125,4,2,0,20,0,0
28314,-125,4,2,0,25,0,0
30005,-125,4,2,0,30,0,0
31695,-125,4,2,0,35,0,0
33385,-125,4,2,0,38,0,0
35075,-125,4,2,0,42,0,0
36765,-125,4,2,0,45,0,0
38455,-125,4,2,0,50,0,0
38878,-125,4,2,0,20,0,0
40145,-125,4,2,0,80,0,0
40568,-76.9230769230769,4,2,0,100,0,1
40674,-76.9230769230769,4,2,0,70,0,0
40885,-125,4,2,0,70,0,0
41202,-66.6666666666667,4,2,0,70,0,0
41835,-166.666666666667,4,2,0,70,0,0
42258,-76.9230769230769,4,2,0,70,0,0
42575,-125,4,2,0,70,0,0
42892,-66.6666666666667,4,2,0,70,0,0
43526,-166.666666666667,4,2,0,70,0,0
43948,-76.9230769230769,4,2,0,70,0,0
44265,-125,4,2,0,70,0,0
44582,-66.6666666666667,4,2,0,70,0,0
45216,-166.666666666667,4,2,0,70,0,0
45638,-76.923076923077,4,2,0,70,0,0
45955,-125,4,2,0,70,0,0
46272,-66.6666666666667,4,2,0,70,0,0
46906,-166.666666666667,4,2,0,70,0,0
47117,-66.6666666666667,4,2,0,70,0,0
47328,-76.923076923077,4,2,0,70,0,0
47645,-125,4,2,0,70,0,0
47962,-66.6666666666667,4,2,0,70,0,0
48596,-166.666666666667,4,2,0,70,0,0
49019,-76.9230769230769,4,2,0,70,0,0
49335,-125,4,2,0,70,0,0
49652,-66.6666666666667,4,2,0,70,0,0
50286,-166.666666666667,4,2,0,70,0,0
50709,-76.9230769230769,4,2,0,70,0,0
51026,-125,4,2,0,70,0,0
51343,-66.6666666666667,4,2,0,70,0,0
51976,-166.666666666667,4,2,0,70,0,0
52399,-76.9230769230769,4,2,0,70,0,0
52716,-125,4,2,0,70,0,0
53033,-66.6666666666667,4,2,0,70,0,0
53666,-166.666666666667,4,2,0,70,0,0
53878,-66.6666666666667,4,2,0,70,0,0
54089,-100,4,2,0,100,0,0
54406,-125,4,2,0,70,0,0
54723,-62.5,4,2,0,70,0,0
55357,-142.857142857143,4,2,0,70,0,0
55779,-71.4285714285714,4,2,0,70,0,0
56096,-125,4,2,0,70,0,0
56413,-62.5,4,2,0,70,0,0
57047,-142.857142857143,4,2,0,70,0,0
57469,-71.4285714285714,4,2,0,70,0,0
57786,-125,4,2,0,70,0,0
58103,-62.5,4,2,0,70,0,0
58737,-142.857142857143,4,2,0,70,0,0
59159,-71.4285714285714,4,2,0,70,0,0
59476,-125,4,2,0,70,0,0
59793,-62.5,4,2,0,70,0,0
60427,-142.857142857143,4,2,0,70,0,0
60638,-66.6666666666667,4,2,0,70,0,0
60850,-71.4285714285714,4,2,0,100,0,0
61166,-125,4,2,0,70,0,0
61483,-62.5,4,2,0,70,0,0
62117,-142.857142857143,4,2,0,70,0,0
62540,-71.4285714285714,4,2,0,70,0,0
62857,-125,4,2,0,70,0,0
63174,-62.5,4,2,0,70,0,0
63807,-142.857142857143,4,2,0,70,0,0
64230,-71.4285714285714,4,2,0,70,0,0
64547,-125,4,2,0,70,0,0
64864,-62.5,4,2,0,70,0,0
65497,-142.857142857143,4,2,0,70,0,0
65920,-71.4285714285714,4,2,0,70,0,0
66237,-125,4,2,0,70,0,0
66554,-62.5,4,2,0,70,0,0
67610,-142.857142857143,4,2,0,20,0,0
68033,-142.857142857143,4,2,0,15,0,0
68455,-142.857142857143,4,2,0,10,0,0
69300,-142.857142857143,4,2,0,13,0,0
70990,-142.857142857143,4,2,0,16,0,0
73103,-142.857142857143,4,2,0,20,0,0
74371,-142.857142857143,4,2,0,25,0,0
76061,-142.857142857143,4,2,0,30,0,0
77328,-142.857142857143,4,2,0,35,0,0
78596,-142.857142857143,4,2,0,40,0,0
80286,-142.857142857143,4,2,0,45,0,0
81131,-125,4,2,0,50,0,0
84512,-125,4,2,0,55,0,0
86202,-125,4,2,0,60,0,0
87681,-125,4,2,0,40,0,0
87892,-111.111111111111,4,2,0,60,0,0
90427,-111.111111111111,4,2,0,65,0,0
92962,-111.111111111111,4,2,0,70,0,0
94652,-100,4,1,0,90,0,0
94864,-100,4,1,0,75,0,0
100990,-100,4,1,0,100,0,0
101413,-100,4,1,0,80,0,0
108174,-83.3333333333333,4,2,0,90,0,1
121695,-83.3333333333333,4,2,0,70,0,0
123385,-83.3333333333333,4,2,0,95,0,1
135216,-100,4,2,0,70,0,0

[Colours]
Combo1 : 180,180,180
Combo2 : 17,179,232
Combo3 : 212,212,212
Combo4 : 23,107,200

[HitObjects]
80,236,13526,5,2,0:0:0:0:
208,318,13948,1,0,0:0:0:0:
215,165,14371,1,2,0:0:0:0:
80,236,14793,5,2,0:0:0:0:
208,318,15005,1,0,0:0:0:0:
215,165,15216,1,2,0:0:0:0:
432,148,16483,5,2,0:0:0:0:
432,148,16906,1,0,0:0:0:0:
304,66,17328,1,2,0:0:0:0:
297,219,17751,1,0,0:0:0:0:
432,148,18173,5,2,0:0:0:0:
304,66,18385,1,0,0:0:0:0:
297,219,18596,1,2,0:0:0:0:
128,336,19864,5,0,0:0:0:0:
128,336,20286,1,2,0:0:0:0:
256,336,20709,1,0,0:0:0:0:
384,336,21131,1,2,0:0:0:0:
128,336,21554,5,2,0:0:0:0:
256,336,21765,1,0,0:0:0:0:
384,336,21976,1,2,0:0:0:0:
384,48,23244,5,2,0:0:0:0:
384,48,23666,1,0,0:0:0:0:
256,48,24089,1,2,0:0:0:0:
128,48,24511,1,0,0:0:0:0:
384,48,24934,5,2,0:0:0:0:
256,48,25145,1,0,0:0:0:0:
128,48,25356,1,2,0:0:0:0:
256,190,26624,5,2,0:0:0:0:
256,190,27047,6,0,P|259:239|245:288,1,72,4|0,0:0|0:0,0:0:0:0:
126,354,27469,2,0,P|121:318|124:282,1,72
153,185,27892,1,2,0:0:0:0:
153,185,28314,1,0,0:0:0:0:
254,261,28526,1,0,0:0:0:0:
318,124,28737,6,0,L|313:204,1,72,2|0,0:0|0:0,0:0:0:0:
398,89,29159,2,0,L|393:169,1,72,2|0,0:0|0:0,0:0:0:0:
480,54,29582,2,0,L|475:134,1,72,2|0,0:0|0:0,0:0:0:0:
463,262,30005,1,2,0:0:0:0:
463,262,30427,6,0,B|473:297|473:297|463:348,1,72,2|0,0:0|0:0,0:0:0:0:
311,366,30850,2,0,B|303:331|303:331|314:296,1,72
366,210,31272,1,2,0:0:0:0:
366,210,31695,1,0,0:0:0:0:
382,334,31906,1,0,0:0:0:0:
250,250,32117,6,0,P|206:241|161:254,1,72,2|0,0:0|0:0,0:0:0:0:
169,382,32540,2,0,P|198:348|210:302,1,72,2|0,0:0|0:0,0:0:0:0:
95,246,32962,2,0,P|109:288|142:321,1,72,2|0,0:0|0:0,0:0:0:0:
250,250,33385,1,2,0:0:0:0:
250,250,33807,6,0,L|255:155,1,72,2|0,0:0|0:0,0:0:0:0:
356,57,34230,2,0,L|359:128,1,72
363,230,34652,1,2,0:0:0:0:
363,230,35075,1,0,0:0:0:0:
451,141,35286,1,0,0:0:0:0:
312,56,35497,6,0,P|294:97|298:144,1,72,2|0,0:0|0:0,0:0:0:0:
171,47,35920,2,0,P|216:42|255:15,1,72,2|0,0:0|0:0,0:0:0:0:
235,174,36343,2,0,P|208:137|166:117,1,72,2|0,0:0|0:0,0:0:0:0:
53,90,36765,1,2,0:0:0:0:
53,90,37188,6,0,L|34:200,2,108,2|0|0,0:0|0:0|0:0,0:0:0:0:
140,38,38033,1,2,0:0:0:0:
140,38,38455,2,0,P|183:47|228:33,1,72,2|0,0:0|0:0,0:0:0:0:
293,18,38878,5,2,0:0:0:0:
425,128,40145,5,12,0:0:0:0:
425,128,40568,6,0,P|426:189|400:242,1,116.999994644165,4|0,1:0|0:0,0:0:0:0:
267,322,40885,6,0,L|364:296,1,72,0|0,1:0|0:0,0:0:0:0:
466,254,41202,6,0,P|399:238|344:261,1,67.5000025749208,0|0,1:0|0:0,0:0:0:0:
300,225,41413,1,2,0:0:0:0:
355,155,41624,1,0,0:0:0:0:
267,322,41835,6,0,P|226:301|209:276,1,53.9999983520508,8|0,0:0|0:0,0:0:0:0:
131,204,42258,6,0,L|137:354,1,116.999994644165,0|0,1:0|0:0,0:0:0:0:
267,322,42575,6,0,P|268:275|282:232,1,72,0|0,1:0|0:0,0:0:0:0:
414,276,42892,6,0,L|339:295,1,67.5000025749208,0|0,1:0|0:0,0:0:0:0:
310,384,43103,1,2,0:0:0:0:
274,250,43314,1,2,0:0:0:0:
196,377,43526,6,0,L|185:299,1,53.9999983520508,0|0,1:0|0:0,0:0:0:0:
296,140,43948,6,0,P|297:201|271:254,1,116.999994644165,0|0,1:0|0:0,0:0:0:0:
123,165,44265,6,0,L|197:179,1,72,0|0,1:0|0:0,0:0:0:0:
360,156,44582,6,0,P|293:140|238:163,1,67.5000025749208,0|0,1:0|0:0,0:0:0:0:
193,178,44793,1,2,0:0:0:0:
211,82,45005,1,0,0:0:0:0:
227,276,45216,6,0,P|268:255|285:230,1,53.9999983520508,8|0,0:0|0:0,0:0:0:0:
393,128,45638,6,0,L|407:289,1,116.999994644165,0|0,1:0|0:0,0:0:0:0:
266,321,45955,6,0,P|267:274|281:231,1,72,0|0,1:0|0:0,0:0:0:0:
444,354,46272,6,0,L|376:351,1,67.5000025749208,0|0,1:0|0:0,0:0:0:0:
265,321,46483,1,2,0:0:0:0:
403,244,46695,1,2,0:0:0:0:
292,126,46906,6,0,L|286:171,1,26.9999991760254,4|0,0:0|0:0,0:0:0:0:
176,196,47117,6,0,L|172:123,1,67.5000025749208
153,302,47328,6,0,P|213:298|267:323,1,116.999994644165,0|0,1:0|0:0,0:0:0:0:
390,206,47645,6,0,L|393:286,1,72,0|0,1:0|0:0,0:0:0:0:
443,142,47962,6,0,P|376:126|321:149,1,67.5000025749208,0|0,1:0|0:0,0:0:0:0:
267,165,48174,1,2,0:0:0:0:
293,71,48385,1,0,0:0:0:0:
247,248,48596,6,0,P|206:227|189:202,1,53.9999983520508,8|0,0:0|0:0,0:0:0:0:
60,130,49019,6,0,L|192:104,1,116.999994644165,0|0,1:0|0:0,0:0:0:0:
194,293,49335,6,0,P|195:246|209:203,1,72,0|0,1:0|0:0,0:0:0:0:
333,154,49652,6,0,L|263:165,1,67.5000025749208,0|0,1:0|0:0,0:0:0:0:
175,108,49864,1,2,0:0:0:0:
333,154,50075,1,2,0:0:0:0:
140,287,50286,6,0,L|215:294,1,53.9999983520508,0|0,1:0|0:0,0:0:0:0:
333,154,50709,6,0,P|310:207|314:265,1,116.999994644165,0|0,1:0|0:0,0:0:0:0:
226,378,51026,6,0,L|320:380,1,72,0|0,1:0|0:0,0:0:0:0:
482,241,51343,6,0,P|415:225|360:248,1,67.5000025749208,0|0,1:0|0:0,0:0:0:0:
314,265,51554,1,2,0:0:0:0:
333,154,51765,1,0,0:0:0:0:
425,317,51976,6,0,P|404:334|379:343,1,53.9999983520508,8|0,0:0|0:0,0:0:0:0:
197,271,52399,6,0,L|348:262,1,116.999994644165,0|0,1:0|0:0,0:0:0:0:
210,125,52716,6,0,P|163:126|120:140,1,72,0|0,1:0|0:0,0:0:0:0:
129,275,53033,6,0,L|211:270,1,67.5000025749208,0|0,1:0|0:0,0:0:0:0:
313,264,53244,1,2,0:0:0:0:
182,199,53455,1,0,0:0:0:0:
323,84,53666,6,0,L|329:129,1,26.9999991760254,4|0,0:0|0:0,0:0:0:0:
438,145,53878,6,0,L|426:79,1,67.5000025749208
447,285,54089,6,0,P|413:266|345:267,1,90,4|0,1:0|0:0,0:0:0:0:
243,342,54406,5,0,1:0:0:0:
264,359,54512,2,0,L|339:353,1,72,8|0,0:0|1:0,0:0:0:0:
447,285,54934,1,8,0:0:0:0:
335,163,55145,1,0,0:0:0:0:
256,277,55357,6,0,P|290:280|339:258,1,62.9999980773926,0|2,1:0|0:0,0:0:0:0:
479,163,55779,6,0,L|439:314,1,125.999996154785,0|0,1:0|0:0,0:0:0:0:
335,163,56096,5,0,1:0:0:0:
314,146,56202,2,0,P|267:140|231:149,1,72,8|0,0:0|1:0,0:0:0:0:
138,266,56624,1,8,0:0:0:0:
98,122,56835,1,0,0:0:0:0:
234,207,57047,6,0,L|245:124,1,62.9999980773926,2|2,0:0|0:0,0:0:0:0:
176,52,57469,6,0,P|237:65|301:48,1,125.999996154785,0|0,1:0|0:0,0:0:0:0:
402,110,57786,5,0,1:0:0:0:
419,131,57892,2,0,L|413:206,1,72,8|0,0:0|1:0,0:0:0:0:
383,361,58314,1,8,0:0:0:0:
509,258,58526,1,0,0:0:0:0:
340,288,58737,6,0,P|313:315|296:360,1,62.9999980773926,0|2,1:0|0:0,0:0:0:0:
149,315,59159,6,0,L|134:173,1,125.999996154785,0|0,1:0|0:0,0:0:0:0:
259,49,59476,5,0,1:0:0:0:
242,70,59582,2,0,P|236:117|245:153,1,72,8|0,0:0|1:0,0:0:0:0:
338,283,60005,1,10,0:0:0:0:
417,167,60216,1,2,0:0:0:0:
247,171,60427,6,0,L|236:118,1,31.4999990386963,4|0,0:0|0:0,0:0:0:0:
340,214,60638,6,0,L|337:289,1,67.5000025749208
376,51,60850,6,0,P|382:107|442:187,1,125.999996154785,4|0,1:0|0:0,0:0:0:0:
338,282,61166,5,0,1:0:0:0:
320,303,61272,2,0,L|245:311,1,72,8|0,0:0|1:0,0:0:0:0:
89,232,61695,1,8,0:0:0:0:
159,364,61906,1,0,0:0:0:0:
184,222,62117,6,0,P|170:180|134:151,1,62.9999980773926,8|2,0:0|0:0,0:0:0:0:
55,57,62540,6,0,L|210:42,1,125.999996154785,0|0,1:0|0:0,0:0:0:0:
300,97,62857,5,0,1:0:0:0:
317,118,62963,2,0,P|323:165|314:201,1,72,8|0,0:0|1:0,0:0:0:0:
165,290,63385,1,2,0:0:0:0:
232,157,63596,1,2,0:0:0:0:
279,352,63807,6,0,L|259:271,1,62.9999980773926,0|0,1:0|0:0,0:0:0:0:
111,165,64230,6,0,P|185:174|242:149,1,125.999996154785,0|0,1:0|0:0,0:0:0:0:
376,243,64547,5,0,1:0:0:0:
355,225,64653,2,0,L|346:150,1,72,8|0,0:0|1:0,0:0:0:0:
332,30,65075,1,8,0:0:0:0:
434,146,65286,1,0,0:0:0:0:
231,156,65497,6,0,P|226:195|239:240,1,62.9999980773926,8|2,0:0|0:0,0:0:0:0:
364,331,65920,6,0,L|211:346,1,125.999996154785,0|0,1:0|0:0,0:0:0:0:
116,176,66237,5,0,1:0:0:0:
133,197,66343,2,0,P|139:232|134:267,1,72,8|0,0:0|1:0,0:0:0:0:
20,322,66765,1,8,0:0:0:0:
116,176,66976,1,2,0:0:0:0:
238,343,67188,1,0,1:0:0:0:
238,343,67610,6,0,P|235:303|250:267,1,62.9999980773926,4|0,0:0|0:0,0:0:0:0:
355,199,68033,2,0,P|362:229|358:260,1,62.9999980773926,2|0,0:0|0:0,0:0:0:0:
234,195,68455,2,0,P|226:164|230:133,1,62.9999980773926,2|0,0:0|0:0,0:0:0:0:
348,68,68878,1,2,0:0:0:0:
355,199,69089,1,0,0:0:0:0:
208,292,69300,6,0,L|116:296,1,62.9999980773926,2|0,0:0|0:0,0:0:0:0:
202,205,69723,2,0,L|264:202,1,62.9999980773926,2|0,0:0|0:0,0:0:0:0:
355,282,70145,2,0,L|263:286,1,62.9999980773926,2|0,0:0|0:0,0:0:0:0:
355,199,70568,2,0,L|417:196,1,62.9999980773926,2|0,0:0|0:0,0:0:0:0:
382,365,70990,6,0,P|431:332|439:254,1,125.999996154785,2|0,0:0|0:0,0:0:0:0:
264,202,71835,1,2,0:0:0:0:
264,202,72258,1,0,0:0:0:0:
365,287,72469,1,0,0:0:0:0:
349,73,72681,6,0,L|355:147,1,62.9999980773926,2|0,0:0|0:0,0:0:0:0:
365,287,73103,1,2,0:0:0:0:
295,249,73314,1,0,0:0:0:0:
361,208,73526,1,2,0:0:0:0:
296,330,73737,1,0,0:0:0:0:
291,169,73948,1,2,0:0:0:0:
432,244,74159,1,0,0:0:0:0:
295,249,74371,6,0,P|238:230|209:158,1,125.999996154785,2|0,0:0|0:0,0:0:0:0:
350,70,75216,1,2,0:0:0:0:
432,244,75638,1,0,0:0:0:0:
353,164,75850,1,0,0:0:0:0:
288,311,76061,6,0,L|297:229,1,62.9999980773926,2|0,0:0|0:0,0:0:0:0:
353,164,76483,1,0,0:0:0:0:
432,244,76695,2,0,L|438:306,1,62.9999980773926,2|0,0:0|0:0,0:0:0:0:
353,164,77117,1,2,0:0:0:0:
429,88,77328,1,0,0:0:0:0:
364,282,77540,1,0,0:0:0:0:
272,142,77751,5,2,0:0:0:0:
370,150,77962,1,0,0:0:0:0:
314,216,78174,1,2,0:0:0:0:
329,80,78385,1,0,0:0:0:0:
251,275,78596,2,0,P|306:301|364:281,1,125.999996154785,2|0,0:0|0:0,0:0:0:0:
409,88,79441,5,2,0:0:0:0:
363,147,79652,1,0,0:0:0:0:
329,80,79864,1,2,0:0:0:0:
314,216,80075,1,0,0:0:0:0:
463,151,80286,2,0,P|489:95|469:37,1,125.999996154785,2|2,0:0|0:0,0:0:0:0:
329,80,81131,6,0,L|238:89,1,72,0|0,1:0|0:0,0:0:0:0:
178,171,81554,2,0,L|269:180,1,72,0|0,1:0|0:0,0:0:0:0:
329,260,81976,2,0,L|238:269,1,72,0|0,1:0|0:0,0:0:0:0:
142,278,82399,1,0,1:0:0:0:
209,371,82610,1,0,0:0:0:0:
328,188,82821,6,0,P|331:234|324:280,1,72,0|2,1:0|0:0,0:0:0:0:
212,186,83244,2,0,P|209:150|212:114,1,72,0|2,1:0|0:0,0:0:0:0:
328,41,83666,2,0,P|331:87|324:133,1,72,0|2,1:0|0:0,0:0:0:0:
212,186,84089,1,0,1:0:0:0:
255,80,84300,1,2,0:0:0:0:
337,278,84512,5,0,1:0:0:0:
212,186,84934,1,0,1:0:0:0:
353,124,85357,1,0,1:0:0:0:
337,278,85779,5,0,1:0:0:0:
212,186,85990,1,2,0:0:0:0:
353,124,86202,1,0,1:0:0:0:
353,124,86624,5,0,1:0:0:0:
337,278,86835,1,2,0:0:0:0:
270,86,87047,1,0,1:0:0:0:
274,232,87258,1,2,0:0:0:0:
468,77,87469,1,0,1:0:0:0:
353,124,87681,1,4,0:0:0:0:
353,124,87786,1,0,0:0:0:0:
353,124,87892,6,0,P|349:170|364:212,1,80.9999975280763,0|0,1:0|0:0,0:0:0:0:
504,197,88314,2,0,P|466:170|422:162,1,80.9999975280763,0|0,1:0|0:0,0:0:0:0:
370,295,88737,2,0,P|411:275|440:241,1,80.9999975280763,0|0,1:0|0:0,0:0:0:0:
353,124,89159,1,0,1:0:0:0:
359,202,89371,1,0,0:0:0:0:
391,51,89582,6,0,P|345:44|302:57,1,80.9999975280763,0|2,1:0|0:0,0:0:0:0:
279,204,90005,2,0,P|324:210|367:197,1,80.9999975280763,0|2,1:0|0:0,0:0:0:0:
199,109,90427,1,0,1:0:0:0:
226,298,90638,1,2,0:0:0:0:
279,203,90850,1,0,1:0:0:0:
170,205,91061,1,2,0:0:0:0:
227,377,91272,6,0,P|233:331|220:288,1,80.9999975280763,0|0,1:0|0:0,0:0:0:0:
100,167,91695,2,0,P|136:195|179:205,1,80.9999975280763,0|0,1:0|0:0,0:0:0:0:
346,161,92117,2,0,P|303:178|272:210,1,80.9999975280763,0|0,1:0|0:0,0:0:0:0:
227,377,92540,1,0,1:0:0:0:
169,204,92751,1,0,0:0:0:0:
319,318,92962,6,0,P|364:324|407:311,1,80.9999975280763,0|2,1:0|0:0,0:0:0:0:
424,159,93385,2,0,P|378:152|335:165,1,80.9999975280763,0|2,1:0|0:0,0:0:0:0:
476,354,93807,2,0,P|482:308|469:265,1,80.9999975280763,0|2,1:0|0:0,0:0:0:0:
319,318,94230,1,4,0:0:0:0:
319,318,94652,6,0,L|331:223,1,90,4|0,0:0|0:0,0:0:0:0:
236,326,95075,2,0,L|248:231,1,90,8|0,0:0|0:0,0:0:0:0:
153,333,95497,2,0,L|165:238,1,90,8|0,0:0|0:0,0:0:0:0:
181,109,95920,1,8,0:0:0:0:
181,109,96343,6,0,P|225:115|269:107,1,90
406,20,96765,2,0,P|361:13|317:21,1,90,2|0,0:2|0:0,0:0:0:0:
333,183,97188,2,0,P|377:189|421:181,1,90,2|0,0:2|0:0,0:0:0:0:
511,92,97610,1,0,0:0:0:0:
509,123,97715,1,0,0:0:0:0:
507,154,97821,1,0,0:0:0:0:
505,186,97926,1,0,0:0:0:0:
503,217,98033,6,0,L|497:306,1,90,8|0,0:0|0:0,0:0:0:0:
342,240,98455,2,0,L|423:200,1,90,8|0,0:0|0:0,0:0:0:0:
443,368,98878,2,0,L|367:318,1,90,8|0,0:0|0:0,0:0:0:0:
258,240,99300,1,8,0:0:0:0:
258,240,99723,6,0,P|265:307|243:362,1,90
178,188,100040,1,0,0:0:0:0:
178,188,100145,2,0,P|211:158|253:142,1,90,2|0,0:2|0:0,0:0:0:0:
178,286,100462,1,0,0:0:0:0:
178,286,100568,2,0,P|135:271|100:243,1,90,2|0,0:2|0:0,0:0:0:0:
53,88,100990,1,4,0:0:0:0:
53,88,101413,5,2,0:2:0:0:
77,107,101518,1,0,0:0:0:0:
106,120,101624,1,0,0:0:0:0:
137,125,101729,1,0,0:0:0:0:
168,122,101835,2,0,P|199:117|235:124,3,45,2|0|0|0,0:2|0:0|0:0|0:0,0:0:0:0:
276,160,102258,5,2,0:2:0:0:
274,191,102363,1,0,0:0:0:0:
272,222,102469,1,0,0:0:0:0:
270,254,102574,1,0,0:0:0:0:
268,285,102681,2,0,L|266:334,3,45,2|0|0|0,0:2|0:0|0:0|0:0,0:0:0:0:
356,270,103103,5,2,0:2:0:0:
386,262,103208,1,0,0:0:0:0:
417,263,103314,1,0,0:0:0:0:
447,272,103419,1,0,0:0:0:0:
474,289,103526,2,0,P|499:307|519:337,3,45,2|0|0|0,0:2|0:0|0:0|0:0,0:0:0:0:
392,356,103948,5,2,0:2:0:0:
390,325,104053,1,0,0:0:0:0:
388,294,104159,1,0,0:0:0:0:
386,262,104264,1,0,0:0:0:0:
384,231,104371,2,0,L|382:182,3,45,2|0|0|0,0:2|0:0|0:0|0:0,0:0:0:0:
352,96,104793,5,2,0:2:0:0:
311,77,104898,1,0,0:0:0:0:
266,70,105004,1,0,0:0:0:0:
222,75,105109,1,0,0:0:0:0:
180,92,105216,2,0,P|153:98|119:91,1,45,2|0,0:2|0:0,0:0:0:0:
46,190,105427,2,0,P|73:184|107:191,1,45,2|0,0:2|0:0,0:0:0:0:
147,261,105638,5,2,0:2:0:0:
131,302,105743,1,0,0:0:0:0:
95,328,105849,1,0,0:0:0:0:
51,328,105954,1,0,0:0:0:0:
15,302,106060,1,2,0:2:0:0:
0,261,106166,1,0,0:0:0:0:
11,218,106271,1,0,0:0:0:0:
46,190,106377,1,0,0:0:0:0:
147,261,108174,6,0,P|155:210|145:147,1,107.999996704102,0|0,1:0|0:0,0:0:0:0:
272,38,108596,2,0,P|264:91|272:144,1,107.999996704102,0|0,1:0|0:0,0:0:0:0:
373,262,109019,1,8,0:0:0:0:
356,92,109230,1,0,0:0:0:0:
324,347,109441,2,0,P|375:355|438:345,1,107.999996704102,0|0,1:0|0:0,0:0:0:0:
457,180,109864,5,2,0:0:0:0:
266,245,110075,1,0,0:0:0:0:
509,282,110286,1,0,1:0:0:0:
359,187,110497,1,0,0:0:0:0:
274,352,110709,2,0,L|265:234,1,107.999996704102,8|0,0:0|0:0,0:0:0:0:
134,141,111131,2,0,L|125:248,1,107.999996704102,2|0,0:0|0:0,0:0:0:0:
239,60,111554,5,0,1:0:0:0:
265,244,111765,1,0,0:0:0:0:
135,57,111976,1,0,1:0:0:0:
319,140,112188,1,0,0:0:0:0:
210,328,112399,2,0,P|263:336|317:329,1,107.999996704102,8|0,0:0|0:0,0:0:0:0:
457,195,112821,1,0,1:0:0:0:
414,357,113033,1,0,0:0:0:0:
261,136,113244,6,0,B|253:188|253:188|261:242,1,107.999996704102,2|0,0:0|0:0,0:0:0:0:
457,195,113666,2,0,B|464:140|464:140|456:88,1,107.999996704102,0|0,1:0|0:0,0:0:0:0:
356,232,114089,1,8,0:0:0:0:
250,40,114300,1,0,0:0:0:0:
386,143,114512,1,2,0:0:0:0:
261,242,114723,1,0,0:0:0:0:
169,79,114934,6,0,P|160:130|170:193,1,107.999996704102,4|0,1:0|0:0,0:0:0:0:
286,350,115357,2,0,P|293:296|285:243,1,107.999996704102,0|0,1:0|0:0,0:0:0:0:
60,312,115779,1,8,0:0:0:0:
286,350,115990,1,0,0:0:0:0:
149,78,116202,2,0,L|169:199,1,107.999996704102,0|0,1:0|0:0,0:0:0:0:
207,382,116624,5,2,0:0:0:0:
310,258,116835,1,0,0:0:0:0:
60,312,117047,1,0,1:0:0:0:
167,185,117258,1,0,0:0:0:0:
288,359,117469,2,0,P|341:366|394:358,1,107.999996704102,8|0,0:0|0:0,0:0:0:0:
472,208,117892,1,2,0:0:0:0:
488,344,118103,1,0,0:0:0:0:
300,208,118314,5,0,1:0:0:0:
472,208,118526,1,0,0:0:0:0:
256,280,118737,1,0,1:0:0:0:
394,111,118948,1,0,0:0:0:0:
390,351,119159,2,0,L|372:232,1,107.999996704102,8|0,0:0|0:0,0:0:0:0:
488,101,119582,2,0,L|471:207,1,107.999996704102,0|0,1:0|0:0,0:0:0:0:
244,148,120005,5,2,0:0:0:0:
400,132,120216,1,0,0:0:0:0:
216,256,120427,1,0,1:0:0:0:
268,68,120638,1,0,0:0:0:0:
373,244,120850,1,8,0:0:0:0:
160,188,121061,1,0,0:0:0:0:
316,136,121272,1,2,0:0:0:0:
424,324,121483,1,0,0:0:0:0:
216,256,121695,5,0,0:0:0:0:
216,272,121906,1,2,0:0:0:0:
216,288,122117,1,2,0:0:0:0:
216,304,122328,1,2,0:0:0:0:
217,174,122540,1,2,0:0:0:0:
302,236,122751,1,2,0:0:0:0:
129,297,122962,1,2,0:0:0:0:
137,112,123174,1,2,0:0:0:0:
363,303,123385,6,0,P|387:244|372:179,1,107.999996704102,4|0,1:0|0:0,0:0:0:0:
165,122,123807,2,0,P|161:175|184:223,1,107.999996704102,0|0,1:0|0:0,0:0:0:0:
353,73,124230,1,0,1:0:0:0:
302,236,124441,1,8,0:0:0:0:
302,236,124547,1,0,1:0:0:0:
302,236,124652,1,8,0:0:0:0:
265,11,124864,1,0,1:0:0:0:
439,150,125075,6,0,L|320:161,1,107.999996704102,0|0,1:0|0:0,0:0:0:0:
129,297,125497,2,0,L|248:308,1,107.999996704102,0|0,1:0|0:0,0:0:0:0:
439,324,125920,1,0,1:0:0:0:
312,229,126131,1,2,0:0:0:0:
312,229,126237,1,0,1:0:0:0:
312,229,126343,1,8,0:0:0:0:
172,373,126554,1,0,1:0:0:0:
357,305,126765,5,0,1:0:0:0:
179,238,126976,1,0,0:0:0:0:
400,232,127188,1,0,1:0:0:0:
250,317,127399,1,0,0:0:0:0:
292,94,127610,1,0,1:0:0:0:
312,229,127821,1,2,0:0:0:0:
312,229,127927,1,0,1:0:0:0:
312,229,128033,1,2,0:0:0:0:
216,78,128244,1,0,1:0:0:0:
452,154,128455,6,0,P|400:166|348:152,1,107.999996704102,4|0,1:0|0:0,0:0:0:0:
112,76,128878,2,0,P|163:63|215:77,1,107.999996704102,0|0,1:0|0:0,0:0:0:0:
128,270,129300,1,0,1:0:0:0:
165,153,129512,1,2,0:0:0:0:
165,153,129617,1,0,1:0:0:0:
165,153,129723,1,8,0:0:0:0:
218,354,129934,1,0,1:0:0:0:
53,217,130145,6,0,B|45:269|45:269|53:323,1,107.999996704102,0|0,1:0|0:0,0:0:0:0:
248,208,130568,2,0,B|256:154|256:154|248:102,1,107.999996704102,0|0,1:0|0:0,0:0:0:0:
25,35,130990,1,0,1:0:0:0:
142,153,131202,1,8,0:0:0:0:
142,153,131307,1,0,1:0:0:0:
142,153,131413,1,8,0:0:0:0:
246,1,131624,1,0,1:0:0:0:
67,100,131835,6,0,P|53:151|65:203,1,107.999996704102,0|0,1:0|0:0,0:0:0:0:
200,357,132258,2,0,P|213:305|201:253,1,107.999996704102,0|0,1:0|0:0,0:0:0:0:
0,384,132681,1,0,1:0:0:0:
136,305,132892,1,2,0:0:0:0:
136,305,132997,1,0,1:0:0:0:
136,305,133103,1,8,0:0:0:0:
67,100,133314,1,0,1:0:0:0:
28,295,133526,6,0,L|147:306,1,107.999996704102,0|0,1:0|0:0,0:0:0:0:
328,316,133948,1,0,1:0:0:0:
215,186,134159,1,0,0:0:0:0:
277,374,134371,1,0,1:0:0:0:
341,124,134582,1,2,0:0:0:0:
341,124,134688,1,0,1:0:0:0:
341,124,134793,1,2,0:0:0:0:
117,251,135005,1,0,1:0:0:0:
402,226,135216,5,4,0:0:0:0:
