osu file format v14

[General]
AudioFilename: audio.mp3
AudioLeadIn: 0
PreviewTime: 101413
Countdown: 0
SampleSet: Soft
StackLeniency: 0.7
Mode: 0
LetterboxInBreaks: 0
WidescreenStoryboard: 0

[Editor]
Bookmarks: 5,13526,27047,40568,54089,67610,81131,94652,108174,121695,123385,135216
DistanceSpacing: 1
BeatDivisor: 4
GridSize: 8
TimelineZoom: 1

[Metadata]
Title:Alone
TitleUnicode:Alone
Artist:Marshmello
ArtistUnicode:Marshmello
Creator:Venix
Version:Easy
Source:
Tags:Original Mix Monstercat Trap [C_u_r_i] C_u_r_i Curi MkGuh ReFaller Hazu Hazu-
BeatmapID:1375577
BeatmapSetID:649264

[Difficulty]
HPDrainRate:2
CircleSize:2.5
OverallDifficulty:2
ApproachRate:3
SliderMultiplier:0.999999999999999
SliderTickRate:1

[Events]
//Background and Video events
0,0,"bggggggggggggggggggg.jpg",0,0
//Break Periods
//Storyboard Layer 0 (Background)
//Storyboard Layer 1 (Fail)
//Storyboard Layer 2 (Pass)
//Storyboard Layer 3 (Foreground)
//Storyboard Sound Samples

[TimingPoints]
5,422.535211267606,4,2,0,30,1,0
27047,-100,4,2,0,20,0,0
28314,-100,4,2,0,25,0,0
30005,-100,4,2,0,30,0,0
31695,-100,4,2,0,35,0,0
33385,-100,4,2,0,38,0,0
35075,-100,4,2,0,42,0,0
36765,-100,4,2,0,45,0,0
38455,-100,4,2,0,50,0,0
38878,-100,4,2,0,20,0,0
40145,-100,4,2,0,80,0,0
40568,-100,4,2,0,100,0,1
40674,-100,4,2,0,70,0,0
54089,-100,4,2,0,100,0,0
54195,-100,4,2,0,70,0,0
60850,-100,4,2,0,100,0,0
61061,-100,4,2,0,70,0,0
67610,-100,4,2,0,20,0,0
68033,-100,4,2,0,15,0,0
68455,-100,4,2,0,10,0,0
69300,-100,4,2,0,13,0,0
70990,-100,4,2,0,16,0,0
73103,-100,4,2,0,20,0,0
74371,-100,4,2,0,25,0,0
76061,-100,4,2,0,30,0,0
77328,-100,4,2,0,35,0,0
78596,-100,4,2,0,40,0,0
80286,-100,4,2,0,45,0,0
81131,-100,4,2,0,50,0,0
84512,-100,4,2,0,60,0,0
89582,-100,4,2,0,65,0,0
92962,-100,4,2,0,70,0,0
94652,-100,4,1,0,90,0,0
94864,-100,4,1,0,75,0,0
100990,-100,4,1,0,100,0,0
101413,-100,4,1,0,80,0,0
104793,-100,4,1,0,20,0,0
105005,-100,4,1,0,30,0,0
105216,-100,4,1,0,40,0,0
105427,-100,4,1,0,50,0,0
105638,-100,4,1,0,60,0,0
106061,-100,4,1,0,80,0,0
108174,-100,4,2,0,90,0,1
121695,-100,4,2,0,70,0,0
123385,-100,4,2,0,95,0,1
135216,-100,4,2,0,70,0,0

[Colours]
Combo1 : 180,180,180
Combo2 : 17,179,232
Combo3 : 212,212,212
Combo4 : 23,107,200

[HitObjects]
65,293,13526,6,0,P|113:298|179:288,1,99.9999999999999,2|0,0:0|0:0,0:0:0:0:
256,256,14371,1,2,0:0:0:0:
311,172,14793,2,0,L|312:61,1,99.9999999999999,0|2,0:0|0:0,0:0:0:0:
396,207,16483,5,2,0:0:0:0:
447,293,16906,2,0,P|399:298|333:288,1,99.9999999999999,2|0,0:0|0:0,0:0:0:0:
256,256,17751,1,2,0:0:0:0:
201,172,18173,2,0,L|200:61,1,99.9999999999999,0|2,0:0|0:0,0:0:0:0:
401,178,19864,5,2,0:0:0:0:
448,90,20286,2,0,P|400:85|334:95,1,99.9999999999999,2|0,0:0|0:0,0:0:0:0:
256,128,21131,1,2,0:0:0:0:
163,90,21554,2,0,P|113:85|64:90,1,99.9999999999999,0|2,0:0|0:0,0:0:0:0:
111,206,23244,5,2,0:0:0:0:
64,294,23666,2,0,P|112:299|178:289,1,99.9999999999999,2|0,0:0|0:0,0:0:0:0:
256,256,24511,1,2,0:0:0:0:
349,294,24934,2,0,P|399:299|448:294,1,99.9999999999999,0|2,0:0|0:0,0:0:0:0:
360,140,26624,5,0,0:0:0:0:
447,189,27047,2,0,P|452:139|448:90,2,99.9999999999999,4|0|0,0:0|0:0|0:0,0:0:0:0:
361,241,28314,1,2,0:0:0:0:
269,200,28737,2,0,B|169:191|169:191|88:251,1,200
120,346,30005,1,2,0:0:0:0:
218,365,30427,6,0,B|266:372|266:372|316:362,2,99.9999999999999
120,346,31695,1,2,0:0:0:0:
72,259,32117,2,0,P|59:206|143:97,1,200
239,113,33385,1,2,0:0:0:0:
259,210,33807,6,0,L|158:202,2,99.9999999999999
358,216,35075,1,2,0:0:0:0:
457,209,35497,2,0,P|436:153|303:133,1,200
259,210,36765,1,2,0:0:0:0:
213,299,37188,6,0,P|163:304|113:299,2,99.9999999999999
259,210,38455,1,2,0:0:0:0:
303,120,38878,1,0,0:0:0:0:
303,120,40145,1,12,0:0:0:0:
401,102,40568,6,0,B|454:189|454:189|454:302,1,200,4|2,1:0|0:0,0:0:0:0:
380,355,41835,1,8,0:0:0:0:
351,259,42258,2,0,B|293:259|256:285|256:285|217:259|160:259,1,200,0|2,1:0|0:0,0:0:0:0:
132,355,43526,1,0,1:0:0:0:
58,287,43948,6,0,B|58:189|58:189|112:102,1,200,0|2,1:0|0:0,0:0:0:0:
188,37,45216,1,8,0:0:0:0:
197,136,45638,2,0,P|267:158|401:115,1,200,0|2,1:0|0:0,0:0:0:0:
457,55,46906,1,4,0:0:0:0:
482,151,47328,6,0,L|448:355,1,200,0|2,1:0|0:0,0:0:0:0:
350,363,48596,1,8,0:0:0:0:
349,261,49019,2,0,B|256:225|256:225|161:261,1,200,0|2,1:0|0:0,0:0:0:0:
162,363,50286,1,0,1:0:0:0:
62,348,50709,6,0,L|30:151,1,200,0|2,1:0|0:0,0:0:0:0:
128,168,51976,1,8,0:0:0:0:
177,80,52399,2,0,P|255:27|334:80,1,200,0|2,1:0|0:0,0:0:0:0:
384,168,53666,1,4,0:0:0:0:
300,222,54089,6,0,P|288:262|297:323,1,99.9999999999999,4|8,1:0|0:0,0:0:0:0:
381,369,54934,2,0,P|429:377|477:364,1,99.9999999999999,8|2,0:0|0:0,0:0:0:0:
422,280,55779,2,0,P|403:229|428:82,1,200,0|8,1:0|0:0,0:0:0:0:
476,3,57047,1,0,1:0:0:0:
376,15,57469,6,0,L|265:9,1,99.9999999999999,0|8,1:0|0:0,0:0:0:0:
235,103,58314,2,0,L|124:109,1,99.9999999999999,8|2,0:0|0:0,0:0:0:0:
35,116,59159,2,0,B|0:210|0:210|30:304,1,200,0|2,1:0|0:0,0:0:0:0:
128,283,60427,1,4,0:0:0:0:
211,227,60850,6,0,P|259:218|307:231,1,99.9999999999999,4|8,1:0|0:0,0:0:0:0:
399,268,61695,2,0,P|447:276|495:263,1,99.9999999999999,8|8,0:0|0:0,0:0:0:0:
436,184,62540,2,0,P|383:180|313:291,1,200,0|8,1:0|0:0,0:0:0:0:
372,371,63807,1,0,1:0:0:0:
271,368,64230,6,0,B|222:360|222:360|172:370,1,99.9999999999999,0|8,1:0|0:0,0:0:0:0:
112,290,65075,2,0,B|63:298|63:298|13:288,1,99.9999999999999,8|8,0:0|0:0,0:0:0:0:
67,203,65920,2,0,P|149:171|252:229,1,200,0|8,1:0|0:0,0:0:0:0:
305,301,67188,1,0,1:0:0:0:
395,342,67610,6,0,L|423:124,1,200,4|0,0:0|0:0,0:0:0:0:
372,56,68878,1,2,0:0:0:0:
304,129,69300,2,0,P|256:138|208:125,1,99.9999999999999
114,88,70145,2,0,P|66:80|18:93,1,99.9999999999999,0|2,0:0|0:0,0:0:0:0:
6,192,70990,6,0,L|12:306,1,99.9999999999999
75,368,71835,1,0,0:0:0:0:
151,303,72258,1,2,0:0:0:0:
236,354,72681,1,0,0:0:0:0:
238,253,73103,2,0,P|174:204|67:246,1,200,0|2,0:0|0:0,0:0:0:0:
151,303,74371,6,0,P|199:346|237:353,1,99.9999999999999
327,322,75216,1,0,0:0:0:0:
416,365,75638,1,2,0:0:0:0:
477,285,76061,2,0,L|481:177,1,99.9999999999999
401,123,76906,2,0,L|397:15,1,99.9999999999999,0|2,0:0|0:0,0:0:0:0:
307,66,77751,6,0,B|213:101|213:101|119:71,1,200
28,26,79019,1,2,0:0:0:0:
17,125,79441,2,0,P|42:217|133:246,1,200
231,222,80709,1,2,0:0:0:0:
318,269,81131,6,0,P|366:278|414:265,1,99.9999999999999,0|0,1:0|1:0,0:0:0:0:
494,204,81976,2,0,P|503:156|490:108,1,99.9999999999999,0|0,1:0|1:0,0:0:0:0:
403,57,82821,2,0,B|354:49|354:49|304:59,1,99.9999999999999,0|2,1:0|1:2,0:0:0:0:
234,129,83666,2,0,B|184:139|184:139|135:131,1,99.9999999999999,0|2,1:0|1:2,0:0:0:0:
48,81,84512,5,0,1:0:0:0:
8,172,84934,2,0,P|-5:219|3:268,1,99.9999999999999,0|0,1:0|1:0,0:0:0:0:
70,343,85779,1,0,1:0:0:0:
162,299,86202,2,0,B|255:263|255:263|348:299,1,200,0|2,1:0|1:2,0:0:0:0:
442,343,87469,1,8,1:2:0:0:
475,250,87892,6,0,L|486:148,1,99.9999999999999,0|0,1:0|1:0,0:0:0:0:
389,123,88737,2,0,L|378:21,1,99.9999999999999,0|0,1:0|1:0,0:0:0:0:
300,87,89582,2,0,B|251:95|251:95|201:85,1,99.9999999999999,0|2,1:0|1:2,0:0:0:0:
115,34,90427,2,0,B|65:24|65:24|16:32,1,99.9999999999999,0|2,1:0|1:2,0:0:0:0:
6,131,91272,5,0,1:0:0:0:
99,167,91695,2,0,L|88:266,1,99.9999999999999,0|0,1:0|1:0,0:0:0:0:
38,355,92540,1,0,1:0:0:0:
137,368,92962,2,0,P|229:343|258:252,1,200,2|2,1:2|1:2,0:0:0:0:
256,150,94230,1,4,0:2:0:0:
328,81,94652,6,0,P|375:68|424:76,2,99.9999999999999,4|8|8,0:0|0:0|0:0,0:0:0:0:
256,150,95920,1,0,0:0:0:0:
184,81,96343,2,2,P|137:68|88:76,2,99.9999999999999
256,150,97610,1,0,0:0:0:0:
194,229,98033,6,0,L|136:313,2,99.9999999999999,8|8|8,0:0|0:0|0:0,0:0:0:0:
256,150,99300,1,0,0:0:0:0:
318,229,99723,2,2,L|376:313,2,99.9999999999999
256,150,100990,1,4,0:0:0:0:
169,89,101413,6,0,P|256:47|344:89,1,200,0|2,0:0|2:0,0:0:0:0:
367,188,102681,1,8,0:0:0:0:
352,286,103103,2,0,B|292:286|256:310|256:310|219:286|158:286,1,200,0|2,0:0|0:2,0:0:0:0:
145,188,104371,1,8,0:0:0:0:
162,89,104793,6,0,B|255:53|255:53|350:89,1,200,0|2,0:0|0:2,0:0:0:0:
437,135,106061,1,8,0:0:0:0:
110,100,108174,6,0,B|160:110|160:110|209:102,1,99.9999999999999,4|0,1:0|1:0,0:0:0:0:
298,57,109019,1,8,0:0:0:0:
391,92,109441,1,0,1:0:0:0:
483,53,109864,2,0,L|469:259,1,200,2|8,0:0|0:0,0:0:0:0:
461,352,111131,1,0,0:0:0:0:
377,296,111554,6,0,P|329:287|281:300,1,99.9999999999999,0|0,1:0|1:0,0:0:0:0:
190,343,112399,2,0,P|142:351|94:338,1,99.9999999999999,8|0,0:0|1:0,0:0:0:0:
42,252,113244,2,0,L|29:53,1,200,2|8,0:0|0:0,0:0:0:0:
125,79,114512,1,0,0:0:0:0:
216,37,114934,6,0,P|263:23|312:32,1,99.9999999999999,4|0,1:0|1:0,0:0:0:0:
369,115,115779,1,8,0:0:0:0:
319,201,116202,1,0,1:0:0:0:
360,291,116624,2,0,P|444:254|458:150,1,200,2|8,0:0|0:0,0:0:0:0:
369,115,117892,1,0,0:0:0:0:
301,188,118314,6,0,L|202:177,1,99.9999999999999,0|0,1:0|1:0,0:0:0:0:
164,83,119159,2,0,L|65:94,1,99.9999999999999,8|0,0:0|1:0,0:0:0:0:
21,184,120005,2,0,P|34:278|121:319,1,200,2|8,0:0|0:0,0:0:0:0:
209,272,121272,1,2,0:0:0:0:
300,312,121695,6,0,L|399:301,2,99.9999999999999,0|2|2,0:0|0:0|0:0,0:0:0:0:
209,272,122962,1,0,0:0:0:0:
186,174,123385,6,0,L|175:75,1,99.9999999999999,0|0,1:0|1:0,0:0:0:0:
259,21,124230,2,0,P|306:7|355:16,1,99.9999999999999,0|2,1:0|0:0,0:0:0:0:
404,103,125075,5,0,1:0:0:0:
378,199,125497,1,0,1:0:0:0:
305,267,125920,2,0,P|257:280|208:271,1,99.9999999999999,0|8,1:0|0:0,0:0:0:0:
186,174,126765,6,0,L|175:75,1,99.9999999999999,0|0,1:0|1:0,0:0:0:0:
84,117,127610,2,0,L|95:216,1,99.9999999999999,0|4,1:0|0:0,0:0:0:0:
110,315,128455,5,4,1:0:0:0:
206,287,128878,2,0,P|253:273|302:282,1,99.9999999999999,0|0,1:0|1:0,0:0:0:0:
375,350,129723,1,8,0:0:0:0:
425,263,130145,6,0,L|434:161,1,99.9999999999999,0|0,1:0|1:0,0:0:0:0:
342,122,130990,2,0,L|333:20,1,99.9999999999999,0|2,1:0|0:0,0:0:0:0:
240,61,131835,5,0,1:0:0:0:
141,40,132258,1,0,1:0:0:0:
78,117,132681,2,0,P|69:165|82:213,1,99.9999999999999,0|8,1:0|0:0,0:0:0:0:
148,289,133526,5,0,1:0:0:0:
225,225,133948,2,0,P|319:206|385:275,1,200,0|2,1:0|0:0,0:0:0:0:
416,368,135216,5,4,0:0:0:0:
