osu file format v14

[General]
AudioFilename: audio.mp3
AudioLeadIn: 0
PreviewTime: 19870
Countdown: 0
SampleSet: Soft
StackLeniency: 0.7
Mode: 0
LetterboxInBreaks: 0
WidescreenStoryboard: 1

[Editor]
Bookmarks: 12370
DistanceSpacing: 1.5
BeatDivisor: 4
GridSize: 8
TimelineZoom: 1

[Metadata]
Title:Alone
TitleUnicode:Alone
Artist:Marshmello
ArtistUnicode:Marshmello
Creator:Umi
Version:Hyper
Source:
Tags:Monstercat trap EDM Left Kyuukai
BeatmapID:2125423
BeatmapSetID:1015520

[Difficulty]
HPDrainRate:6
CircleSize:4
OverallDifficulty:6
ApproachRate:7
SliderMultiplier:1.5
SliderTickRate:1

[Events]
//Background and Video events
0,0,"5.jpg",0,0
//Break Periods
2,34119,46540
2,128345,141188
//Storyboard Layer 0 (Background)
//Storyboard Layer 1 (Fail)
//Storyboard Layer 2 (Pass)
//Storyboard Layer 3 (Foreground)
//Storyboard Sound Samples

[TimingPoints]
117,422.535211267606,4,2,1,50,1,0
117,-142.857142857143,4,2,1,50,0,0
6877,-117.647058823529,4,2,1,60,0,0
20398,-100,4,2,2,80,0,1
33497,-100,4,2,2,70,0,0
47440,-142.857142857143,4,2,1,60,0,0
60962,-117.647058823529,4,2,1,70,0,0
74483,-100,4,2,3,80,0,1
88004,-100,4,2,3,90,0,1
101525,-117.647058823529,4,2,1,60,0,0
115046,-100,4,2,2,80,0,1
128145,-100,4,2,2,70,0,0
142088,-142.857142857143,4,2,1,75,0,0
155609,-117.647058823529,4,2,1,60,0,0
169131,-100,4,2,3,80,0,1
182652,-100,4,2,3,90,0,1
195962,-100,4,2,3,90,0,0

[Colours]
Combo1 : 43,101,198
Combo2 : 135,44,209
Combo3 : 78,201,186
Combo4 : 88,197,233
Combo5 : 203,41,126
Combo6 : 62,123,106

[HitObjects]
268,76,117,6,0,L|215:76,1,52.4999983978272,0|0,0:0|0:0,0:0:0:0:
150,143,539,2,0,L|97:143,1,52.4999983978272,0|0,0:0|0:0,0:0:0:0:
214,212,962,2,0,L|266:212,1,52.4999983978272,0|0,0:0|0:0,0:0:0:0:
338,150,1384,1,0,0:0:0:0:
424,261,1595,6,0,P|398:267|373:275,1,52.4999983978272,0|0,0:0|0:0,0:0:0:0:
304,342,2018,2,0,P|278:336|253:329,1,52.4999983978272,0|0,0:0|0:0,0:0:0:0:
183,264,2440,2,0,L|171:315,1,52.4999983978272,0|0,0:0|0:0,0:0:0:0:
90,194,2863,2,0,L|92:246,2,52.4999983978272,0|0|0,0:0|0:0|0:0,0:0:0:0:
29,120,3497,5,0,0:0:0:0:
99,58,3708,2,0,P|125:53|151:55,1,52.4999983978272,0|0,0:0|0:0,0:0:0:0:
234,102,4131,2,0,L|219:152,1,52.4999983978272,0|0,0:0|0:0,0:0:0:0:
332,243,4553,2,0,L|317:192,2,52.4999983978272,0|0|0,0:0|0:0|0:0,0:0:0:0:
364,332,5187,5,0,0:0:0:0:
466,248,5398,2,0,P|440:252|414:259,1,52.4999983978272,0|0,0:0|0:0,0:0:0:0:
355,183,5821,2,0,P|332:196|313:214,1,52.4999983978272,0|0,0:0|0:0,0:0:0:0:
224,180,6243,2,0,P|205:199|192:222,1,52.4999983978272,0|0,0:0|0:0,0:0:0:0:
233,308,6666,1,0,0:0:0:0:
140,338,6877,6,0,P|120:312|107:283,1,63.7500012159348,2|0,0:0|0:0,0:0:0:0:
98,188,7300,2,0,L|111:61,2,127.50000243187,2|2|2,0:0|0:0|0:0,0:0:0:0:
174,245,8356,1,2,0:0:0:0:
255,194,8567,2,0,P|249:162|236:133,1,63.7500012159348,2|0,0:0|0:0,0:0:0:0:
347,164,8990,2,0,P|341:132|328:103,1,63.7500012159348
438,135,9412,2,0,P|432:103|419:74,1,63.7500012159348
340,19,9835,1,2,0:0:0:0:
158,79,10257,6,0,P|153:142|186:195,1,127.50000243187,2|2,0:0|0:0,0:0:0:0:
375,179,11102,2,0,P|380:242|347:295,1,127.50000243187,2|2,0:0|0:0,0:0:0:0:
254,320,11736,1,2,0:0:0:0:
183,255,11947,6,0,L|119:254,1,63.7500012159348,2|0,0:0|0:0,0:0:0:0:
221,178,12370,2,0,L|157:177,1,63.7500012159348,0|0,0:0|0:0,0:0:0:0:
257,99,12793,2,0,L|193:98,1,63.7500012159348,0|0,0:0|0:0,0:0:0:0:
117,39,13215,1,2,0:0:0:0:
18,203,13638,6,0,L|27:265,1,63.7500012159348,2|0,0:0|0:0,0:0:0:0:
151,321,14060,2,0,L|159:257,1,63.7500012159348,2|0,0:0|0:0,0:0:0:0:
127,166,14483,2,0,P|158:158|190:162,1,63.7500012159348,2|0,0:0|0:0,0:0:0:0:
259,227,14905,1,2,0:0:0:0:
342,179,15117,1,2,0:0:0:0:
321,85,15328,6,0,L|226:71,2,95.6250018239022,2|0|0,0:0|0:0|0:0,0:0:0:0:
415,101,16173,1,0,0:0:0:0:
462,285,16595,2,0,L|395:294,1,63.7500012159348,2|0,0:0|0:0,0:0:0:0:
291,338,17018,6,0,P|303:308|308:276,1,63.7500012159348,2|0,0:0|0:0,0:0:0:0:
187,219,17440,2,0,P|193:251|204:281,1,63.7500012159348,2|0,0:0|0:0,0:0:0:0:
256,137,17863,2,0,L|128:134,1,127.50000243187,2|2,0:0|0:0,0:0:0:0:
46,184,18497,1,2,0:0:0:0:
110,52,18708,1,2,0:0:0:0:
256,192,18814,12,4,19976,0:0:0:0:
197,160,20398,6,0,P|234:165|271:160,1,75,4|2,0:1|0:1,0:0:0:0:
315,139,20715,1,4,0:1:0:0:
315,139,20821,2,0,P|331:172|341:208,1,75,0|4,0:0|0:1,0:0:0:0:
307,299,21243,1,2,0:1:0:0:
228,240,21455,1,2,0:1:0:0:
139,303,21666,2,0,L|124:229,1,75,0|2,0:1|0:1,0:0:0:0:
59,156,22088,5,4,0:1:0:0:
97,66,22300,1,2,0:1:0:0:
97,66,22405,1,4,0:1:0:0:
97,66,22511,2,0,P|132:76|170:79,1,75,2|4,0:1|0:1,0:0:0:0:
259,42,22933,2,0,P|295:30|333:28,1,75,2|2,0:1|0:1,0:0:0:0:
424,62,23356,1,4,0:1:0:0:
458,152,23567,1,2,0:1:0:0:
401,230,23778,6,0,P|363:190|357:135,2,112.5,4|4|4,0:1|0:1|0:1,0:0:0:0:
496,258,24624,1,2,0:1:0:0:
421,319,24835,1,2,0:1:0:0:
325,293,25046,2,0,P|297:267|277:235,1,75,4|2,0:1|0:1,0:0:0:0:
244,106,25469,6,0,P|224:137|197:162,1,75,4|2,0:1|0:1,0:0:0:0:
151,181,25786,1,4,0:1:0:0:
151,181,25891,2,0,L|160:256,1,75,2|4,0:1|0:1,0:0:0:0:
220,332,26314,1,2,0:1:0:0:
256,241,26525,1,2,0:1:0:0:
131,279,26736,2,0,L|56:273,1,75,4|2,0:1|0:1,0:0:0:0:
10,143,27159,6,0,L|84:137,1,75,4|2,0:1|0:1,0:0:0:0:
128,160,27476,1,4,0:1:0:0:
128,160,27581,1,2,1:0:0:0:
193,87,27793,1,4,0:1:0:0:
254,161,28004,2,0,P|253:198|247:235,1,75,2|2,1:0|0:1,0:0:0:0:
156,336,28426,2,0,P|193:325|230:321,1,75,4|2,0:1|0:1,0:0:0:0:
326,339,28849,6,0,L|340:227,2,112.5,4|4|4,0:1|0:1|0:1,0:0:0:0:
444,267,29694,2,0,L|432:192,1,75,2|2,1:0|0:1,0:0:0:0:
347,75,30117,2,0,L|335:149,1,75,4|2,0:1|0:1,0:0:0:0:
276,226,30539,6,0,P|240:217|203:216,1,75,4|2,0:1|0:1,0:0:0:0:
158,225,30856,1,4,0:1:0:0:
115,249,30962,2,0,L|107:174,1,75,2|4,1:0|0:1,0:0:0:0:
44,99,31384,2,0,L|118:92,1,75,2|2,1:0|0:1,0:0:0:0:
198,35,31807,2,0,L|205:109,1,75,4|2,0:1|0:1,0:0:0:0:
172,247,32229,6,0,P|224:229|280:234,2,112.5,4|4|4,0:1|0:1|0:1,0:0:0:0:
85,294,33074,1,2,1:0:0:0:
171,339,33286,1,2,0:1:0:0:
90,205,33497,2,0,L|96:120,2,75,4|0|0,0:1|0:0|0:0,0:0:0:0:
271,121,47440,6,0,L|375:108,1,104.999996795654,8|8,0:0|0:0,0:0:0:0:
242,245,48286,2,0,L|137:232,1,104.999996795654,8|8,0:0|0:0,0:0:0:0:
63,174,48919,1,0,0:0:0:0:
115,95,49131,6,0,P|139:83|164:75,1,52.4999983978272,8|0,0:0|0:0,0:0:0:0:
258,69,49553,2,0,L|268:120,1,52.4999983978272,8|0,0:0|0:0,0:0:0:0:
353,207,49976,2,0,L|363:155,1,52.4999983978272,8|0,0:0|0:0,0:0:0:0:
254,235,50398,2,0,P|266:259|283:279,1,52.4999983978272,8|0,0:0|0:0,0:0:0:0:
413,327,50821,6,0,P|362:335|322:368,1,104.999996795654,8|8,0:0|0:0,0:0:0:0:
109,254,51666,2,0,P|161:247|213:242,1,104.999996795654,8|8,0:0|0:0,0:0:0:0:
297,286,52300,1,0,0:0:0:0:
342,203,52511,6,0,L|333:151,1,52.4999983978272,8|0,0:0|0:0,0:0:0:0:
235,67,52933,2,0,P|211:80|189:94,2,52.4999983978272,8|0|8,0:0|0:0|0:0,0:0:0:0:
324,35,53567,1,0,0:0:0:0:
438,132,53778,2,0,L|385:126,1,52.4999983978272,8|8,0:0|0:0,0:0:0:0:
338,122,54095,1,8,0:0:0:0:
338,121,54201,6,0,P|323:144|313:168,1,52.4999983978272,8|0,0:0|0:0,0:0:0:0:
393,289,54624,2,0,P|378:267|361:247,1,52.4999983978272,8|0,0:0|0:0,0:0:0:0:
208,254,55046,2,0,P|233:250|258:242,1,52.4999983978272,8|0,0:0|0:0,0:0:0:0:
313,168,55469,1,8,0:0:0:0:
242,105,55680,1,0,0:0:0:0:
313,168,55891,6,0,P|365:163|417:158,1,104.999996795654,8|8,0:0|0:0,0:0:0:0:
448,67,56525,1,0,0:0:0:0:
363,23,56736,2,0,P|347:45|335:68,1,52.4999983978272,8|0,0:0|0:0,0:0:0:0:
333,163,57159,1,8,0:0:0:0:
250,209,57370,1,0,0:0:0:0:
168,161,57581,6,0,P|158:136|150:111,2,52.4999983978272,8|0|8,0:0|0:0|0:0,0:0:0:0:
91,216,58215,1,0,0:0:0:0:
63,93,58426,2,0,P|88:49|135:27,1,104.999996795654,8|8,0:0|0:0,0:0:0:0:
360,115,59271,6,0,L|356:167,1,52.4999983978272,8|0,0:0|0:0,0:0:0:0:
300,244,59694,1,8,0:0:0:0:
236,173,59905,1,0,0:0:0:0:
162,281,60117,2,0,L|213:289,1,52.4999983978272,8|0,0:0|0:0,0:0:0:0:
91,202,60539,2,0,L|79:150,1,52.4999983978272,8|0,0:0|0:0,0:0:0:0:
111,67,60962,5,8,0:0:0:0:
311,202,61384,1,8,0:0:0:0:
234,21,61807,1,8,0:0:0:0:
151,196,62229,1,8,0:0:0:0:
200,277,62440,1,0,0:0:0:0:
252,357,62652,6,0,L|379:350,3,127.50000243187,8|8|8|8,0:0|0:0|0:0|0:0,0:0:0:0:
440,275,64131,1,8,0:0:0:0:
440,275,64236,1,8,0:0:0:0:
439,275,64342,6,0,P|447:244|453:212,1,63.7500012159348,8|0,0:0|0:0,0:0:0:0:
334,145,64764,2,0,P|339:177|347:208,1,63.7500012159348,8|0,0:0|0:0,0:0:0:0:
490,134,65187,2,0,L|426:126,1,63.7500012159348,8|0,0:0|0:0,0:0:0:0:
334,146,65609,1,8,0:0:0:0:
296,57,65821,1,0,0:0:0:0:
209,95,66032,6,0,P|200:126|196:158,1,63.7500012159348,8|8,0:0|0:0,0:0:0:0:
190,205,66349,1,8,0:0:0:0:
190,205,66455,1,8,0:0:0:0:
261,268,66666,2,0,L|259:299,2,31.8750006079674,8|8|8,0:0|0:0|0:0,0:0:0:0:
312,187,67088,1,0,0:0:0:0:
393,234,67300,2,0,P|392:266|384:297,1,63.7500012159348,8|0,0:0|0:0,0:0:0:0:
256,336,67722,6,0,L|224:332,3,31.8750006079674,8|8|8|8,0:0|0:0|0:0|0:0,0:0:0:0:
180,272,68145,2,0,L|148:268,3,31.8750006079674,8|8|8|8,0:0|0:0|0:0|0:0,0:0:0:0:
76,254,68567,2,0,P|66:191|83:130,1,127.50000243187,8|8,0:0|0:0,0:0:0:0:
137,51,69201,1,8,0:0:0:0:
225,88,69412,6,0,L|218:119,3,31.8750006079674,8|8|8|8,0:0|0:0|0:0|0:0,0:0:0:0:
292,131,69835,2,0,L|298:162,3,31.8750006079674,8|8|8|8,0:0|0:0|0:0|0:0,0:0:0:0:
230,188,70257,2,0,L|223:219,3,31.8750006079674,8|8|8|8,0:0|0:0|0:0|0:0,0:0:0:0:
296,234,70680,2,0,L|302:265,3,31.8750006079674,8|8|8|8,0:0|0:0|0:0|0:0,0:0:0:0:
262,325,71102,6,0,P|199:326|149:288,1,127.50000243187,8|8,0:0|0:0,0:0:0:0:
84,217,71736,1,8,0:0:0:0:
121,129,71947,2,0,L|152:131,3,31.8750006079674,8|8|8|8,0:0|0:0|0:0|0:0,0:0:0:0:
215,170,72370,2,0,L|246:167,3,31.8750006079674,8|8|8|8,0:0|0:0|0:0|0:0,0:0:0:0:
306,125,72793,6,0,P|320:44|241:62,2,191.250003647804
99,225,74483,6,0,L|173:216,1,75,6|0,0:0|0:0,0:0:0:0:
247,152,74905,1,2,0:0:0:0:
324,211,75117,1,0,0:0:0:0:
301,305,75328,2,0,L|226:296,1,75,8|0,0:0|0:0,0:0:0:0:
108,242,75750,2,0,P|90:274|81:310,1,75,2|0,0:0|0:0,0:0:0:0:
12,240,76173,5,0,0:0:0:0:
78,168,76384,1,0,0:0:0:0:
12,96,76595,1,2,0:0:0:0:
78,24,76807,1,0,0:0:0:0:
211,93,77018,2,0,L|136:98,1,75,8|0,0:0|0:0,0:0:0:0:
12,96,77440,1,0,0:0:0:0:
17,193,77652,1,0,0:0:0:0:
136,247,77863,6,0,P|129:210|113:176,1,75,2|0,0:0|0:0,0:0:0:0:
229,269,78286,2,0,L|303:262,1,75,2|0,0:0|0:0,0:0:0:0:
400,252,78708,1,8,0:0:0:0:
441,163,78919,1,0,0:0:0:0:
363,101,79131,2,0,P|332:121|310:150,1,75,2|0,0:0|0:0,0:0:0:0:
241,265,79553,5,0,0:0:0:0:
150,229,79764,1,0,0:0:0:0:
241,188,79976,1,2,0:0:0:0:
150,152,80187,1,0,0:0:0:0:
220,38,80398,2,0,P|232:73|240:109,1,75,8|0,0:0|0:0,0:0:0:0:
228,207,80821,1,0,0:0:0:0:
150,152,81032,1,0,0:0:0:0:
265,233,81243,6,0,L|339:227,1,75,6|0,0:0|0:0,0:0:0:0:
427,184,81666,1,2,0:0:0:0:
396,276,81877,1,0,0:0:0:0:
355,364,82088,2,0,P|318:360|281:354,1,75,8|0,0:0|0:0,0:0:0:0:
120,307,82511,2,0,P|157:302|194:296,1,75,2|0,0:0|0:0,0:0:0:0:
344,256,82933,5,0,0:0:0:0:
408,182,83145,1,0,0:0:0:0:
360,96,83356,1,2,0:0:0:0:
262,97,83567,1,0,0:0:0:0:
205,178,83778,2,0,L|195:252,1,75,8|0,0:0|0:0,0:0:0:0:
258,327,84201,1,0,0:0:0:0:
328,259,84412,1,0,0:0:0:0:
432,339,84624,6,0,L|422:264,1,75,2|0,0:0|0:0,0:0:0:0:
379,168,85046,2,0,P|415:175|453:176,1,75,2|0,0:0|0:0,0:0:0:0:
329,89,85469,2,0,P|292:90|255:97,1,75,8|0,0:0|0:0,0:0:0:0:
179,158,85891,1,2,0:0:0:0:
237,235,86102,1,0,0:0:0:0:
157,290,86314,6,0,L|82:283,2,75,0|0|2,0:0|0:0|0:0,0:0:0:0:
234,348,86947,1,0,0:0:0:0:
318,233,87159,2,0,L|392:226,2,75,8|0|0,0:0|0:0|0:0,0:0:0:0:
233,184,87793,1,0,0:0:0:0:
308,82,88004,5,0,0:0:0:0:
405,82,88215,1,0,0:0:0:0:
405,179,88426,1,0,0:0:0:0:
308,179,88637,1,0,0:0:0:0:
308,276,88849,1,0,0:0:0:0:
405,279,89060,1,0,0:0:0:0:
308,350,89271,1,0,0:0:0:0:
212,278,89483,1,0,0:0:0:0:
308,207,89694,6,0,L|324:133,1,75,6|0,0:0|0:0,0:0:0:0:
172,36,90117,2,0,L|188:109,1,75,2|0,0:0|0:0,0:0:0:0:
134,190,90539,1,0,0:0:0:0:
194,266,90750,1,0,0:0:0:0:
194,266,90856,1,2,0:0:0:0:
193,266,90962,2,0,P|231:263|268:259,1,75,0|2,0:0|0:0,0:0:0:0:
328,132,91384,6,0,P|366:134|403:138,1,75,2|0,0:0|0:0,0:0:0:0:
456,221,91807,2,0,L|448:295,1,75,2|0,0:0|0:0,0:0:0:0:
377,362,92229,1,2,0:0:0:0:
313,288,92440,2,0,L|308:250,2,37.5,0|2|0,0:0|0:0|0:0,0:0:0:0:
227,334,92863,1,2,0:0:0:0:
165,258,93074,6,0,P|190:230|221:207,1,75,2|0,0:0|0:0,0:0:0:0:
311,171,93497,1,2,0:0:0:0:
398,213,93708,1,0,0:0:0:0:
446,128,93919,1,2,0:0:0:0:
362,77,94131,2,0,L|324:79,2,37.5,0|2|0,0:0|0:0|0:0,0:0:0:0:
269,2,94553,1,2,0:0:0:0:
212,81,94764,6,0,L|226:154,1,75,6|0,0:0|0:0,0:0:0:0:
245,266,95187,2,0,L|171:249,1,75,2|0,0:0|0:0,0:0:0:0:
65,214,95609,2,0,L|117:160,1,75,0|0,0:0|0:0,0:0:0:0:
149,123,95926,1,2,0:0:0:0:
149,123,96032,1,0,0:0:0:0:
233,74,96243,1,2,0:0:0:0:
330,82,96455,6,0,P|355:109|376:140,1,75,2|0,0:0|0:0,0:0:0:0:
317,218,96877,2,0,P|291:244|270:275,1,75,2|0,0:0|0:0,0:0:0:0:
241,369,97300,1,2,0:0:0:0:
170,301,97511,1,0,0:0:0:0:
170,301,97617,1,2,0:0:0:0:
170,301,97722,2,0,L|95:305,1,75,0|2,0:0|0:0,0:0:0:0:
18,185,98145,6,0,L|92:189,1,75,2|0,0:0|0:0,0:0:0:0:
186,214,98567,1,2,0:0:0:0:
242,135,98778,1,0,0:0:0:0:
324,187,98990,2,0,P|343:218|351:255,1,75,0|0,0:0|0:0,0:0:0:0:
351,304,99307,1,2,0:0:0:0:
351,304,99412,1,0,0:0:0:0:
273,364,99624,1,2,0:0:0:0:
183,323,99835,6,0,P|163:291|155:254,2,75,2|0|2,0:0|0:0|0:0,0:0:0:0:
254,255,100469,1,0,0:0:0:0:
205,170,100680,1,0,0:0:0:0:
108,183,100891,2,0,L|70:187,2,37.5,0|2|0,0:0|0:0|0:0,0:0:0:0:
205,170,101314,1,2,0:0:0:0:
297,212,101525,6,0,L|303:275,1,63.7500012159348,6|0,0:0|0:0,0:0:0:0:
392,239,101947,2,0,L|406:112,2,127.50000243187,2|2|2,0:0|0:0|0:0,0:0:0:0:
451,314,103004,1,2,0:0:0:0:
361,348,103215,6,0,L|297:340,1,63.7500012159348,2|0,0:0|0:0,0:0:0:0:
212,245,103638,2,0,L|275:237,1,63.7500012159348,0|0,0:0|0:0,0:0:0:0:
361,144,104060,2,0,L|297:136,1,63.7500012159348,0|0,0:0|0:0,0:0:0:0:
202,128,104483,1,2,0:0:0:0:
115,299,104905,6,0,P|176:279|235:255,1,127.50000243187,2|2,0:0|0:0,0:0:0:0:
381,131,105750,2,0,L|396:257,1,127.50000243187,2|2,0:0|0:0,0:0:0:0:
458,330,106384,1,2,0:0:0:0:
316,294,106595,6,0,L|313:230,1,63.7500012159348,2|0,0:0|0:0,0:0:0:0:
211,135,107018,2,0,L|264:170,1,63.7500012159348,0|0,0:0|0:0,0:0:0:0:
398,132,107440,2,0,L|341:162,1,63.7500012159348,0|0,0:0|0:0,0:0:0:0:
300,248,107863,1,2,0:0:0:0:
119,311,108286,6,0,L|111:247,1,63.7500012159348,2|0,0:0|0:0,0:0:0:0:
226,233,108708,2,0,L|233:169,1,63.7500012159348,2|0,0:0|0:0,0:0:0:0:
166,66,109131,2,0,P|226:88|289:80,1,127.50000243187,2|2,0:0|0:0,0:0:0:0:
353,11,109764,1,2,0:0:0:0:
425,71,109976,6,0,P|444:98|453:128,1,63.7500012159348,2|0,0:0|0:0,0:0:0:0:
366,167,110398,2,0,P|347:194|338:224,1,63.7500012159348,0|0,0:0|0:0,0:0:0:0:
429,251,110821,2,0,P|448:278|457:308,1,63.7500012159348
389,375,111243,1,2,0:0:0:0:
230,268,111666,6,0,P|199:260|167:257,1,63.7500012159348,2|0,0:0|0:0,0:0:0:0:
76,286,112088,2,0,L|80:222,1,63.7500012159348,2|0,0:0|0:0,0:0:0:0:
165,101,112511,2,0,L|169:164,1,63.7500012159348,2|0,0:0|0:0,0:0:0:0:
239,229,112933,1,2,0:0:0:0:
261,135,113145,1,2,0:0:0:0:
147,205,113356,5,2,0:0:0:0:
256,192,113462,12,2,114624,0:0:0:0:
169,123,115046,6,0,L|243:111,1,75,4|2,0:1|0:1,0:0:0:0:
281,81,115363,1,4,0:1:0:0:
325,98,115469,2,0,P|341:131|352:167,1,75,2|4,0:1|0:1,0:0:0:0:
326,260,115891,1,2,0:1:0:0:
421,240,116102,1,2,0:1:0:0:
326,260,116314,2,0,L|251:253,1,75,4|2,0:1|0:1,0:0:0:0:
116,185,116736,6,0,P|146:231|153:287,2,112.5,4|4|4,0:1|0:1|0:1,0:0:0:0:
20,162,117581,1,2,0:1:0:0:
31,64,117793,1,2,0:1:0:0:
122,31,118004,2,0,P|158:38|190:57,1,75,4|2,0:1|0:1,0:0:0:0:
301,161,118426,6,0,P|338:152|370:133,1,75,4|2,0:1|0:1,0:0:0:0:
412,108,118743,1,4,0:1:0:0:
412,108,118849,2,0,L|432:180,1,75,2|4,0:1|0:1,0:0:0:0:
443,276,119271,1,2,0:1:0:0:
359,225,119483,1,2,0:1:0:0:
281,293,119694,2,0,L|287:367,1,75,4|2,0:1|0:1,0:0:0:0:
187,265,120117,6,0,P|216:219|266:194,2,112.5,4|4|4,0:1|0:1|0:1,0:0:0:0:
281,293,120962,1,2,0:1:0:0:
358,233,121173,1,2,0:1:0:0:
352,135,121384,2,0,L|278:117,1,75,4|2,0:1|0:1,0:0:0:0:
152,51,121807,6,0,P|163:87|168:125,1,75,4|2,0:1|0:1,0:0:0:0:
166,173,122124,1,4,0:1:0:0:
166,173,122229,2,0,L|91:166,1,75,2|4,1:0|0:1,0:0:0:0:
41,250,122652,1,2,1:0:0:0:
111,317,122863,1,2,0:1:0:0:
185,253,123074,2,0,P|221:244|258:238,1,75,4|2,0:1|0:1,0:0:0:0:
418,236,123497,6,0,L|430:347,2,112.5,4|4|4,0:1|0:1|0:1,0:0:0:0:
350,164,124342,1,2,1:0:0:0:
420,96,124553,1,2,0:1:0:0:
350,164,124764,2,0,L|275:162,1,75,4|2,0:1|0:1,0:0:0:0:
144,99,125187,6,0,P|126:131|117:167,1,75,4|2,0:1|0:1,0:0:0:0:
118,216,125504,1,4,0:1:0:0:
118,216,125609,2,0,L|192:214,1,75,2|4,1:0|0:1,0:0:0:0:
275,162,126032,1,2,1:0:0:0:
336,237,126243,1,2,0:1:0:0:
436,157,126455,2,0,P|399:148|362:142,1,75,4|2,0:1|0:1,0:0:0:0:
224,246,126877,6,0,P|280:245|335:237,2,112.5,4|4|4,0:1|0:1|0:1,0:0:0:0:
130,220,127722,1,2,1:0:0:0:
59,152,127933,1,2,0:1:0:0:
153,126,128145,1,4,0:1:0:0:
375,153,142088,6,0,P|391:202|400:254,2,104.999996795654,8|8|8,0:0|0:0|0:0,0:0:0:0:
195,93,143356,2,0,L|177:142,1,52.4999983978272,8|0,0:0|0:0,0:0:0:0:
187,235,143778,6,0,P|162:229|136:227,1,52.4999983978272,8|0,0:0|0:0,0:0:0:0:
240,316,144201,2,0,P|267:312|292:306,1,52.4999983978272,8|0,0:0|0:0,0:0:0:0:
379,270,144624,2,0,L|389:321,1,52.4999983978272,8|0,0:0|0:0,0:0:0:0:
469,272,145046,1,8,0:0:0:0:
426,187,145257,1,0,0:0:0:0:
426,187,145363,1,0,0:0:0:0:
426,187,145469,6,0,P|375:176|323:172,1,104.999996795654,8|8,0:0|0:0,0:0:0:0:
148,247,146314,2,0,P|128:200|129:148,1,104.999996795654,8|8,0:0|0:0,0:0:0:0:
179,67,146947,1,0,0:0:0:0:
271,88,147159,6,0,L|275:140,1,52.4999983978272,8|0,0:0|0:0,0:0:0:0:
260,232,147581,2,0,P|240:250|221:268,2,52.4999983978272,8|0|8,0:0|0:0|0:0,0:0:0:0:
348,199,148215,1,0,0:0:0:0:
438,220,148426,2,0,P|447:245|451:271,1,52.4999983978272,8|0,0:0|0:0,0:0:0:0:
338,358,148849,6,0,L|233:348,1,104.999996795654,8|8,0:0|0:0,0:0:0:0:
397,254,149694,2,0,L|292:244,1,104.999996795654,8|8,0:0|0:0,0:0:0:0:
202,272,150328,1,0,0:0:0:0:
126,213,150539,6,0,P|123:161|136:111,1,104.999996795654,8|8,0:0|0:0,0:0:0:0:
199,40,151173,1,0,0:0:0:0:
264,108,151384,2,0,L|316:105,1,52.4999983978272,8|0,0:0|0:0,0:0:0:0:
406,79,151807,2,0,P|421:101|429:126,1,52.4999983978272,8|0,0:0|0:0,0:0:0:0:
341,222,152229,6,0,P|325:244|317:269,2,52.4999983978272,8|0|8,0:0|0:0|0:0,0:0:0:0:
412,285,152863,1,0,0:0:0:0:
350,356,153074,2,0,P|298:350|247:339,1,104.999996795654,8|8,0:0|0:0,0:0:0:0:
110,208,153919,6,0,P|84:208|59:213,2,52.4999983978272,8|0|8,0:0|0:0|0:0,0:0:0:0:
201,236,154553,1,0,0:0:0:0:
246,153,154764,2,0,L|233:101,1,52.4999983978272,8|0,0:0|0:0,0:0:0:0:
328,111,155187,2,0,L|340:59,1,52.4999983978272,8|0,0:0|0:0,0:0:0:0:
431,138,155609,6,0,P|439:169|441:201,1,63.7500012159348,8|0,0:0|0:0,0:0:0:0:
402,289,156032,2,0,L|274:284,2,127.50000243187,8|8|8,0:0|0:0|0:0,0:0:0:0:
483,240,157088,1,0,0:0:0:0:
439,154,157300,6,0,L|375:157,1,63.7500012159348,8|0,0:0|0:0,0:0:0:0:
275,80,157722,2,0,L|338:76,1,63.7500012159348,8|0,0:0|0:0,0:0:0:0:
245,164,158145,2,0,L|181:167,1,63.7500012159348,8|0,0:0|0:0,0:0:0:0:
88,145,158567,2,0,L|78:175,3,31.8750006079674,8|8|8|8,0:0|0:0|0:0|0:0,0:0:0:0:
73,219,158990,6,0,P|92:246|113:269,1,63.7500012159348,8|0,0:0|0:0,0:0:0:0:
205,296,159412,2,0,L|268:291,1,63.7500012159348,8|0,0:0|0:0,0:0:0:0:
363,275,159835,2,0,P|352:244|334:218,1,63.7500012159348,8|0,0:0|0:0,0:0:0:0:
383,136,160257,2,0,P|357:117|327:105,1,63.7500012159348,8|0,0:0|0:0,0:0:0:0:
194,116,160680,6,0,L|189:147,3,31.8750006079674,8|8|8|8,0:0|0:0|0:0|0:0,0:0:0:0:
179,194,161102,2,0,L|115:191,1,63.7500012159348,8|8,0:0|0:0,0:0:0:0:
67,187,161419,1,8,0:0:0:0:
67,187,161525,1,8,0:0:0:0:
15,267,161736,1,0,0:0:0:0:
75,340,161947,2,0,P|99:318|109:288,1,63.7500012159348,8|0,0:0|0:0,0:0:0:0:
109,154,162370,6,0,L|86:131,3,31.8750006079674,8|8|8|8,0:0|0:0|0:0|0:0,0:0:0:0:
139,78,162793,2,0,L|161:100,3,31.8750006079674,8|8|8|8,0:0|0:0|0:0|0:0,0:0:0:0:
214,151,163215,2,0,P|271:123|333:131,1,127.50000243187,8|8,0:0|0:0,0:0:0:0:
420,171,163849,1,8,0:0:0:0:
411,266,164060,6,0,L|405:297,3,31.8750006079674,8|8|8|8,0:0|0:0|0:0|0:0,0:0:0:0:
330,297,164483,2,0,L|324:265,3,31.8750006079674,8|8|8|8,0:0|0:0|0:0|0:0,0:0:0:0:
250,266,164905,2,0,L|244:297,3,31.8750006079674,8|8|8|8,0:0|0:0|0:0|0:0,0:0:0:0:
169,297,165328,2,0,L|163:265,3,31.8750006079674,8|8|8|8,0:0|0:0|0:0|0:0,0:0:0:0:
157,192,165750,6,0,P|218:172|280:157,1,127.50000243187,8|8,0:0|0:0,0:0:0:0:
370,190,166384,1,8,0:0:0:0:
450,138,166595,2,0,L|471:114,3,31.8750006079674,0|8|8|8,0:0|0:0|0:0|0:0,0:0:0:0:
432,51,167018,2,0,L|400:58,3,31.8750006079674,8|8|8|8,0:0|0:0|0:0|0:0,0:0:0:0:
331,83,167440,6,0,B|306:115|320:169|320:169|337:233|317:268,2,191.250003647804
153,85,169131,6,0,P|130:114|114:147,1,75,6|0,0:0|0:0,0:0:0:0:
100,244,169553,1,2,0:0:0:0:
172,309,169764,1,0,0:0:0:0:
251,252,169976,2,0,L|244:177,2,75,8|0|2,0:0|0:0|0:0,0:0:0:0:
330,308,170609,1,0,0:0:0:0:
413,206,170821,6,0,P|376:197|339:190,1,75,0|0,0:0|0:0,0:0:0:0:
244,177,171243,1,2,0:0:0:0:
318,102,171455,1,0,0:0:0:0:
233,38,171666,2,0,P|196:37|159:41,1,75,8|0,0:0|0:0,0:0:0:0:
65,69,172088,2,0,L|58:143,1,75,0|0,0:0|0:0,0:0:0:0:
84,273,172511,5,2,0:0:0:0:
174,309,172722,1,0,0:0:0:0:
253,254,172933,2,0,P|252:216|239:181,1,75,2|0,0:0|0:0,0:0:0:0:
164,117,173356,2,0,P|193:95|229:85,1,75,8|0,0:0|0:0,0:0:0:0:
326,82,173778,1,2,0:0:0:0:
388,157,173990,1,0,0:0:0:0:
369,252,174201,6,0,L|294:247,1,75,0|0,0:0|0:0,0:0:0:0:
188,170,174624,1,2,0:0:0:0:
145,257,174835,1,0,0:0:0:0:
115,349,175046,2,0,L|189:344,1,75,8|0,0:0|0:0,0:0:0:0:
283,368,175469,2,0,P|283:331|295:296,1,75,0|0,0:0|0:0,0:0:0:0:
372,178,175891,6,0,L|297:180,1,75,6|0,0:0|0:0,0:0:0:0:
202,204,176314,1,2,0:0:0:0:
143,126,176525,1,0,0:0:0:0:
201,204,176736,2,0,P|211:240|219:276,1,75,8|0,0:0|0:0,0:0:0:0:
135,325,177159,2,0,P|125:289|117:253,1,75,2|0,0:0|0:0,0:0:0:0:
143,126,177581,6,0,L|217:116,2,75,0|0|2,0:0|0:0|0:0,0:0:0:0:
56,172,178215,1,0,0:0:0:0:
82,47,178426,2,0,L|156:37,2,75,8|0|0,0:0|0:0|0:0,0:0:0:0:
8,111,179060,1,0,0:0:0:0:
138,143,179271,6,0,P|170:164|196:191,1,75,2|0,0:0|0:0,0:0:0:0:
230,270,179694,2,0,P|255:244|287:224,1,75,2|0,0:0|0:0,0:0:0:0:
371,172,180117,1,8,0:0:0:0:
432,247,180328,1,0,0:0:0:0:
494,172,180539,1,2,0:0:0:0:
432,96,180750,1,0,0:0:0:0:
353,201,180962,6,0,L|278:200,1,75,0|0,0:0|0:0,0:0:0:0:
196,146,181384,1,2,0:0:0:0:
138,224,181595,1,0,0:0:0:0:
71,151,181807,1,8,0:0:0:0:
138,223,182018,2,0,P|147:260|154:297,2,75,0|0|0,0:0|0:0|0:0,0:0:0:0:
77,107,182652,5,0,0:0:0:0:
162,59,182863,1,0,0:0:0:0:
252,94,183074,1,0,0:0:0:0:
270,190,183286,1,0,0:0:0:0:
349,246,183497,1,0,0:0:0:0:
443,220,183708,1,0,0:0:0:0:
441,122,183919,2,0,P|403:116|367:122,1,75,0|0,0:0|0:0,0:0:0:0:
237,191,184342,6,0,L|226:116,1,75,6|0,0:0|0:0,0:0:0:0:
138,74,184764,2,0,L|127:148,1,75,2|0,0:0|0:0,0:0:0:0:
78,233,185187,1,2,0:0:0:0:
156,290,185398,1,0,0:0:0:0:
156,290,185504,1,2,0:0:0:0:
156,290,185609,2,0,P|191:279|227:266,1,75,0|2,0:0|0:0,0:0:0:0:
330,157,186032,6,0,P|349:188|358:225,1,75,2|0,0:0|0:0,0:0:0:0:
233,154,186455,2,0,P|240:118|260:86,1,75,2|0,0:0|0:0,0:0:0:0:
333,21,186877,1,2,0:0:0:0:
396,97,187088,1,0,0:0:0:0:
396,97,187194,1,2,0:0:0:0:
396,97,187300,2,0,L|470:91,1,75,0|2,0:0|0:0,0:0:0:0:
333,150,187722,6,0,L|301:218,1,75,2|0,0:0|0:0,0:0:0:0:
248,300,188145,1,2,0:0:0:0:
202,213,188356,1,0,0:0:0:0:
301,218,188567,2,0,P|333:236|362:259,1,75,2|0,0:0|0:0,0:0:0:0:
396,295,188884,1,2,0:0:0:0:
396,294,188990,2,0,P|428:276|457:253,1,75,0|2,0:0|0:0,0:0:0:0:
390,120,189412,6,0,P|353:124|316:126,1,75,6|0,0:0|0:0,0:0:0:0:
244,59,189835,2,0,P|226:91|220:128,1,75,2|0,0:0|0:0,0:0:0:0:
261,216,190257,2,0,L|186:208,1,75,2|0,0:0|0:0,0:0:0:0:
145,180,190574,1,2,0:0:0:0:
103,205,190680,2,0,P|89:240|85:277,1,75,0|2,0:0|0:0,0:0:0:0:
232,355,191102,6,0,P|228:318|214:284,1,75,2|0,0:0|0:0,0:0:0:0:
178,192,191525,1,2,0:0:0:0:
92,144,191736,1,0,0:0:0:0:
123,51,191947,1,2,0:0:0:0:
220,60,192159,2,0,L|257:54,2,37.5,0|2|0,0:0|0:0|0:0,0:0:0:0:
182,150,192581,1,2,0:0:0:0:
299,220,192793,6,0,P|295:182|280:148,1,75,2|0,0:0|0:0,0:0:0:0:
182,149,193215,2,0,P|165:183|162:220,1,75,2|0,0:0|0:0,0:0:0:0:
196,312,193638,1,2,0:0:0:0:
292,302,193849,2,0,L|329:297,2,37.5,0|2|0,0:0|0:0|0:0,0:0:0:0:
196,312,194271,1,2,0:0:0:0:
280,212,194483,6,0,L|354:203,1,75,2|0,0:0|0:0,0:0:0:0:
241,133,194905,2,0,L|315:124,1,75,2|0,0:0|0:0,0:0:0:0:
412,134,195328,1,2,0:0:0:0:
464,215,195539,2,0,L|506:212,2,37.5,0|2|0,0:0|0:0|0:0,0:0:0:0:
386,274,195962,1,2,0:0:0:0:
