osu file format v14

[General]
AudioFilename: audio.mp3
AudioLeadIn: 0
PreviewTime: -1
Countdown: 1
SampleSet: Normal
StackLeniency: 0.7
Mode: 0
LetterboxInBreaks: 0
WidescreenStoryboard: 0

[Editor]
Bookmarks: 127901,175858
DistanceSpacing: 1.9
BeatDivisor: 4
GridSize: 16
TimelineZoom: 1.3

[Metadata]
Title:Alone
TitleUnicode:Alone
Artist:Marshmello
ArtistUnicode:Marshmello
Creator:RealXantoo
Version:Alone.
Source:
Tags:
BeatmapID:1212975
BeatmapSetID:572445

[Difficulty]
HPDrainRate:5.5
CircleSize:3.7
OverallDifficulty:5.3
ApproachRate:9
SliderMultiplier:2.1
SliderTickRate:1

[Events]
//Background and Video events
0,0,"bluuuu.png",0,0
//Break Periods
2,16763,19343
2,33875,46658
2,108030,112573
2,128523,141456
//Storyboard Layer 0 (Background)
//Storyboard Layer 1 (Fail)
//Storyboard Layer 2 (Pass)
//Storyboard Layer 3 (Foreground)
//Storyboard Sound Samples

[TimingPoints]
20365.9408602546,422.535211267606,4,1,0,100,1,0
33887,-200,4,1,0,100,0,0
74133,-100,4,1,0,100,0,0
89661,-66.6666666666667,4,1,0,100,0,1
101492,-66.6666666666667,4,1,0,100,0,0
113218,-50,4,1,0,100,0,0
146915,-66.6666666666667,4,1,0,100,0,0
164978,-100,4,1,0,100,0,0
169098,-100,4,1,0,100,0,1
172267,-50,4,1,0,100,0,0
184309,-50,4,1,0,100,0,1
195929,-50,4,1,0,100,0,0

[Colours]
Combo1 : 255,0,255
Combo2 : 255,255,255
Combo3 : 255,0,255
Combo4 : 255,255,255
Combo5 : 255,0,255
Combo6 : 255,255,255

[HitObjects]
128,192,6844,5,0,0:0:0:0:
384,192,7267,1,0,0:0:0:0:
128,192,7689,1,0,0:0:0:0:
384,192,8112,1,0,0:0:0:0:
128,192,8323,1,0,0:0:0:0:
384,192,8534,1,0,0:0:0:0:
128,192,9802,5,0,0:0:0:0:
384,192,10225,1,0,0:0:0:0:
128,192,10647,1,0,0:0:0:0:
384,192,11070,1,0,0:0:0:0:
384,192,11492,1,0,0:0:0:0:
128,192,11703,1,0,0:0:0:0:
384,192,11914,1,0,0:0:0:0:
256,288,13182,5,0,0:0:0:0:
304,32,13605,5,0,0:0:0:0:
480,176,14027,1,0,0:0:0:0:
256,128,14450,1,0,0:0:0:0:
256,288,14872,5,0,0:0:0:0:
208,32,15295,5,0,0:0:0:0:
32,176,15717,1,0,0:0:0:0:
256,128,16140,1,0,0:0:0:0:
256,288,16563,5,0,0:0:0:0:
256,192,19943,5,0,0:0:0:0:
96,48,20365,5,0,0:0:0:0:
368,112,20577,1,0,0:0:0:0:
176,256,20788,1,0,0:0:0:0:
304,80,20999,2,0,P|384:80|432:128,1,105
400,304,21422,2,0,P|320:304|272:256,2,105
288,96,22056,5,0,0:0:0:0:
144,272,22267,1,0,0:0:0:0:
320,96,22478,1,0,0:0:0:0:
160,288,22689,2,0,P|224:320|288:304,2,105
336,128,23323,2,0,P|272:96|208:112,2,105
336,288,23957,5,0,0:0:0:0:
448,80,24168,1,0,0:0:0:0:
240,32,24380,1,0,0:0:0:0:
384,224,24591,1,0,0:0:0:0:
160,144,24802,1,0,0:0:0:0:
336,80,25013,1,0,0:0:0:0:
224,272,25225,1,0,0:0:0:0:
400,208,25436,2,0,P|416:144|320:96,2,105
224,256,26070,5,0,0:0:0:0:
112,64,26281,1,0,0:0:0:0:
48,256,26492,1,0,0:0:0:0:
224,96,26703,1,0,0:0:0:0:
320,272,26915,1,0,0:0:0:0:
384,80,27126,6,0,P|336:32|272:32,2,105
144,272,27760,6,0,P|192:320|256:320,2,105
192,96,28394,1,0,0:0:0:0:
368,256,28605,1,0,0:0:0:0:
352,80,28816,5,0,0:0:0:0:
256,304,29027,1,0,0:0:0:0:
96,160,29239,1,0,0:0:0:0:
384,144,29450,1,0,0:0:0:0:
176,304,29661,1,0,0:0:0:0:
128,80,29872,1,0,0:0:0:0:
368,208,30084,2,0,P|368:256|304:304,2,105
256,32,30718,5,0,0:0:0:0:
144,240,30929,1,0,0:0:0:0:
272,32,31140,1,0,0:0:0:0:
160,240,31351,1,0,0:0:0:0:
352,96,31563,1,0,0:0:0:0:
432,272,31774,1,0,0:0:0:0:
256,176,31985,1,0,0:0:0:0:
144,304,32196,6,0,P|80:256|80:192,2,105
345,346,32830,1,0,0:0:0:0:
410,102,33041,1,0,0:0:0:0:
166,37,33253,1,0,0:0:0:0:
101,281,33464,1,0,0:0:0:0:
345,346,33675,1,0,0:0:0:0:
144,256,47408,5,0,0:0:0:0:
416,208,47830,1,0,0:0:0:0:
160,48,48253,1,0,0:0:0:0:
224,320,48675,1,0,0:0:0:0:
416,96,49098,1,0,0:0:0:0:
96,192,49520,1,0,0:0:0:0:
368,128,49943,5,0,0:0:0:0:
96,176,50365,1,0,0:0:0:0:
352,336,50788,1,0,0:0:0:0:
288,64,51210,1,0,0:0:0:0:
96,288,51633,1,0,0:0:0:0:
416,192,52055,1,0,0:0:0:0:
144,256,52478,5,0,0:0:0:0:
416,208,52900,1,0,0:0:0:0:
160,48,53323,1,0,0:0:0:0:
224,320,53745,1,0,0:0:0:0:
416,96,54168,1,0,0:0:0:0:
96,192,54590,1,0,0:0:0:0:
368,128,55013,5,0,0:0:0:0:
96,176,55435,1,0,0:0:0:0:
352,336,55858,1,0,0:0:0:0:
288,64,56280,1,0,0:0:0:0:
96,288,56703,1,0,0:0:0:0:
416,192,57125,1,0,0:0:0:0:
160,288,57549,5,0,0:0:0:0:
304,64,57971,1,0,0:0:0:0:
256,304,58394,1,0,0:0:0:0:
128,80,58816,1,0,0:0:0:0:
96,256,59027,5,0,0:0:0:0:
96,256,59132,1,0,0:0:0:0:
96,256,59238,1,0,0:0:0:0:
192,160,59449,1,0,0:0:0:0:
192,160,59555,1,0,0:0:0:0:
192,160,59660,1,0,0:0:0:0:
288,80,59872,1,0,0:0:0:0:
288,80,59978,1,0,0:0:0:0:
288,80,60083,1,0,0:0:0:0:
96,176,60506,1,0,0:0:0:0:
368,160,60929,5,0,0:0:0:0:
96,208,61351,1,0,0:0:0:0:
368,176,61774,5,0,0:0:0:0:
96,224,62196,1,0,0:0:0:0:
208,320,62619,5,0,0:0:0:0:
160,48,63041,1,0,0:0:0:0:
224,304,63464,5,0,0:0:0:0:
176,32,63886,1,0,0:0:0:0:
256,288,64309,5,0,0:0:0:0:
208,16,64731,1,0,0:0:0:0:
288,272,65154,5,0,0:0:0:0:
240,0,65576,1,0,0:0:0:0:
368,64,65999,5,0,0:0:0:0:
368,144,66422,1,0,0:0:0:0:
368,224,66844,1,0,0:0:0:0:
368,304,67267,1,0,0:0:0:0:
208,320,67689,2,0,P|144:288|272:320,1,840
256,192,71070,12,0,72760,0:0:0:0:
112,48,74450,5,0,0:0:0:0:
416,80,74661,1,0,0:0:0:0:
128,208,74872,1,0,0:0:0:0:
352,16,75084,1,0,0:0:0:0:
400,288,75295,1,0,0:0:0:0:
224,96,75506,2,0,P|160:112|144:176,1,105
256,320,75929,1,0,0:0:0:0:
432,96,76140,1,0,0:0:0:0:
416,304,76351,5,0,0:0:0:0:
288,80,76563,1,0,0:0:0:0:
128,272,76774,1,0,0:0:0:0:
400,144,76985,1,0,0:0:0:0:
256,288,77196,1,0,0:0:0:0:
112,112,77408,1,0,0:0:0:0:
256,304,77619,1,0,0:0:0:0:
320,32,77830,5,0,0:0:0:0:
176,240,78041,1,0,0:0:0:0:
432,96,78253,1,0,0:0:0:0:
480,288,78464,1,0,0:0:0:0:
320,96,78675,1,0,0:0:0:0:
416,336,78887,2,0,P|352:352|304:336,2,105
464,112,79520,5,0,0:0:0:0:
176,256,79732,1,0,0:0:0:0:
496,304,79943,1,0,0:0:0:0:
320,80,80154,1,0,0:0:0:0:
128,256,80365,1,0,0:0:0:0:
416,320,80577,2,0,P|448:272|432:192,1,105
416,96,80999,1,0,0:0:0:0:
208,80,81211,5,0,0:0:0:0:
368,272,81422,1,0,0:0:0:0:
320,64,81633,1,0,0:0:0:0:
240,288,81844,1,0,0:0:0:0:
400,176,82056,1,0,0:0:0:0:
144,112,82267,1,0,0:0:0:0:
384,192,82478,1,0,0:0:0:0:
128,128,82689,1,0,0:0:0:0:
336,240,82901,6,0,P|400:224|432:176,2,105
176,128,83534,6,0,P|112:112|80:64,2,105
368,48,84168,1,0,0:0:0:0:
208,256,84380,1,0,0:0:0:0:
384,48,84591,1,0,0:0:0:0:
432,272,84802,5,0,0:0:0:0:
272,80,85013,1,0,0:0:0:0:
176,304,85225,1,0,0:0:0:0:
432,352,85436,1,0,0:0:0:0:
352,96,85647,1,0,0:0:0:0:
112,240,85858,2,0,P|160:304|192:304,2,105
160,64,86492,5,0,0:0:0:0:
416,160,86703,1,0,0:0:0:0:
112,144,86915,1,0,0:0:0:0:
432,240,87126,1,0,0:0:0:0:
64,224,87337,1,0,0:0:0:0:
448,320,87549,1,0,0:0:0:0:
16,304,87760,1,0,0:0:0:0:
96,128,87971,5,0,0:0:0:0:
172,72,88182,1,0,0:0:0:0:
265,57,88394,1,0,0:0:0:0:
355,86,88605,1,0,0:0:0:0:
422,154,88816,1,0,0:0:0:0:
416,256,89027,5,0,0:0:0:0:
240,320,89239,1,0,0:0:0:0:
112,224,89450,1,0,0:0:0:0:
448,144,89661,5,0,0:0:0:0:
96,32,89872,1,0,0:0:0:0:
416,336,90084,1,0,0:0:0:0:
352,16,90295,1,0,0:0:0:0:
160,352,90506,2,0,P|80:320|64:256,1,157.500006008148
240,32,90929,5,0,0:0:0:0:
336,352,91140,1,0,0:0:0:0:
368,32,91351,1,0,0:0:0:0:
256,352,91563,1,0,0:0:0:0:
192,32,91774,1,0,0:0:0:0:
304,352,91985,1,0,0:0:0:0:
256,32,92196,1,0,0:0:0:0:
192,352,92408,2,0,P|112:320|64:240,2,157.500006008148
384,288,93041,5,0,0:0:0:0:
96,128,93253,1,0,0:0:0:0:
448,256,93464,1,0,0:0:0:0:
64,224,93675,1,0,0:0:0:0:
384,112,93887,1,0,0:0:0:0:
256,352,94098,1,0,0:0:0:0:
80,144,94309,2,0,P|112:64|224:80,1,157.500006008148
464,80,94732,5,0,0:0:0:0:
128,240,94943,1,0,0:0:0:0:
224,32,95154,1,0,0:0:0:0:
464,192,95365,1,0,0:0:0:0:
112,176,95577,1,0,0:0:0:0:
336,32,95788,1,0,0:0:0:0:
448,272,95999,1,0,0:0:0:0:
320,32,96211,1,0,0:0:0:0:
288,304,96422,5,0,0:0:0:0:
176,336,96633,1,0,0:0:0:0:
96,272,96844,1,0,0:0:0:0:
48,176,97056,1,0,0:0:0:0:
224,80,97267,5,0,0:0:0:0:
336,48,97478,1,0,0:0:0:0:
320,304,97689,1,0,0:0:0:0:
496,176,97901,1,0,0:0:0:0:
256,48,98112,6,0,P|160:48|64:96,1,157.500006008148
176,288,98534,2,0,P|272:272|352:192,1,157.500006008148
224,32,98957,2,0,P|96:96|80:144,1,157.500006008148
240,256,99380,2,0,P|320:176|320:112,1,157.500006008148
368,32,99802,5,0,0:0:0:0:
432,224,100013,1,0,0:0:0:0:
256,336,100225,1,0,0:0:0:0:
384,144,100436,1,0,0:0:0:0:
192,288,100647,1,0,0:0:0:0:
96,80,100858,1,0,0:0:0:0:
272,176,101070,1,0,0:0:0:0:
384,352,101281,1,0,0:0:0:0:
416,160,101492,6,0,P|384:96|400:192,1,315.000012016297
96,160,102337,6,0,P|128:96|112:192,1,315.000012016297
160,144,102971,5,0,0:0:0:0:
352,144,103182,1,0,0:0:0:0:
256,304,104450,5,0,0:0:0:0:
256,192,104872,1,0,0:0:0:0:
256,80,105295,1,0,0:0:0:0:
352,192,105718,1,0,0:0:0:0:
256,192,106140,1,0,0:0:0:0:
256,288,106351,1,0,0:0:0:0:
160,192,106562,1,0,0:0:0:0:
256,192,107830,5,0,0:0:0:0:
240,224,113323,6,0,P|160:256|256:176,1,420
256,192,114591,1,0,0:0:0:0:
96,64,115013,5,0,0:0:0:0:
464,32,115225,1,0,0:0:0:0:
480,224,115436,5,0,0:0:0:0:
192,16,115647,1,0,0:0:0:0:
112,288,115858,5,0,0:0:0:0:
336,48,116070,1,0,0:0:0:0:
304,288,116281,5,0,0:0:0:0:
144,48,116492,1,0,0:0:0:0:
128,272,116703,5,0,0:0:0:0:
288,48,116915,1,0,0:0:0:0:
448,272,117126,1,0,0:0:0:0:
112,176,117337,1,0,0:0:0:0:
400,80,117549,1,0,0:0:0:0:
304,304,117760,2,0,P|192:304|96:208,2,210
448,112,118394,5,0,0:0:0:0:
176,320,118605,1,0,0:0:0:0:
448,240,118816,1,0,0:0:0:0:
144,208,119027,1,0,0:0:0:0:
448,128,119239,1,0,0:0:0:0:
192,48,119450,1,0,0:0:0:0:
464,144,119661,1,0,0:0:0:0:
176,48,119872,1,0,0:0:0:0:
240,320,120084,6,0,P|368:256|400:160,1,210
272,64,120506,6,0,P|144:128|112:224,1,210
464,288,120929,5,0,0:0:0:0:
64,208,121140,1,0,0:0:0:0:
336,320,121351,5,0,0:0:0:0:
176,80,121563,1,0,0:0:0:0:
352,16,121774,5,0,0:0:0:0:
240,304,121985,1,0,0:0:0:0:
144,80,122196,1,0,0:0:0:0:
432,192,122408,1,0,0:0:0:0:
128,48,122619,1,0,0:0:0:0:
432,192,122830,1,0,0:0:0:0:
160,304,123041,1,0,0:0:0:0:
128,48,123253,1,0,0:0:0:0:
256,288,123464,5,0,0:0:0:0:
480,128,123675,1,0,0:0:0:0:
304,320,123887,1,0,0:0:0:0:
144,144,124098,1,0,0:0:0:0:
352,304,124309,1,0,0:0:0:0:
336,32,124520,1,0,0:0:0:0:
128,144,124732,1,0,0:0:0:0:
432,272,124943,1,0,0:0:0:0:
416,48,125154,5,0,0:0:0:0:
256,336,125365,1,0,0:0:0:0:
464,128,125577,5,0,0:0:0:0:
176,256,125788,1,0,0:0:0:0:
480,224,125999,5,0,0:0:0:0:
128,160,126211,1,0,0:0:0:0:
384,304,126422,5,0,0:0:0:0:
176,48,126633,1,0,0:0:0:0:
336,64,126844,6,0,P|400:96|416:224,2,210
176,320,127478,6,0,P|112:288|96:160,2,210
352,256,128112,1,0,0:0:0:0:
448,80,128323,1,0,0:0:0:0:
160,80,142056,5,0,0:0:0:0:
384,64,142267,1,0,0:0:0:0:
288,256,142478,1,0,0:0:0:0:
224,64,142689,1,0,0:0:0:0:
384,128,142901,1,0,0:0:0:0:
240,208,143112,1,0,0:0:0:0:
382,116,143323,5,0,0:0:0:0:
359,340,143534,1,0,0:0:0:0:
187,212,143745,1,0,0:0:0:0:
387,182,143956,1,0,0:0:0:0:
296,329,144168,1,0,0:0:0:0:
243,173,144379,1,0,0:0:0:0:
307,330,144591,5,0,0:0:0:0:
91,268,144802,1,0,0:0:0:0:
247,120,145013,1,0,0:0:0:0:
242,323,145224,1,0,0:0:0:0:
113,208,145436,1,0,0:0:0:0:
276,182,145647,1,0,0:0:0:0:
111,219,145858,5,0,0:0:0:0:
209,17,146069,1,0,0:0:0:0:
327,196,146280,1,0,0:0:0:0:
129,155,146491,1,0,0:0:0:0:
264,49,146703,1,0,0:0:0:0:
261,213,146914,1,0,0:0:0:0:
176,112,147126,2,0,P|336:112|352:272,1,315.000012016297
288,336,147971,2,0,P|128:336|112:176,1,315.000012016297
128,48,148816,1,0,0:0:0:0:
400,48,149239,5,0,0:0:0:0:
176,288,149661,1,0,0:0:0:0:
144,64,150084,1,0,0:0:0:0:
432,176,150506,1,0,0:0:0:0:
144,240,150929,5,0,0:0:0:0:
352,128,151140,1,0,0:0:0:0:
288,304,151351,1,0,0:0:0:0:
224,96,151563,1,0,0:0:0:0:
160,304,151774,1,0,0:0:0:0:
448,208,152196,5,0,0:0:0:0:
352,304,152619,1,0,0:0:0:0:
384,160,153041,1,0,0:0:0:0:
272,304,153464,1,0,0:0:0:0:
320,112,153675,1,0,0:0:0:0:
192,304,153886,1,0,0:0:0:0:
256,64,154098,1,0,0:0:0:0:
112,304,154309,1,0,0:0:0:0:
192,16,154520,1,0,0:0:0:0:
336,144,154943,5,0,0:0:0:0:
336,144,155154,1,0,0:0:0:0:
144,256,155577,6,0,L|112:288,1,39.3750015020371
384,224,155999,2,0,L|432:272,1,39.3750015020371
208,64,156422,2,0,L|176:32,1,39.3750015020371
352,288,156844,1,0,0:0:0:0:
352,80,157267,6,0,L|384:32,1,39.3750015020371
112,208,157689,2,0,L|48:224,1,39.3750015020371
352,320,158112,2,0,L|384:352,1,39.3750015020371
160,128,158534,1,0,0:0:0:0:
144,256,158957,6,0,L|112:288,1,39.3750015020371
384,224,159379,2,0,L|432:272,1,39.3750015020371
208,64,159802,2,0,L|176:32,1,39.3750015020371
352,288,160224,1,0,0:0:0:0:
144,192,160647,6,0,L|96:192,1,39.3750015020371
352,192,161070,2,0,L|400:192,1,39.3750015020371
80,192,161466,2,0,L|32:192,1,39.3750015020371
432,192,161915,2,0,L|480:192,1,39.3750015020371
256,192,162337,12,0,164872,0:0:0:0:
320,48,165084,5,0,0:0:0:0:
363,86,165189,1,0,0:0:0:0:
391,137,165295,1,0,0:0:0:0:
399,194,165400,1,0,0:0:0:0:
388,251,165506,1,0,0:0:0:0:
357,300,165612,1,0,0:0:0:0:
320,336,165718,2,0,L|272:368,3,52.5
224,368,166140,5,0,0:0:0:0:
166,356,166245,1,0,0:0:0:0:
118,324,166351,1,0,0:0:0:0:
86,275,166456,1,0,0:0:0:0:
75,217,166562,1,0,0:0:0:0:
88,160,166668,1,0,0:0:0:0:
128,112,166774,2,0,L|176:64,2,52.5
304,160,167196,5,4,0:0:0:0:
288,304,167619,5,0,0:0:0:0:
208,208,168041,5,0,0:0:0:0:
320,144,168464,5,0,0:0:0:0:
320,144,168675,1,0,0:0:0:0:
144,32,169098,5,0,0:0:0:0:
224,352,169309,1,0,0:0:0:0:
432,96,169520,1,0,0:0:0:0:
96,96,169732,5,0,0:0:0:0:
352,320,169943,1,0,0:0:0:0:
320,16,170154,1,0,0:0:0:0:
128,288,170365,5,0,0:0:0:0:
400,112,170577,1,0,0:0:0:0:
128,304,170788,1,0,0:0:0:0:
400,96,170999,1,0,0:0:0:0:
240,304,171211,5,0,0:0:0:0:
112,112,171423,1,0,0:0:0:0:
384,304,171634,1,0,0:0:0:0:
112,96,171845,1,0,0:0:0:0:
400,288,172056,1,0,0:0:0:0:
192,32,172267,1,0,0:0:0:0:
208,336,172478,6,0,P|80:272|48:176,1,210
320,48,172901,6,0,P|448:112|480:208,1,210
256,336,173323,1,0,0:0:0:0:
320,32,173534,1,0,0:0:0:0:
304,336,173746,1,0,0:0:0:0:
224,32,173957,1,0,0:0:0:0:
96,304,174168,1,0,0:0:0:0:
416,112,174380,5,0,0:0:0:0:
240,304,174591,1,0,0:0:0:0:
368,64,174802,1,0,0:0:0:0:
400,288,175013,1,0,0:0:0:0:
208,96,175225,1,0,0:0:0:0:
400,304,175436,1,0,0:0:0:0:
192,80,175647,1,0,0:0:0:0:
80,288,175858,5,0,0:0:0:0:
336,352,176070,1,0,0:0:0:0:
80,224,176281,5,0,0:0:0:0:
368,240,176492,1,0,0:0:0:0:
160,176,176703,5,0,0:0:0:0:
416,144,176915,1,0,0:0:0:0:
128,80,177126,5,0,0:0:0:0:
320,272,177337,1,0,0:0:0:0:
352,64,177549,5,0,0:0:0:0:
192,288,177760,1,0,0:0:0:0:
272,32,177971,1,0,0:0:0:0:
192,288,178182,1,0,0:0:0:0:
368,64,178394,1,0,0:0:0:0:
384,288,178605,1,0,0:0:0:0:
288,64,178816,1,0,0:0:0:0:
144,256,179027,1,0,0:0:0:0:
160,80,179239,5,0,0:0:0:0:
448,144,179450,1,0,0:0:0:0:
176,224,179661,1,0,0:0:0:0:
416,48,179872,1,0,0:0:0:0:
320,288,180084,1,0,0:0:0:0:
224,32,180295,1,0,0:0:0:0:
416,208,180506,1,0,0:0:0:0:
416,208,180718,1,0,0:0:0:0:
304,320,180929,5,0,0:0:0:0:
176,352,181140,1,0,0:0:0:0:
96,224,181351,1,0,0:0:0:0:
192,64,181563,1,0,0:0:0:0:
400,160,181774,1,0,0:0:0:0:
160,304,181985,1,0,0:0:0:0:
304,96,182196,1,0,0:0:0:0:
192,320,182408,1,0,0:0:0:0:
223,40,182619,5,0,0:0:0:0:
288,343,182831,1,0,0:0:0:0:
108,144,183041,1,0,0:0:0:0:
403,239,183253,1,0,0:0:0:0:
140,295,183464,1,0,0:0:0:0:
371,88,183676,1,0,0:0:0:0:
256,192,183887,5,0,0:0:0:0:
256,192,184098,1,0,0:0:0:0:
64,128,184309,5,0,0:0:0:0:
464,112,184520,1,0,0:0:0:0:
64,208,184732,1,0,0:0:0:0:
416,64,184943,1,0,0:0:0:0:
160,304,185154,5,0,0:0:0:0:
320,32,185365,1,0,0:0:0:0:
320,288,185577,1,0,0:0:0:0:
160,64,185788,1,0,0:0:0:0:
304,320,185999,6,0,P|384:304|432:192,1,210
224,64,186422,2,0,P|144:80|96:192,1,210
336,352,186844,2,0,P|416:336|464:224,1,210
208,48,187267,2,0,P|128:64|80:176,1,210
288,336,187689,5,0,0:0:0:0:
448,48,187901,1,0,0:0:0:0:
384,288,188112,1,0,0:0:0:0:
288,32,188323,1,0,0:0:0:0:
416,192,188534,5,0,0:0:0:0:
128,80,188746,1,0,0:0:0:0:
400,224,188957,1,0,0:0:0:0:
160,32,189168,1,0,0:0:0:0:
128,192,189380,5,0,0:0:0:0:
320,368,189591,1,0,0:0:0:0:
192,352,189802,5,0,0:0:0:0:
288,128,190013,1,0,0:0:0:0:
384,272,190225,5,0,0:0:0:0:
160,80,190436,1,0,0:0:0:0:
160,208,190647,5,0,0:0:0:0:
432,32,190858,1,0,0:0:0:0:
416,272,191070,5,0,0:0:0:0:
256,48,191281,1,0,0:0:0:0:
224,320,191492,1,0,0:0:0:0:
352,48,191703,1,0,0:0:0:0:
160,256,191915,1,0,0:0:0:0:
448,128,192126,1,0,0:0:0:0:
112,192,192337,1,0,0:0:0:0:
112,192,192549,1,0,0:0:0:0:
400,64,192760,5,0,0:0:0:0:
96,128,192971,1,0,0:0:0:0:
448,208,193182,1,0,0:0:0:0:
144,48,193394,1,0,0:0:0:0:
144,240,193605,5,0,0:0:0:0:
368,48,193816,1,0,0:0:0:0:
256,288,194027,1,0,0:0:0:0:
192,32,194239,1,0,0:0:0:0:
160,288,194450,5,0,0:0:0:0:
313,13,194661,1,0,0:0:0:0:
368,320,194872,1,0,0:0:0:0:
313,13,195084,5,0,0:0:0:0:
313,370,195296,1,0,0:0:0:0:
104,81,195507,1,0,0:0:0:0:
443,192,195718,1,0,0:0:0:0:
104,302,195930,1,0,0:0:0:0:
