osu file format v14

[General]
AudioFilename: audio.mp3
AudioLeadIn: 0
PreviewTime: 40568
Countdown: 0
SampleSet: Soft
StackLeniency: 0.7
Mode: 0
LetterboxInBreaks: 0
SkinPreference:Default
EpilepsyWarning: 1
WidescreenStoryboard: 1

[Editor]
Bookmarks: 103948,121695
DistanceSpacing: 0.7
BeatDivisor: 4
GridSize: 4
TimelineZoom: 2.3

[Metadata]
Title:Alone
TitleUnicode:Alone
Artist:Marshmello
ArtistUnicode:Marshmello
Creator:Pachiru
Version:Secretpipe's Normal
Source:
Tags:Original Mix Monstercat Trap Gabe Veus Secretpipe Kin Cosmolade Noffy
BeatmapID:1223879
BeatmapSetID:552712

[Difficulty]
HPDrainRate:3
CircleSize:3.5
OverallDifficulty:3
ApproachRate:5
SliderMultiplier:1.1
SliderTickRate:1

[Events]
//Background and Video events
0,0,"alone-girl.jpg",0,0
//Break Periods
2,67810,79931
//Storyboard Layer 0 (Background)
//Storyboard Layer 1 (Fail)
//Storyboard Layer 2 (Pass)
//Storyboard Layer 3 (Foreground)
//Storyboard Sound Samples

[TimingPoints]
5,422.535211267606,4,1,1,90,1,0
13526,-100,4,2,30,90,0,0
13948,-100,4,2,31,90,0,0
14371,-100,4,2,32,90,0,0
14793,-100,4,2,33,90,0,0
16483,-100,4,2,34,90,0,0
16906,-100,4,2,30,90,0,0
17328,-100,4,2,34,90,0,0
17751,-100,4,2,30,90,0,0
18174,-100,4,2,33,90,0,0
18385,-100,4,2,30,90,0,0
18596,-100,4,2,31,90,0,0
19441,-100,4,2,31,90,0,0
19864,-100,4,2,33,90,0,0
20286,-100,4,2,30,90,0,0
20709,-100,4,2,31,90,0,0
21131,-100,4,2,32,90,0,0
21554,-100,4,2,33,90,0,0
21765,-100,4,2,30,90,0,0
21976,-100,4,2,33,90,0,0
22821,-100,4,2,33,90,0,0
23244,-100,4,2,34,90,0,0
23666,-100,4,2,30,90,0,0
24089,-100,4,2,34,90,0,0
24512,-100,4,2,30,90,0,0
24934,-100,4,2,33,90,0,0
25145,-100,4,2,30,90,0,0
25357,-100,4,2,31,90,0,0
26202,-100,4,2,31,90,0,0
26624,-100,4,2,33,90,0,0
27047,-100,4,2,30,90,0,0
27469,-100,4,2,31,90,0,0
27892,-100,4,2,32,90,0,0
28314,-100,4,2,33,90,0,0
28526,-100,4,2,30,90,0,0
28737,-100,4,2,33,90,0,0
30005,-100,4,2,34,90,0,0
30427,-100,4,2,30,90,0,0
30850,-100,4,2,34,90,0,0
31272,-100,4,2,30,90,0,0
31695,-100,4,2,33,90,0,0
31906,-100,4,2,30,90,0,0
32117,-100,4,2,31,90,0,0
32962,-100,4,2,31,90,0,0
33385,-100,4,2,33,90,0,0
33807,-100,4,2,30,90,0,0
34230,-100,4,2,31,90,0,0
34652,-100,4,2,32,90,0,0
35075,-100,4,2,33,90,0,0
35286,-100,4,2,30,90,0,0
35497,-100,4,2,33,90,0,0
36343,-100,4,2,33,90,0,0
36765,-100,4,2,34,90,0,0
37188,-100,4,2,30,90,0,0
37610,-100,4,2,34,90,0,0
38033,-100,4,2,30,90,0,0
38455,-100,4,2,33,90,0,0
38878,-100,4,2,31,90,0,0
40568,-100,4,2,50,90,0,0
42258,-100,4,2,51,90,0,0
43948,-100,4,2,52,90,0,0
45638,-100,4,2,53,90,0,0
47328,-100,4,2,50,90,0,0
49019,-100,4,2,51,90,0,0
50709,-100,4,2,52,90,0,0
52399,-100,4,2,53,90,0,0
54089,-100,4,2,50,90,0,0
55779,-100,4,2,51,90,0,0
57469,-100,4,2,52,90,0,0
59159,-100,4,2,53,90,0,0
60850,-100,4,2,50,90,0,0
62540,-100,4,2,51,90,0,0
64230,-100,4,2,52,90,0,0
65920,-100,4,2,53,90,0,0
67610,-100,4,2,53,90,0,0
81131,-100,4,2,60,90,0,0
82399,-100,4,2,61,90,0,0
82610,-100,4,2,62,90,0,0
82821,-100,4,2,63,90,0,0
84512,-100,4,2,61,90,0,0
84934,-100,4,2,62,90,0,0
85357,-100,4,2,61,90,0,0
85779,-100,4,2,60,90,0,0
86202,-100,4,2,61,90,0,0
86835,-100,4,2,62,90,0,0
87047,-100,4,2,64,90,0,0
87469,-100,4,2,60,90,0,0
87892,-100,4,2,61,90,0,0
89159,-100,4,2,64,90,0,0
89582,-100,4,2,63,90,0,0
90850,-100,4,2,62,90,0,0
91272,-100,4,2,61,90,0,0
92540,-100,4,2,60,90,0,0
92962,-100,4,2,61,90,0,0
93807,-100,4,2,64,90,0,0
94230,-100,4,2,60,90,0,0
94652,-100,4,2,60,90,0,0
95920,-100,4,2,61,90,0,0
96343,-100,4,2,63,90,0,0
98033,-100,4,2,61,90,0,0
98455,-100,4,2,62,90,0,0
98878,-100,4,2,61,90,0,0
99300,-100,4,2,60,90,0,0
99723,-100,4,2,61,90,0,0
100357,-100,4,2,62,90,0,0
100568,-100,4,2,64,90,0,0
100990,-100,4,2,60,90,0,0
108174,-100,4,2,1,90,0,1
135216,-100,4,2,30,90,0,0

[Colours]
Combo1 : 139,56,162
Combo2 : 255,173,0
Combo3 : 238,91,187
Combo4 : 253,95,49
SliderBorder : 255,173,255

[HitObjects]
88,348,13526,6,0,P|154:362|208:346,1,110,6|2,0:0|0:0,0:0:0:0:
264,298,14371,2,0,L|253:181,1,110,2|2,0:0|0:0,0:0:0:0:
172,153,15216,2,0,P|112:145|59:164,2,110,2|0|0,0:0|0:0|0:0,0:0:0:0:
253,188,16483,1,2,0:0:0:0:
329,231,16906,6,0,L|454:215,1,110,2|2,0:0|0:0,0:0:0:0:
488,145,17751,1,2,0:0:0:0:
401,128,18174,2,0,L|397:73,1,55,2|2,0:0|0:0,0:0:0:0:
362,45,18596,2,0,P|263:77|142:50,1,220,2|0,0:0|0:0,0:0:0:0:
67,28,19864,1,2,0:0:0:0:
83,114,20286,6,0,L|72:234,1,110,2|2,0:0|0:0,0:0:0:0:
100,308,21131,1,2,0:0:0:0:
172,260,21554,2,0,L|163:191,2,55,2|2|2,0:0|0:0|0:0,0:0:0:0:
212,340,22399,2,0,P|252:356|320:352,1,110,0|0,0:0|0:0,0:0:0:0:
392,308,23244,1,2,0:0:0:0:
352,232,23666,6,0,L|343:115,1,110,2|2,0:0|0:0,0:0:0:0:
292,52,24512,1,2,0:0:0:0:
246,126,24934,2,0,L|171:137,2,55,2|2|2,0:0|0:0|0:0,0:0:0:0:
206,47,25779,1,0,0:0:0:0:
123,78,26202,1,0,0:0:0:0:
94,161,26624,1,2,0:0:0:0:
156,223,27047,6,0,L|141:342,1,110,6|2,0:0|0:0,0:0:0:0:
220,372,27892,1,2,0:0:0:0:
292,320,28314,2,0,L|296:252,1,55,2|2,0:0|0:0,0:0:0:0:
300,220,28737,1,2,0:0:0:0:
264,140,29159,1,0,0:0:0:0:
312,68,29582,1,0,0:0:0:0:
380,127,30005,1,2,0:0:0:0:
432,196,30427,6,0,P|443:250|429:308,1,110,2|2,0:0|0:0,0:0:0:0:
360,354,31272,1,2,0:0:0:0:
309,281,31695,2,0,L|298:193,2,55,2|2|2,0:0|0:0|0:0,0:0:0:0:
253,349,32540,2,0,L|119:342,1,110,0|0,0:0|0:0,0:0:0:0:
72,290,33385,1,2,0:0:0:0:
148,246,33807,6,0,P|154:192|129:130,1,110,2|2,0:0|0:0,0:0:0:0:
97,61,34652,1,2,0:0:0:0:
184,69,35075,2,0,L|288:75,1,55,2|2,0:0|0:0,0:0:0:0:
275,47,35497,2,0,L|285:282,1,220,2|0,0:0|0:0,0:0:0:0:
317,348,36765,1,2,0:0:0:0:
376,283,37188,6,0,L|369:151,1,110,2|2,0:0|0:0,0:0:0:0:
455,196,38033,2,0,L|448:64,1,110,2|2,0:0|0:0,0:0:0:0:
383,27,38878,5,2,0:0:0:0:
79,204,40568,6,0,B|57:238|57:238|69:322,2,110,2|2|0,1:0|0:0|0:0,0:0:0:0:
133,134,41835,1,2,1:0:0:0:
192,198,42258,2,0,L|312:193,1,110,2|2,1:0|0:0,0:0:0:0:
383,225,43103,1,0,0:0:0:0:
372,137,43526,1,2,1:0:0:0:
309,75,43948,6,0,L|172:66,1,110,2|2,1:0|0:0,0:0:0:0:
115,40,44793,1,0,0:0:0:0:
130,126,45216,1,2,1:0:0:0:
44,106,45638,2,0,L|45:242,1,110,2|2,1:0|0:0,0:0:0:0:
79,297,46483,1,0,0:0:0:0:
129,224,46906,1,2,1:0:0:0:
172,300,47328,6,0,P|236:308|301:278,1,110,2|2,1:0|0:0,0:0:0:0:
345,236,48174,2,0,L|333:171,2,55,0|0|2,0:0|0:0|1:0,0:0:0:0:
414,290,49019,2,0,L|434:177,1,110,2|2,1:0|0:0,0:0:0:0:
450,95,49864,2,0,L|522:78,2,55,0|2|2,0:0|0:0|1:0,0:0:0:0:
367,125,50709,6,0,B|339:90|339:90|346:12,2,110,2|2|0,1:0|0:0|0:0,0:0:0:0:
433,181,51976,1,2,1:0:0:0:
371,243,52399,2,0,P|303:236|245:260,2,110,2|2|0,1:0|0:0|0:0,0:0:0:0:
445,289,53666,1,2,1:0:0:0:
379,347,54089,6,0,L|246:344,1,110,2|10,1:0|0:0,0:0:0:0:
188,309,54934,1,8,0:0:0:0:
102,330,55357,1,2,1:0:0:0:
37,270,55779,2,0,P|18:221|29:154,1,110,2|10,1:0|0:0,0:0:0:0:
64,86,56624,1,8,0:0:0:0:
144,121,57047,1,2,1:0:0:0:
205,57,57469,6,0,L|323:60,1,110,2|10,1:0|0:0,0:0:0:0:
392,101,58314,2,0,P|404:160|387:229,1,110,8|2,0:0|1:0,0:0:0:0:
345,280,59159,1,2,1:0:0:0:
271,230,59582,2,0,L|248:142,2,55,10|2|8,0:0|0:0|0:0,0:0:0:0:
216,299,60427,1,2,1:0:0:0:
144,247,60850,6,0,P|114:168|123:137,1,110,2|10,1:0|0:0,0:0:0:0:
139,60,61695,2,0,L|57:31,2,55,8|0|2,0:0|0:0|1:0,0:0:0:0:
214,105,62540,2,0,P|275:114|339:95,1,110,2|10,1:0|0:0,0:0:0:0:
400,65,63385,2,0,L|392:-11,2,55,8|2|2,0:0|0:0|1:0,0:0:0:0:
394,152,64230,6,0,L|386:287,1,110,2|10,1:0|0:0,0:0:0:0:
378,349,65075,1,8,0:0:0:0:
304,301,65497,1,2,1:0:0:0:
238,359,65920,2,0,P|215:310|243:236,1,110,2|10,1:0|0:0,0:0:0:0:
264,177,66765,2,0,L|197:172,2,55,8|2|2,0:0|0:0|1:0,0:0:0:0:
340,136,67610,5,2,0:0:0:0:
237,280,81131,5,10,0:0:0:0:
328,308,81554,1,10,0:0:0:0:
396,252,81976,1,10,0:0:0:0:
344,180,82399,2,0,L|338:106,2,55,10|2|10,0:0|0:0|0:0,0:0:0:0:
304,260,83244,1,10,0:0:0:0:
220,230,83666,1,10,0:0:0:0:
136,256,84089,1,10,0:0:0:0:
69,198,84512,6,0,B|56:153|56:153|67:66,1,110,10|10,0:0|0:0,0:0:0:0:
112,17,85357,1,10,0:0:0:0:
177,75,85779,1,10,0:0:0:0:
259,43,86202,1,10,0:0:0:0:
331,93,86624,2,0,L|388:86,2,55,10|2|10,0:0|0:0|0:0,0:0:0:0:
259,144,87469,1,10,0:0:0:0:
326,201,87892,6,0,P|337:255|321:317,1,110,10|10,0:0|0:0,0:0:0:0:
265,372,88737,1,10,0:0:0:0:
228,292,89159,2,0,L|114:281,1,110,10|10,0:0|0:0,0:0:0:0:
41,323,90005,1,10,0:0:0:0:
50,235,90427,1,8,0:0:0:0:
19,152,90850,1,10,0:0:0:0:
62,75,91272,6,0,P|125:93|195:82,1,110,10|10,0:0|0:0,0:0:0:0:
247,51,92117,2,0,P|311:38|361:58,1,110,10|10,0:0|0:0,0:0:0:0:
414,118,92962,1,10,0:0:0:0:
353,193,93385,1,10,0:0:0:0:
400,268,93807,2,0,L|477:256,2,55,10|0|10,0:0|0:0|0:0,0:0:0:0:
331,319,94652,6,0,P|267:304|211:327,1,110,10|10,0:0|0:0,0:0:0:0:
140,336,95497,2,0,P|124:262|144:218,1,110,10|10,0:0|0:0,0:0:0:0:
193,165,96343,1,10,0:0:0:0:
171,79,96765,1,10,0:0:0:0:
91,116,97188,1,10,0:0:0:0:
115,200,97610,1,10,0:0:0:0:
193,165,98033,6,0,L|327:176,1,110,10|10,0:0|0:0,0:0:0:0:
387,149,98878,1,10,0:0:0:0:
444,215,99300,2,0,L|433:343,1,110,10|10,0:0|0:0,0:0:0:0:
347,310,100145,2,0,L|330:243,2,55,10|10|10,0:0|0:0|0:0,0:0:0:0:
264,354,100990,5,10,0:0:0:0:
256,192,101413,12,0,106483,0:0:0:0:
192,124,108174,5,0,1:0:0:0:
165,207,108596,1,0,1:0:0:0:
231,264,109019,2,0,L|346:251,1,110,8|2,0:0|1:2,0:0:0:0:
425,272,109864,2,0,L|414:338,2,55,2|2|0,0:0|0:0|1:0,0:0:0:0:
458,190,110709,1,8,0:0:0:0:
407,118,111131,1,2,0:0:0:0:
340,176,111554,6,0,L|218:163,2,110,0|0|8,1:0|1:0|0:0,0:0:0:0:
400,240,112821,1,2,1:2:0:0:
328,292,113244,2,0,L|338:376,2,55,0|2|0,0:0|0:0|1:0,0:0:0:0:
248,253,114089,2,0,L|232:351,2,55,8|2|0,0:0|0:0|0:0,0:0:0:0:
213,171,114934,5,0,1:0:0:0:
137,126,115357,1,0,1:0:0:0:
200,65,115779,1,8,0:0:0:0:
283,92,116202,1,2,1:2:0:0:
351,37,116624,6,0,L|384:160,1,110,2|0,0:0|1:0,0:0:0:0:
407,222,117469,1,8,0:0:0:0:
340,280,117892,1,2,0:0:0:0:
298,202,118314,2,0,L|284:144,2,55,0|2|0,1:0|0:0|1:0,0:0:0:0:
230,258,119159,1,8,0:0:0:0:
157,207,119582,1,2,1:2:0:0:
201,130,120005,6,0,P|205:66|180:17,1,110,0|0,0:0|1:0,0:0:0:0:
98,22,120850,2,0,P|77:72|83:126,1,110,8|0,0:0|0:0,0:0:0:0:
145,189,121695,6,0,B|216:235|194:326|194:326|246:248|354:291,1,330,6|2,0:0|0:0,0:0:0:0:
420,338,123385,5,4,1:0:0:0:
459,259,123807,1,0,1:0:0:0:
416,182,124230,1,0,1:0:0:0:
450,101,124652,1,2,0:0:0:0:
382,44,125075,6,0,B|265:54,1,110,0|0,1:0|1:0,0:0:0:0:
190,87,125920,1,0,1:0:0:0:
237,160,126343,1,2,0:0:0:0:
165,211,126765,2,0,L|48:201,2,110,0|0|0,1:0|1:0|1:0,0:0:0:0:
237,261,128033,1,2,0:0:0:0:
313,217,128455,5,4,1:0:0:0:
390,258,128878,1,0,1:0:0:0:
452,195,129300,2,0,L|436:64,1,110,0|2,1:0|0:0,0:0:0:0:
356,52,130145,1,0,1:0:0:0:
281,99,130568,1,0,1:0:0:0:
220,35,130990,2,0,P|192:112|210:155,1,110,0|2,1:0|0:0,0:0:0:0:
222,220,131835,5,0,1:0:0:0:
174,293,132258,1,0,1:0:0:0:
133,214,132681,1,0,1:0:0:0:
222,220,133103,1,2,0:0:0:0:
278,288,133526,6,0,L|409:267,1,110,0|0,1:0|1:0,0:0:0:0:
452,212,134371,2,0,P|460:157|433:98,1,110,0|2,1:0|0:0,0:0:0:0:
384,40,135216,1,6,0:0:0:0:
