osu file format v14

[General]
AudioFilename: audio.mp3
AudioLeadIn: 0
PreviewTime: 40568
Countdown: 0
SampleSet: Soft
StackLeniency: 0.7
Mode: 0
LetterboxInBreaks: 0
SkinPreference:Default
EpilepsyWarning: 1
WidescreenStoryboard: 1

[Editor]
Bookmarks: 102575,135216
DistanceSpacing: 2.2
BeatDivisor: 4
GridSize: 4
TimelineZoom: 2.2

[Metadata]
Title:Alone
TitleUnicode:Alone
Artist:Marshmello
ArtistUnicode:Marshmello
Creator:Pachiru
Version:Kin's Solitude
Source:
Tags:Original Mix Monstercat Trap Gabe Veus Secretpipe Kin Cosmolade Noffy
BeatmapID:1173074
BeatmapSetID:552712

[Difficulty]
HPDrainRate:7
CircleSize:4
OverallDifficulty:8
ApproachRate:9
SliderMultiplier:1.8
SliderTickRate:1

[Events]
//Background and Video events
0,0,"alone-girl.jpg",0,0
//Break Periods
2,67810,80531
2,106578,107574
//Storyboard Layer 0 (Background)
//Storyboard Layer 1 (Fail)
//Storyboard Layer 2 (Pass)
//Storyboard Layer 3 (Foreground)
//Storyboard Sound Samples

[TimingPoints]
5,422.535211267606,4,1,1,90,1,0
13526,-133.333333333333,4,2,30,90,0,0
13948,-133.333333333333,4,2,31,90,0,0
14371,-133.333333333333,4,2,32,90,0,0
14793,-133.333333333333,4,2,33,90,0,0
15005,-133.333333333333,4,2,30,90,0,0
15216,-133.333333333333,4,2,33,90,0,0
16483,-133.333333333333,4,2,34,90,0,0
16906,-133.333333333333,4,2,30,90,0,0
17328,-133.333333333333,4,2,34,90,0,0
17751,-133.333333333333,4,2,30,90,0,0
18174,-133.333333333333,4,2,33,90,0,0
18385,-133.333333333333,4,2,30,90,0,0
18596,-133.333333333333,4,2,31,90,0,0
19864,-133.333333333333,4,2,33,90,0,0
20286,-133.333333333333,4,2,30,90,0,0
20709,-133.333333333333,4,2,31,90,0,0
21131,-133.333333333333,4,2,32,90,0,0
21554,-133.333333333333,4,2,33,90,0,0
21765,-133.333333333333,4,2,30,90,0,0
21976,-133.333333333333,4,2,33,90,0,0
23244,-133.333333333333,4,2,34,90,0,0
23666,-133.333333333333,4,2,30,90,0,0
24089,-133.333333333333,4,2,34,90,0,0
24512,-133.333333333333,4,2,30,90,0,0
24934,-133.333333333333,4,2,33,90,0,0
25145,-133.333333333333,4,2,30,90,0,0
25357,-133.333333333333,4,2,31,90,0,0
26624,-133.333333333333,4,2,33,90,0,0
27047,-133.333333333333,4,2,30,90,0,0
27469,-133.333333333333,4,2,31,90,0,0
27892,-133.333333333333,4,2,32,90,0,0
28314,-133.333333333333,4,2,33,90,0,0
28526,-133.333333333333,4,2,30,90,0,0
28737,-133.333333333333,4,2,33,90,0,0
30005,-133.333333333333,4,2,34,90,0,0
30427,-133.333333333333,4,2,30,90,0,0
30850,-133.333333333333,4,2,34,90,0,0
31272,-133.333333333333,4,2,30,90,0,0
31695,-133.333333333333,4,2,33,90,0,0
31906,-133.333333333333,4,2,30,90,0,0
32117,-133.333333333333,4,2,31,90,0,0
33385,-133.333333333333,4,2,33,90,0,0
33807,-133.333333333333,4,2,30,90,0,0
34230,-133.333333333333,4,2,31,90,0,0
34652,-133.333333333333,4,2,32,90,0,0
35075,-133.333333333333,4,2,33,90,0,0
35286,-133.333333333333,4,2,30,90,0,0
35497,-133.333333333333,4,2,33,90,0,0
36765,-133.333333333333,4,2,34,90,0,0
37188,-133.333333333333,4,2,30,90,0,0
37610,-133.333333333333,4,2,34,90,0,0
38033,-133.333333333333,4,2,30,90,0,0
38455,-133.333333333333,4,2,33,90,0,0
38666,-133.333333333333,4,2,30,90,0,0
38878,-133.333333333333,4,2,31,90,0,0
40145,-200,4,2,20,90,0,0
40568,-100,4,2,50,90,0,0
42258,-100,4,2,51,90,0,0
43948,-100,4,2,52,90,0,0
45638,-100,4,2,53,90,0,0
47328,-100,4,2,50,90,0,0
49019,-100,4,2,51,90,0,0
50709,-100,4,2,52,90,0,0
52399,-100,4,2,53,90,0,0
54089,-100,4,2,50,90,0,0
55779,-100,4,2,51,90,0,0
57469,-100,4,2,52,90,0,0
59159,-100,4,2,53,90,0,0
60850,-100,4,2,50,90,0,0
62540,-100,4,2,51,90,0,0
64230,-100,4,2,52,90,0,0
65920,-100,4,2,53,90,0,0
81131,-133.333333333333,4,2,60,90,0,0
82399,-133.333333333333,4,2,61,90,0,0
82610,-133.333333333333,4,2,62,90,0,0
82821,-133.333333333333,4,2,63,90,0,0
84300,-133.333333333333,4,2,60,90,0,0
84512,-133.333333333333,4,2,61,90,0,0
84934,-133.333333333333,4,2,62,90,0,0
85357,-133.333333333333,4,2,61,90,0,0
85779,-133.333333333333,4,2,60,90,0,0
85990,-133.333333333333,4,2,62,90,0,0
86202,-133.333333333333,4,2,61,90,0,0
86835,-133.333333333333,4,2,62,90,0,0
87047,-133.333333333333,4,2,64,90,0,0
87258,-133.333333333333,4,2,62,90,0,0
87469,-133.333333333333,4,2,60,90,0,0
87892,-133.333333333333,4,2,61,90,0,0
89159,-133.333333333333,4,2,64,90,0,0
89371,-133.333333333333,4,2,60,90,0,0
89582,-133.333333333333,4,2,63,90,0,0
90216,-133.333333333333,4,2,64,90,0,0
90850,-133.333333333333,4,2,62,90,0,0
91061,-133.333333333333,4,2,63,90,0,0
91272,-133.333333333333,4,2,61,90,0,0
91483,-133.333333333333,4,2,62,90,0,0
91695,-133.333333333333,4,2,61,90,0,0
91906,-133.333333333333,4,2,62,90,0,0
92117,-133.333333333333,4,2,61,90,0,0
92540,-133.333333333333,4,2,60,90,0,0
92962,-133.333333333333,4,2,61,90,0,0
93174,-133.333333333333,4,2,62,90,0,0
93385,-133.333333333333,4,2,61,90,0,0
93596,-133.333333333333,4,2,62,90,0,0
93807,-133.333333333333,4,2,64,90,0,0
94230,-133.333333333333,4,2,60,90,0,0
94652,-100,4,2,60,90,0,0
95920,-100,4,2,61,90,0,0
96131,-100,4,2,62,90,0,0
96343,-100,4,2,63,90,0,0
97821,-100,4,2,60,90,0,0
98033,-100,4,2,61,90,0,0
98455,-100,4,2,62,90,0,0
98878,-100,4,2,61,90,0,0
99300,-100,4,2,60,90,0,0
99512,-100,4,2,62,90,0,0
99723,-100,4,2,61,90,0,0
100357,-100,4,2,62,90,0,0
100568,-100,4,2,64,90,0,0
100779,-100,4,2,62,90,0,0
100990,-100,4,2,60,90,0,0
101413,-100,4,2,61,90,0,0
101519,-100,4,2,61,70,0,0
101835,-100,4,2,61,90,0,0
101941,-100,4,2,61,70,0,0
102258,-100,4,2,61,90,0,0
102364,-100,4,2,61,70,0,0
102681,-100,4,2,64,90,0,0
102786,-100,4,2,64,70,0,0
102892,-100,4,2,60,90,0,0
102997,-100,4,2,60,70,0,0
103103,-100,4,2,63,90,0,0
103209,-100,4,2,63,70,0,0
103314,-100,4,2,63,90,0,0
103420,-100,4,2,63,70,0,0
103526,-100,4,2,63,90,0,0
103631,-100,4,2,63,70,0,0
103737,-100,4,2,64,90,0,0
103843,-100,4,2,64,70,0,0
103948,-100,4,2,64,90,0,0
104054,-100,4,2,64,70,0,0
104159,-100,4,2,64,90,0,0
104265,-100,4,2,64,70,0,0
104371,-100,4,2,62,90,0,0
104476,-100,4,2,62,70,0,0
104582,-100,4,2,63,90,0,0
104688,-100,4,2,63,70,0,0
104793,-100,4,2,61,90,0,0
104899,-100,4,2,61,70,0,0
105005,-100,4,2,62,90,0,0
105110,-100,4,2,62,70,0,0
105216,-100,4,2,61,90,0,0
105321,-100,4,2,61,70,0,0
105427,-100,4,2,62,90,0,0
105533,-100,4,2,62,70,0,0
105638,-100,4,2,61,90,0,0
105744,-100,4,2,61,70,0,0
106061,-100,4,2,60,90,0,0
106166,-100,4,2,60,70,0,0
108174,-79.9999999999999,4,2,1,90,0,1
135216,-79.9999999999999,4,2,30,90,0,0

[Colours]
Combo1 : 139,56,162
Combo2 : 255,173,0
Combo3 : 238,91,187
Combo4 : 253,95,49
SliderBorder : 255,173,255

[HitObjects]
104,168,13526,6,0,P|136:176|180:172,1,67.5000025749208,6|0,0:0|0:0,0:0:0:0:
268,64,13948,2,0,P|260:96|264:140,1,67.5000025749208,2|0,0:0|0:0,0:0:0:0:
384,276,14371,2,0,P|392:244|388:200,1,67.5000025749208,2|0,0:0|0:0,0:0:0:0:
368,104,14793,1,2,0:0:0:0:
256,240,15005,1,2,0:0:0:0:
144,104,15216,6,0,L|148:32,1,67.5000025749208,2|0,0:0|0:0,0:0:0:0:
36,172,15638,2,0,L|32:100,1,67.5000025749208
144,240,16061,2,0,L|148:168,1,67.5000025749208
36,308,16483,1,2,0:0:0:0:
338,78,16906,6,0,L|334:150,1,67.5000025749208,2|0,0:0|0:0,0:0:0:0:
262,275,17328,2,0,L|258:203,1,67.5000025749208,2|0,0:0|0:0,0:0:0:0:
188,76,17751,2,0,L|184:148,1,67.5000025749208,2|0,0:0|0:0,0:0:0:0:
132,240,18174,1,2,0:0:0:0:
76,148,18385,1,2,0:0:0:0:
280,252,18596,6,0,L|356:248,1,67.5000025749208,2|0,0:0|0:0,0:0:0:0:
280,132,19019,2,0,L|356:136,1,67.5000025749208
428,244,19442,2,0,L|496:240,1,67.5000025749208
428,136,19864,2,0,L|496:139,1,67.5000025749208,2|0,0:0|0:0,0:0:0:0:
280,252,20286,6,0,P|240:260|208:256,1,67.5000025749208,2|0,0:0|0:0,0:0:0:0:
104,104,20709,2,0,P|144:96|176:100,1,67.5000025749208,2|0,0:0|0:0,0:0:0:0:
66,257,21131,2,0,P|32:259|0:252,1,67.5000025749208,2|0,0:0|0:0,0:0:0:0:
152,192,21554,1,2,0:0:0:0:
164,300,21765,1,2,0:0:0:0:
255,151,21976,6,0,L|251:71,1,67.5000025749208,2|0,0:0|0:0,0:0:0:0:
343,183,22399,2,0,L|339:103,1,67.5000025749208
431,215,22821,2,0,L|427:135,1,67.5000025749208
363,263,23244,1,2,0:0:0:0:
148,168,23666,6,0,B|112:164|112:164|72:168,1,67.5000025749208,2|0,0:0|0:0,0:0:0:0:
244,72,24089,2,0,B|280:68|280:68|320:72,1,67.5000025749208,2|0,0:0|0:0,0:0:0:0:
474,167,24512,2,0,B|443:171|443:171|407:167,1,67.5000025749208,2|0,0:0|0:0,0:0:0:0:
416,60,24934,1,2,0:0:0:0:
312,164,25145,1,2,0:0:0:0:
448,28,25357,6,0,P|440:68|452:108,1,67.5000025749208,2|0,0:0|0:0,0:0:0:0:
508,184,25779,2,0,P|516:224|504:264,1,67.5000025749208
408,220,26202,2,0,P|368:212|328:224,1,67.5000025749208
264,292,26624,2,0,P|224:300|184:288,1,67.5000025749208,2|0,0:0|0:0,0:0:0:0:
112,96,27047,5,6,0:0:0:0:
156,196,27258,1,0,0:0:0:0:
220,108,27469,2,0,P|252:100|292:104,1,67.5000025749208,2|0,0:0|0:0,0:0:0:0:
452,167,27892,2,0,P|419:176|385:173,1,67.5000025749208,2|0,0:0|0:0,0:0:0:0:
412,68,28314,1,2,0:0:0:0:
256,148,28526,1,2,0:0:0:0:
100,68,28737,6,0,B|92:100|92:100|96:144,1,67.5000025749208,2|0,0:0|0:0,0:0:0:0:
192,280,29159,2,0,B|200:248|200:248|196:204,1,67.5000025749208
40,224,29582,2,0,B|72:232|72:232|116:228,1,67.5000025749208
252,132,30004,2,0,B|220:124|220:124|176:128,1,67.5000025749208,2|0,0:0|0:0,0:0:0:0:
308,288,30427,6,0,P|312:320|308:360,1,67.5000025749208,2|0,0:0|0:0,0:0:0:0:
186,194,30850,2,0,P|182:162|186:122,1,67.5000025749208,2|0,0:0|0:0,0:0:0:0:
360,228,31272,2,0,B|392:232|392:232|436:228,1,67.5000025749208,2|0,0:0|0:0,0:0:0:0:
392,128,31695,1,2,0:0:0:0:
256,240,31906,1,2,0:0:0:0:
120,128,32117,6,0,P|128:92|124:56,1,67.5000025749208,2|0,0:0|0:0,0:0:0:0:
28,176,32540,2,0,P|20:140|24:104,1,67.5000025749208
120,224,32962,2,0,P|128:188|124:152,1,67.5000025749208
28,272,33385,1,2,0:0:0:0:
228,104,33807,6,0,B|260:96|260:96|308:100,1,67.5000025749208,2|0,0:0|0:0,0:0:0:0:
484,112,34230,2,0,B|452:120|452:120|404:116,1,67.5000025749208,2|0,0:0|0:0,0:0:0:0:
343,262,34652,2,0,P|348:229|344:196,1,67.5000025749208,2|0,0:0|0:0,0:0:0:0:
168,262,35075,1,2,0:0:0:0:
256,324,35286,1,2,0:0:0:0:
256,108,35497,6,0,L|256:40,1,67.5000025749208,2|0,0:0|0:0,0:0:0:0:
196,164,35920,2,0,P|180:140|180:92,1,67.5000025749208
316,164,36343,2,0,P|332:140|332:92,1,67.5000025749208
256,40,36765,1,2,0:0:0:0:
256,343,37188,6,0,L|256:272,1,67.5000025749208,2|0,0:0|0:0,0:0:0:0:
168,212,37610,2,0,P|136:208|100:212,1,67.5000025749208,2|0,0:0|0:0,0:0:0:0:
344,172,38033,2,0,P|376:176|412:172,1,67.5000025749208,2|0,0:0|0:0,0:0:0:0:
256,92,38455,1,2,0:0:0:0:
168,212,38666,1,2,0:0:0:0:
80,332,38878,5,2,0:0:0:0:
80,332,40145,6,0,B|84:312|84:312|80:288|80:288|84:264,1,67.5,2|0,0:0|0:0,0:0:0:0:
92,232,40568,6,0,P|136:240|184:232,1,90,2|2,1:0|0:0,0:0:0:0:
224,164,40885,1,2,1:0:0:0:
236,148,40990,2,0,L|232:92,1,45,2|0,0:0|0:0,0:0:0:0:
348,272,41202,2,0,L|344:328,1,45,2|0,1:0|0:0,0:0:0:0:
344,164,41413,1,2,0:0:0:0:
264,236,41624,1,2,0:0:0:0:
152,32,41835,2,0,B|156:80|156:80|144:128,1,90,2|0,1:0|0:0,0:0:0:0:
360,352,42258,6,0,B|356:304|356:304|368:256,1,90,2|2,1:0|0:0,0:0:0:0:
392,188,42575,1,2,1:0:0:0:
400,172,42681,2,0,L|396:112,1,45,2|0,0:0|0:0,0:0:0:0:
476,248,42892,2,0,L|472:308,1,45,2|0,1:0|0:0,0:0:0:0:
360,352,43103,1,2,0:0:0:0:
256,316,43314,1,2,0:0:0:0:
62,348,43526,2,0,L|152:352,1,90,2|0,1:0|0:0,0:0:0:0:
368,192,43948,6,0,L|278:195,1,90,2|2,1:0|0:0,0:0:0:0:
200,204,44265,1,2,1:0:0:0:
182,206,44371,2,0,L|128:204,1,45,2|0,0:0|0:0,0:0:0:0:
224,108,44582,2,0,L|278:106,1,45,2|0,1:0|0:0,0:0:0:0:
140,40,44793,1,2,0:0:0:0:
60,112,45005,1,2,0:0:0:0:
278,195,45216,2,0,L|368:192,1,90,2|0,1:0|0:0,0:0:0:0:
132,320,45638,6,0,L|42:316,1,90,2|2,1:0|0:0,0:0:0:0:
0,244,45955,1,2,1:0:0:0:
8,228,46061,2,0,L|4:176,1,45,2|0,0:0|0:0,0:0:0:0:
112,192,46272,2,0,L|108:244,1,45,2|0,1:0|0:0,0:0:0:0:
148,32,46483,1,2,0:0:0:0:
200,128,46695,1,2,0:0:0:0:
416,40,46906,2,0,P|371:36|326:40,1,90,2|0,1:0|0:0,0:0:0:0:
110,128,47328,6,0,P|154:131|199:127,1,90,2|2,1:0|0:0,0:0:0:0:
280,108,47645,1,2,1:0:0:0:
297,102,47751,2,0,L|357:106,1,45,2|0,0:0|0:0,0:0:0:0:
224,24,47962,2,0,L|164:28,1,45,2|0,1:0|0:0,0:0:0:0:
256,220,48174,1,2,0:0:0:0:
341,104,48385,1,2,0:0:0:0:
449,244,48596,2,0,P|404:248|360:244,1,90,2|0,1:0|0:0,0:0:0:0:
109,126,49019,6,0,P|153:122|198:126,1,90,2|2,1:0|0:0,0:0:0:0:
272,156,49335,1,2,1:0:0:0:
288,164,49441,2,0,L|344:160,1,45,2|0,0:0|0:0,0:0:0:0:
204,232,49652,2,0,L|148:228,1,45,2|0,1:0|0:0,0:0:0:0:
268,44,49864,1,2,0:0:0:0:
272,156,50075,1,2,0:0:0:0:
64,48,50286,2,0,P|48:96|64:152,1,90,2|0,1:0|0:0,0:0:0:0:
192,324,50709,6,0,P|208:276|192:220,1,90,2|2,1:0|0:0,0:0:0:0:
128,272,51026,1,2,1:0:0:0:
112,284,51131,2,0,L|64:280,1,45,2|0,0:0|0:0,0:0:0:0:
168,148,51343,2,0,L|212:144,1,45,2|0,1:0|0:0,0:0:0:0:
300,284,51554,1,2,0:0:0:0:
312,176,51765,1,2,0:0:0:0:
112,284,51976,2,0,P|64:292|8:280,1,90,2|0,1:0|0:0,0:0:0:0:
312,176,52399,6,0,P|360:168|416:180,1,90,2|2,1:0|0:0,0:0:0:0:
464,224,52716,1,2,1:0:0:0:
472,240,52821,2,0,L|468:296,1,45,2|0,0:0|0:0,0:0:0:0:
440,80,53033,2,0,L|436:24,1,45,2|0,1:0|0:0,0:0:0:0:
336,112,53244,1,2,0:0:0:0:
256,40,53455,1,2,0:0:0:0:
87,116,53666,2,0,P|131:120|176:112,1,90,2|0,1:0|0:0,0:0:0:0:
0,20,54089,6,0,P|4:64|0:112,1,90,2|2,1:0|0:0,0:0:0:0:
20,188,54406,1,2,1:0:0:0:
24,216,54512,2,0,L|28:280,1,45,10|0,0:0|0:0,0:0:0:0:
176,111,54723,2,0,L|180:47,1,45,2|0,1:0|0:0,0:0:0:0:
256,228,54934,1,10,0:0:0:0:
148,216,55145,1,2,0:0:0:0:
348,88,55357,2,0,P|392:80|444:92,1,90,2|0,1:0|0:0,0:0:0:0:
256,228,55779,6,0,P|212:236|168:228,1,90,2|2,1:0|0:0,0:0:0:0:
120,160,56096,1,2,1:0:0:0:
108,136,56202,2,0,L|112:88,1,45,10|0,0:0|0:0,0:0:0:0:
256,72,56413,2,0,L|252:24,1,45,2|0,1:0|0:0,0:0:0:0:
212,172,56624,1,10,0:0:0:0:
256,272,56835,1,2,0:0:0:0:
384,172,57047,1,2,1:0:0:0:
256,72,57258,1,2,0:0:0:0:
352,264,57469,6,0,P|364:312|352:356,1,90,2|2,1:0|0:0,0:0:0:0:
276,372,57786,1,2,1:0:0:0:
252,364,57892,2,0,L|208:368,1,45,10|0,0:0|0:0,0:0:0:0:
96,324,58103,2,0,L|52:320,1,45,2|0,1:0|0:0,0:0:0:0:
192,272,58314,1,10,0:0:0:0:
100,216,58526,1,2,0:0:0:0:
256,96,58737,2,0,P|264:139|256:183,1,90,2|0,1:0|0:0,0:0:0:0:
396,44,59159,6,0,B|440:36|440:52|488:44,1,90,2|2,1:0|0:0,0:0:0:0:
416,120,59476,1,2,1:0:0:0:
408,148,59582,2,0,P|404:176|408:208,1,45,10|0,0:0|0:0,0:0:0:0:
256,92,59793,2,0,P|233:74|204:62,1,45,2|0,1:0|0:0,0:0:0:0:
356,56,60005,1,10,0:0:0:0:
288,244,60216,1,2,0:0:0:0:
301,46,60427,1,2,1:0:0:0:
328,205,60638,1,2,0:0:0:0:
92,108,60850,6,0,P|136:112|184:108,1,90,2|2,1:0|0:0,0:0:0:0:
248,64,61166,1,2,1:0:0:0:
268,44,61272,2,0,L|264:0,1,45,10|0,0:0|0:0,0:0:0:0:
340,192,61483,2,0,L|336:236,1,45,2|0,1:0|0:0,0:0:0:0:
368,88,61695,1,10,0:0:0:0:
240,152,61906,1,2,0:0:0:0:
416,64,62117,2,0,P|466:58|508:68,1,90,2|0,1:0|0:0,0:0:0:0:
240,152,62540,6,0,P|189:157|148:148,1,90,2|2,1:0|0:0,0:0:0:0:
100,88,62857,1,2,1:0:0:0:
92,64,62962,2,0,P|88:40|92:8,1,45,10|0,0:0|0:0,0:0:0:0:
68,168,63174,2,0,P|49:183|19:196,1,45,2|0,1:0|0:0,0:0:0:0:
192,68,63385,1,10,0:0:0:0:
296,92,63596,1,2,0:0:0:0:
487,88,63807,2,0,L|400:68,1,90,2|0,1:0|0:0,0:0:0:0:
288,296,64230,6,0,L|200:316,1,90,2|2,1:0|0:0,0:0:0:0:
124,340,64547,1,2,1:0:0:0:
120,312,64652,2,0,P|124:288|140:264,1,45,10|0,0:0|0:0,0:0:0:0:
256,220,64864,2,0,P|288:216|316:224,1,45,2|0,1:0|0:0,0:0:0:0:
124,168,65075,1,10,0:0:0:0:
220,116,65286,1,2,0:0:0:0:
130,355,65497,2,0,P|119:312|134:270,1,90,2|0,1:0|0:0,0:0:0:0:
384,240,65920,6,0,B|338:246|338:246|292:240,1,90,2|2,1:0|0:0,0:0:0:0:
308,160,66237,1,2,1:0:0:0:
336,164,66343,2,0,L|396:156,1,45,10|0,0:0|0:0,0:0:0:0:
256,308,66554,2,0,L|316:316,1,45,2|0,1:0|0:0,0:0:0:0:
212,208,66765,1,10,0:0:0:0:
104,228,66976,1,2,0:0:0:0:
268,32,67188,2,0,P|276:76|268:128,1,90,2|0,1:0|0:0,0:0:0:0:
212,208,67610,5,2,0:0:0:0:
184,92,81131,6,0,L|180:16,1,67.5000025749208,10|0,0:0|0:0,0:0:0:0:
268,164,81554,2,0,L|272:88,1,67.5000025749208,10|0,0:0|0:0,0:0:0:0:
184,236,81976,2,0,L|180:160,1,67.5000025749208,10|0,0:0|0:0,0:0:0:0:
267,308,82399,1,10,0:0:0:0:
112,200,82610,1,2,0:0:0:0:
280,320,82821,6,0,P|312:324|356:320,1,67.5000025749208,10|0,0:0|0:0,0:0:0:0:
208,236,83244,2,0,P|240:232|284:236,1,67.5000025749208,10|0,0:0|0:0,0:0:0:0:
136,320,83666,2,0,P|168:324|212:320,1,67.5000025749208,10|0,0:0|0:0,0:0:0:0:
64,236,84089,1,10,0:0:0:0:
28,340,84300,1,2,0:0:0:0:
176,220,84512,6,0,P|180:180|172:148,1,67.5000025749208,10|0,0:0|0:0,0:0:0:0:
328,44,84934,2,0,P|324:84|332:116,1,67.5000025749208,10|0,0:0|0:0,0:0:0:0:
144,76,85357,2,0,B|108:72|108:72|72:76,1,67.5000025749208,10|0,0:0|0:0,0:0:0:0:
256,140,85779,1,10,0:0:0:0:
244,32,85990,1,2,0:0:0:0:
144,208,86202,6,0,P|136:248|152:296,1,67.5000025749208,10|0,0:0|0:0,0:0:0:0:
256,160,86624,1,10,0:0:0:0:
164,100,86835,1,2,0:0:0:0:
144,208,87047,1,10,0:0:0:0:
240,80,87258,1,2,0:0:0:0:
304,228,87469,1,10,0:0:0:0:
336,124,87681,1,0,0:0:0:0:
376,308,87892,6,0,P|400:276|408:232,1,67.5000025749208,10|0,0:0|0:0,0:0:0:0:
308,376,88314,2,0,P|284:344|276:300,1,67.5000025749208,10|0,0:0|0:0,0:0:0:0:
236,160,88737,2,0,L|228:232,1,67.5000025749208,10|0,0:0|0:0,0:0:0:0:
172,320,89159,1,10,0:0:0:0:
148,128,89371,1,2,0:0:0:0:
152,344,89582,6,0,B|150:265|150:265|174:281,1,101.250003862381,10|0,0:0|0:0,0:0:0:0:
228,324,90005,1,10,0:0:0:0:
88,220,90216,2,0,P|80:184|92:144,1,67.5000025749208,2|8,0:0|0:0,0:0:0:0:
312,64,90638,1,2,0:0:0:0:
204,76,90850,2,0,P|168:80|120:72,1,67.5000025749208,10|2,0:0|0:0,0:0:0:0:
268,164,91272,5,10,0:0:0:0:
256,16,91483,1,2,0:0:0:0:
256,164,91695,1,10,0:0:0:0:
269,16,91906,1,2,0:0:0:0:
244,164,92117,2,0,P|200:168|164:160,1,67.5000025749208,10|0,0:0|0:0,0:0:0:0:
344,216,92540,2,0,P|388:212|424:220,1,67.5000025749208,10|0,0:0|0:0,0:0:0:0:
252,256,92962,5,10,0:0:0:0:
315,121,93173,1,2,0:0:0:0:
241,250,93385,1,10,0:0:0:0:
326,128,93596,1,2,0:0:0:0:
231,244,93807,2,0,P|224:288|236:328,1,67.5000025749208,10|0,0:0|0:0,0:0:0:0:
315,121,94230,2,0,P|322:77|310:37,1,67.5000025749208,10|0,0:0|0:0,0:0:0:0:
88,24,94652,5,10,0:0:0:0:
124,124,94864,1,0,0:0:0:0:
88,228,95075,1,10,0:0:0:0:
124,328,95287,1,0,0:0:0:0:
16,312,95497,1,10,0:0:0:0:
88,228,95709,1,0,0:0:0:0:
188,264,95920,1,10,0:0:0:0:
172,68,96131,1,2,0:0:0:0:
292,228,96343,6,0,P|300:280|284:320,1,90,10|8,0:0|0:0,0:0:0:0:
88,228,96765,1,10,0:0:0:0:
124,124,96976,1,8,0:0:0:0:
88,24,97188,1,10,0:0:0:0:
16,104,97399,1,8,0:0:0:0:
204,44,97610,1,10,0:0:0:0:
248,37,97716,1,8,0:0:0:0:
292,45,97821,1,10,0:0:0:0:
336,52,97927,1,8,0:0:0:0:
380,43,98033,5,10,0:0:0:0:
248,136,98244,1,0,0:0:0:0:
380,284,98455,2,0,P|392:332|380:376,1,90,10|0,0:0|0:0,0:0:0:0:
129,370,98878,2,0,P|120:326|132:284,1,90,10|0,0:0|0:0,0:0:0:0:
256,128,99300,1,10,0:0:0:0:
160,180,99512,1,2,0:0:0:0:
352,180,99723,5,10,0:0:0:0:
365,137,99828,1,8,0:0:0:0:
360,93,99934,1,8,0:0:0:0:
337,54,100040,1,8,0:0:0:0:
301,28,100145,1,10,0:0:0:0:
460,60,100357,1,10,0:0:0:0:
352,180,100568,1,10,0:0:0:0:
384,20,100779,1,10,0:0:0:0:
344,216,100990,2,0,B|328:264|356:268|340:320|340:320|324:304|324:288,1,135,10|0,0:0|0:0,0:0:0:0:
420,244,101413,5,10,0:0:0:0:
453,232,101519,1,8,0:0:0:0:
478,206,101624,1,8,0:0:0:0:
488,172,101730,1,8,0:0:0:0:
482,137,101835,1,10,0:0:0:0:
460,109,101941,1,8,0:0:0:0:
428,93,102047,1,8,0:0:0:0:
392,94,102152,1,8,0:0:0:0:
360,110,102258,5,10,0:0:0:0:
325,116,102364,1,8,0:0:0:0:
289,111,102469,1,8,0:0:0:0:
256,95,102575,1,8,0:0:0:0:
221,89,102681,2,0,L|168:92,1,45,10|8,0:0|0:0,0:0:0:0:
96,192,102892,2,0,L|42:189,1,45,10|8,0:0|0:0,0:0:0:0:
221,294,103103,5,10,0:0:0:0:
260,314,103209,1,8,0:0:0:0:
305,312,103314,1,10,0:0:0:0:
342,289,103420,1,8,0:0:0:0:
363,250,103526,1,10,0:0:0:0:
362,205,103631,1,8,0:0:0:0:
339,167,103737,1,10,0:0:0:0:
342,123,103843,1,8,0:0:0:0:
367,87,103948,5,8,0:0:0:0:
409,70,104054,1,8,0:0:0:0:
452,79,104159,1,10,0:0:0:0:
487,107,104265,1,8,0:0:0:0:
500,150,104371,1,10,0:0:0:0:
486,192,104476,1,8,0:0:0:0:
454,224,104582,1,10,0:0:0:0:
409,231,104688,1,8,0:0:0:0:
362,205,104793,5,10,0:0:0:0:
326,164,104899,1,8,0:0:0:0:
273,149,105005,1,10,0:0:0:0:
222,165,105110,1,8,0:0:0:0:
191,209,105216,1,10,0:0:0:0:
179,261,105321,1,8,0:0:0:0:
183,314,105427,1,10,0:0:0:0:
152,358,105533,1,8,0:0:0:0:
100,374,105638,5,10,0:0:0:0:
46,364,105744,1,8,0:0:0:0:
12,321,105850,1,8,0:0:0:0:
14,267,105955,1,8,0:0:0:0:
45,222,106061,1,10,0:0:0:0:
73,176,106166,1,8,0:0:0:0:
65,122,106272,1,8,0:0:0:0:
29,81,106378,1,8,0:0:0:0:
304,76,108174,5,0,1:0:0:0:
208,308,108385,1,0,3:0:0:0:
284,72,108596,1,0,1:0:0:0:
229,317,108807,1,0,3:0:0:0:
264,68,109019,2,0,P|252:128|264:176,1,112.5,8|2,0:0|0:0,0:0:0:0:
424,364,109441,2,0,P|436:304|424:256,1,112.5,2|2,1:2|0:0,0:0:0:0:
300,304,109864,5,2,0:0:0:0:
470,119,110075,1,0,3:0:0:0:
286,285,110286,1,0,1:0:0:0:
486,133,110497,1,0,3:0:0:0:
271,266,110709,2,0,P|216:275|161:267,1,112.5,8|2,0:0|0:0,0:0:0:0:
160,72,111131,1,2,0:0:0:0:
68,172,111343,1,2,0:0:0:0:
292,104,111554,6,0,B|348:96|340:120|404:108,1,112.5,0|0,1:0|3:0,0:0:0:0:
308,204,111976,1,0,1:0:0:0:
372,12,112188,1,0,3:0:0:0:
436,252,112399,1,8,0:0:0:0:
500,132,112610,1,2,0:0:0:0:
308,204,112821,1,2,1:2:0:0:
372,84,113033,1,2,0:0:0:0:
368,332,113244,5,0,3:0:0:0:
368,320,113455,1,0,3:0:0:0:
256,100,113666,1,0,1:0:0:0:
256,112,113877,1,2,0:0:0:0:
144,332,114089,1,8,0:0:0:0:
248,248,114300,1,0,3:0:0:0:
52,192,114512,1,2,3:2:0:0:
12,320,114723,1,0,3:0:0:0:
280,148,114934,6,0,P|336:140|392:148,1,112.5,0|0,1:0|3:0,0:0:0:0:
172,264,115357,1,0,1:0:0:0:
148,132,115568,1,0,3:0:0:0:
324,300,115779,1,8,0:0:0:0:
276,176,115990,1,2,0:0:0:0:
48,360,116202,1,2,1:2:0:0:
44,180,116413,1,2,0:0:0:0:
40,0,116624,5,2,0:0:0:0:
40,11,116835,1,0,3:0:0:0:
224,176,117047,1,0,1:0:0:0:
224,165,117258,1,0,3:0:0:0:
40,332,117469,1,8,0:0:0:0:
92,208,117681,1,2,0:0:0:0:
256,328,117892,1,2,0:0:0:0:
104,196,118103,1,2,0:0:0:0:
380,296,118314,6,0,P|432:304|496:292,1,112.5,0|0,1:0|3:0,0:0:0:0:
296,76,118737,1,0,1:0:0:0:
228,316,118948,1,0,3:0:0:0:
275,70,119159,1,8,0:0:0:0:
249,318,119370,1,2,0:0:0:0:
253,69,119582,1,2,1:2:0:0:
152,156,119793,1,2,0:0:0:0:
128,24,120005,5,0,3:0:0:0:
142,41,120216,1,0,3:0:0:0:
48,272,120427,1,0,1:0:0:0:
4,144,120638,1,2,0:0:0:0:
176,320,120850,1,8,0:0:0:0:
256,212,121061,1,0,3:0:0:0:
336,320,121272,1,0,3:0:0:0:
176,236,121483,1,2,0:0:0:0:
328,140,121695,5,6,0:0:0:0:
88,72,121906,1,0,3:0:0:0:
60,156,122117,1,0,3:0:0:0:
88,240,122328,1,0,3:0:0:0:
60,324,122539,1,0,3:0:0:0:
0,256,122751,1,2,0:0:0:0:
196,220,122962,2,0,L|188:140,1,56.25,2|0,0:0|0:0,0:0:0:0:
280,248,123174,2,0,L|272:168,1,56.25,2|0,0:0|0:0,0:0:0:0:
364,276,123385,5,4,1:0:0:0:
419,280,123490,1,0,0:0:0:0:
465,250,123596,1,0,0:0:0:0:
484,198,123702,1,0,0:0:0:0:
468,145,123807,1,0,1:0:0:0:
280,248,124019,2,2,P|276:288|292:328,1,56.25
336,124,124230,1,0,1:0:0:0:
337,69,124335,1,0,0:0:0:0:
299,29,124441,1,0,0:0:0:0:
244,29,124547,2,0,L|188:32,1,56.25,0|2,1:0|0:0,0:0:0:0:
128,192,124758,1,2,0:0:0:0:
128,180,124864,2,0,L|125:123,1,56.25,0|0,1:0|0:0,0:0:0:0:
244,354,125075,6,0,L|188:352,1,56.25,0|0,1:0|0:0,0:0:0:0:
356,280,125286,1,0,0:0:0:0:
356,280,125392,1,0,0:0:0:0:
356,280,125497,2,0,L|412:278,1,56.25,0|0,1:0|0:0,0:0:0:0:
456,200,125709,2,2,L|512:202,1,56.25
312,76,125920,1,0,1:0:0:0:
259,58,126026,1,0,0:0:0:0:
207,76,126131,1,0,0:0:0:0:
177,122,126237,2,0,L|180:192,1,56.25,0|2,1:0|0:0,0:0:0:0:
256,356,126448,1,2,0:0:0:0:
256,332,126554,2,0,L|256:272,1,56.25,0|0,1:0|0:0,0:0:0:0:
336,124,126765,5,0,1:0:0:0:
388,105,126870,1,0,0:0:0:0:
441,120,126976,1,0,0:0:0:0:
477,162,127081,1,0,0:0:0:0:
483,217,127187,1,0,1:0:0:0:
248,144,127399,2,2,P|248:108|260:80,1,56.25
348,236,127610,1,0,1:0:0:0:
302,267,127716,1,0,0:0:0:0:
247,279,127821,1,0,0:0:0:0:
192,268,127927,2,0,L|128:272,1,56.25,0|2,1:0|0:0,0:0:0:0:
248,144,128138,1,2,0:0:0:0:
252,132,128244,2,0,P|256:88|244:60,1,56.25,0|2,1:0|0:0,0:0:0:0:
348,236,128455,6,0,P|404:248|460:232,1,112.5,4|0,1:0|0:0,0:0:0:0:
500,156,128772,1,0,0:0:0:0:
504,144,128878,2,0,L|496:76,1,56.25,0|0,1:0|0:0,0:0:0:0:
412,60,129089,2,2,L|420:-8,1,56.25
240,160,129300,1,0,1:0:0:0:
186,171,129406,1,0,0:0:0:0:
137,145,129512,1,0,0:0:0:0:
116,94,129617,2,0,L|120:32,1,56.25,0|2,1:0|0:0,0:0:0:0:
26,210,129828,1,2,0:0:0:0:
28,224,129934,2,0,L|31:286,1,56.25,0|0,1:0|0:0,0:0:0:0:
188,348,130145,5,0,1:0:0:0:
235,318,130251,1,0,0:0:0:0:
290,308,130357,1,0,0:0:0:0:
345,318,130462,1,0,0:0:0:0:
394,346,130568,1,0,1:0:0:0:
292,172,130779,2,2,P|284:140|288:108,1,56.25
420,212,130990,2,0,P|392:264|344:296,1,112.5,0|2,1:0|0:0,0:0:0:0:
256,256,131307,1,0,1:0:0:0:
224,264,131413,2,0,L|160:260,1,56.25,2|0,0:0|0:0,0:0:0:0:
32,192,131624,2,0,L|92:192,1,56.25,0|0,1:0|0:0,0:0:0:0:
224,120,131835,5,0,1:0:0:0:
273,145,131941,1,0,0:0:0:0:
328,155,132047,1,0,0:0:0:0:
384,146,132152,1,0,0:0:0:0:
434,121,132258,1,0,1:0:0:0:
154,66,132469,2,2,P|136:92|136:124,1,56.25
328,155,132681,2,0,P|324:88|264:52,1,112.5,0|2,1:0|0:0,0:0:0:0:
200,36,132997,1,0,1:0:0:0:
200,36,133103,2,0,P|172:48|148:80,1,56.25,2|0,0:0|0:0,0:0:0:0:
252,220,133314,2,0,P|255:189|239:152,1,56.25,0|0,1:0|0:0,0:0:0:0:
100,272,133526,5,0,1:0:0:0:
111,326,133631,1,0,0:0:0:0:
151,364,133737,1,0,0:0:0:0:
206,372,133842,1,0,0:0:0:0:
255,348,133948,1,0,1:0:0:0:
64,192,134159,2,2,P|36:208|20:240,1,56.25
200,208,134371,2,0,P|212:160|184:96,1,112.5,0|2,1:0|0:0,0:0:0:0:
104,48,134688,1,0,1:0:0:0:
72,56,134793,2,0,L|12:52,1,56.25,2|0,0:0|0:0,0:0:0:0:
256,16,135005,2,0,L|316:12,1,56.25,0|0,1:0|0:0,0:0:0:0:
288,260,135216,5,6,0:0:0:0:
