osu file format v14

[General]
AudioFilename: audio.mp3
AudioLeadIn: 0
PreviewTime: 40568
Countdown: 0
SampleSet: Normal
StackLeniency: 0.7
Mode: 1
LetterboxInBreaks: 0
EpilepsyWarning: 1
WidescreenStoryboard: 1

[Editor]
Bookmarks: 13526
DistanceSpacing: 0.9
BeatDivisor: 4
GridSize: 4
TimelineZoom: 2.2

[Metadata]
Title:Alone
TitleUnicode:Alone
Artist:Marshmello
ArtistUnicode:Marshmello
Creator:Pachiru
Version:Kin's Muzukashii
Source:
Tags:Original Mix Monstercat Trap Gabe Veus Secretpipe Kin Cosmolade Noffy
BeatmapID:1223877
BeatmapSetID:552712

[Difficulty]
HPDrainRate:6
CircleSize:6.9
OverallDifficulty:5
ApproachRate:6.9
SliderMultiplier:1.4
SliderTickRate:1

[Events]
//Background and Video events
0,0,"alone-girl.jpg",0,0
//Break Periods
2,67811,80217
//Storyboard Layer 0 (Background)
//Storyboard Layer 1 (Fail)
//Storyboard Layer 2 (Pass)
//Storyboard Layer 3 (Foreground)
//Storyboard Sound Samples

[TimingPoints]
5,422.535211267606,4,1,0,40,1,0
27047,-100,4,1,0,60,0,0
40568,-100,4,1,0,90,0,0
108174,-100,4,1,0,90,0,1
135216,-100,4,1,0,90,0,0

[HitObjects]
397,136,13526,5,8,0:0:0:0:
413,152,14371,1,8,0:0:0:0:
282,191,14793,1,8,0:0:0:0:
339,174,15005,1,8,0:0:0:0:
393,158,15216,1,8,0:0:0:0:
18,208,16483,1,8,0:0:0:0:
141,191,16906,1,0,0:0:0:0:
389,159,17751,1,8,0:0:0:0:
260,175,18174,1,8,0:0:0:0:
318,168,18385,1,8,0:0:0:0:
318,168,18596,1,0,0:0:0:0:
244,175,19864,1,0,0:0:0:0:
369,168,20286,1,8,0:0:0:0:
378,161,21131,1,8,0:0:0:0:
266,227,21554,1,8,0:0:0:0:
320,195,21765,1,8,0:0:0:0:
320,195,21976,1,8,0:0:0:0:
404,174,23244,1,8,0:0:0:0:
298,105,23666,1,0,0:0:0:0:
404,174,24512,1,8,0:0:0:0:
404,174,24934,1,8,0:0:0:0:
404,174,25145,1,8,0:0:0:0:
445,126,25357,1,0,0:0:0:0:
81,229,26624,1,8,0:0:0:0:
203,198,27047,1,4,0:0:0:0:
291,163,27469,1,0,0:0:0:0:
425,156,27892,1,8,0:0:0:0:
305,163,28314,1,8,0:0:0:0:
366,159,28526,1,8,0:0:0:0:
366,159,28737,1,8,0:0:0:0:
351,170,30005,1,8,0:0:0:0:
351,170,30427,1,0,0:0:0:0:
351,170,30850,1,8,0:0:0:0:
351,170,31272,1,8,0:0:0:0:
351,170,31695,1,8,0:0:0:0:
351,170,31906,1,8,0:0:0:0:
351,170,32117,1,0,0:0:0:0:
322,175,33385,1,0,0:0:0:0:
368,178,33807,1,8,0:0:0:0:
405,66,34230,1,0,0:0:0:0:
364,188,34652,1,8,0:0:0:0:
418,69,35075,1,8,0:0:0:0:
392,125,35286,1,8,0:0:0:0:
368,179,35497,1,0,0:0:0:0:
267,189,36765,1,8,0:0:0:0:
267,189,37188,1,0,0:0:0:0:
267,189,37610,1,8,0:0:0:0:
267,189,38033,1,8,0:0:0:0:
267,189,38455,1,8,0:0:0:0:
267,189,38666,1,8,0:0:0:0:
267,189,38878,1,0,0:0:0:0:
292,143,40145,1,14,0:0:0:0:
185,211,40568,1,4,0:0:0:0:
279,217,40885,1,0,0:0:0:0:
310,214,40990,1,0,0:0:0:0:
373,209,41202,1,0,0:0:0:0:
363,146,41413,1,8,0:0:0:0:
363,146,41835,1,0,0:0:0:0:
238,163,42258,1,0,0:0:0:0:
323,150,42575,1,0,0:0:0:0:
323,150,42681,1,0,0:0:0:0:
260,157,42892,1,8,0:0:0:0:
322,157,43103,1,0,0:0:0:0:
309,174,43526,1,8,0:0:0:0:
259,134,43737,1,8,0:0:0:0:
185,199,43948,1,0,0:0:0:0:
277,181,44265,1,0,0:0:0:0:
277,181,44371,1,0,0:0:0:0:
286,118,44582,1,0,0:0:0:0:
311,175,44793,1,8,0:0:0:0:
267,58,45216,1,8,0:0:0:0:
307,106,45638,1,0,0:0:0:0:
300,136,45955,1,0,0:0:0:0:
292,167,46061,1,0,0:0:0:0:
238,133,46272,1,0,0:0:0:0:
300,137,46483,1,8,0:0:0:0:
362,125,46695,1,8,0:0:0:0:
303,147,46906,1,0,0:0:0:0:
416,106,47328,1,0,0:0:0:0:
322,122,47645,1,0,0:0:0:0:
290,124,47751,1,0,0:0:0:0:
227,113,47962,1,0,0:0:0:0:
273,155,48174,1,8,0:0:0:0:
397,137,48596,1,8,0:0:0:0:
397,137,49019,1,0,0:0:0:0:
397,137,49335,1,0,0:0:0:0:
397,137,49441,1,0,0:0:0:0:
334,140,49652,1,8,0:0:0:0:
271,148,49864,1,0,0:0:0:0:
219,262,50286,1,0,0:0:0:0:
258,213,50497,1,8,0:0:0:0:
312,177,50709,1,0,0:0:0:0:
312,177,51026,1,0,0:0:0:0:
312,177,51131,1,0,0:0:0:0:
312,177,51343,1,0,0:0:0:0:
312,177,51554,1,8,0:0:0:0:
269,58,51976,1,0,0:0:0:0:
311,176,52399,1,0,0:0:0:0:
279,86,52716,1,0,0:0:0:0:
289,115,52821,1,0,0:0:0:0:
346,140,53033,1,0,0:0:0:0:
328,200,53244,1,8,0:0:0:0:
347,140,53455,1,8,0:0:0:0:
304,186,53666,1,0,0:0:0:0:
300,180,54089,1,0,0:0:0:0:
209,152,54406,1,8,0:0:0:0:
240,150,54512,1,8,0:0:0:0:
302,146,54723,1,0,0:0:0:0:
361,166,54934,1,8,0:0:0:0:
302,146,55357,1,0,0:0:0:0:
424,176,55779,1,0,0:0:0:0:
329,177,56096,1,8,0:0:0:0:
329,177,56202,1,8,0:0:0:0:
329,177,56413,1,0,0:0:0:0:
329,177,56624,1,8,0:0:0:0:
263,69,57047,1,8,0:0:0:0:
292,116,57258,1,8,0:0:0:0:
353,127,57469,1,0,0:0:0:0:
442,145,57786,1,8,0:0:0:0:
405,137,57892,1,8,0:0:0:0:
342,146,58103,1,0,0:0:0:0:
280,133,58314,1,8,0:0:0:0:
208,236,58737,1,8,0:0:0:0:
311,164,59159,1,0,0:0:0:0:
394,120,59476,1,0,0:0:0:0:
361,136,59582,1,0,0:0:0:0:
298,131,59793,1,0,0:0:0:0:
276,178,60005,1,8,0:0:0:0:
327,213,60216,1,8,0:0:0:0:
264,211,60427,1,0,0:0:0:0:
378,157,60850,1,0,0:0:0:0:
313,87,61167,1,8,0:0:0:0:
261,124,61273,1,8,0:0:0:0:
315,154,61484,1,0,0:0:0:0:
373,177,61695,1,8,0:0:0:0:
254,134,62117,1,0,0:0:0:0:
334,231,62540,1,0,0:0:0:0:
412,177,62857,1,8,0:0:0:0:
380,180,62962,1,8,0:0:0:0:
319,197,63174,1,0,0:0:0:0:
335,136,63385,1,8,0:0:0:0:
278,23,63808,1,8,0:0:0:0:
327,61,64019,1,8,0:0:0:0:
389,111,64230,1,0,0:0:0:0:
481,91,64547,1,8,0:0:0:0:
473,109,64652,1,8,0:0:0:0:
410,103,64864,1,0,0:0:0:0:
347,96,65075,1,8,0:0:0:0:
290,208,65498,1,8,0:0:0:0:
401,149,65920,1,0,0:0:0:0:
479,96,66237,1,0,0:0:0:0:
434,90,66343,1,0,0:0:0:0:
384,129,66554,1,0,0:0:0:0:
330,196,66765,1,8,0:0:0:0:
406,231,66977,1,8,0:0:0:0:
394,193,67188,1,0,0:0:0:0:
375,172,67611,1,0,0:0:0:0:
279,144,81131,5,8,0:0:0:0:
279,144,81554,1,8,0:0:0:0:
279,144,81976,1,8,0:0:0:0:
279,144,82399,1,8,0:0:0:0:
279,144,82610,1,8,0:0:0:0:
198,156,82821,1,0,0:0:0:0:
324,170,83244,1,0,0:0:0:0:
324,170,83666,1,0,0:0:0:0:
324,170,84089,1,0,0:0:0:0:
324,170,84300,1,0,0:0:0:0:
324,170,84512,1,8,0:0:0:0:
324,170,84934,1,8,0:0:0:0:
324,170,85357,1,8,0:0:0:0:
374,167,85779,1,8,0:0:0:0:
374,167,85990,1,0,0:0:0:0:
374,167,86202,1,8,0:0:0:0:
394,159,86624,1,8,0:0:0:0:
378,165,86835,1,0,0:0:0:0:
394,159,87047,1,8,0:0:0:0:
394,159,87258,1,8,0:0:0:0:
378,165,87469,1,0,0:0:0:0:
378,165,87892,1,8,0:0:0:0:
322,149,88314,1,8,0:0:0:0:
325,149,88737,1,8,0:0:0:0:
330,152,89159,1,8,0:0:0:0:
330,152,89371,1,0,0:0:0:0:
330,152,89582,1,8,0:0:0:0:
330,152,90005,1,0,0:0:0:0:
330,152,90216,1,8,0:0:0:0:
302,218,90638,1,8,0:0:0:0:
504,143,90849,1,0,0:0:0:0:
292,156,91272,1,8,0:0:0:0:
188,160,91483,1,0,0:0:0:0:
292,156,91695,1,8,0:0:0:0:
194,128,91906,1,8,0:0:0:0:
292,156,92117,1,0,0:0:0:0:
167,171,92540,1,0,0:0:0:0:
324,154,92962,1,8,0:0:0:0:
287,176,93174,1,0,0:0:0:0:
324,154,93385,1,8,0:0:0:0:
287,176,93596,1,0,0:0:0:0:
324,154,93807,1,8,0:0:0:0:
324,154,94230,1,0,0:0:0:0:
324,154,94652,1,8,0:0:0:0:
266,159,95075,1,8,0:0:0:0:
265,155,95497,1,8,0:0:0:0:
264,151,95920,1,8,0:0:0:0:
262,147,96131,1,8,0:0:0:0:
262,147,96343,1,0,0:0:0:0:
264,170,96765,1,0,0:0:0:0:
264,170,97188,1,0,0:0:0:0:
264,170,97610,1,0,0:0:0:0:
264,170,97821,1,0,0:0:0:0:
264,170,98033,1,8,0:0:0:0:
328,182,98455,1,8,0:0:0:0:
328,182,98878,1,8,0:0:0:0:
328,182,99300,1,8,0:0:0:0:
328,182,99512,1,0,0:0:0:0:
328,182,99723,1,8,0:0:0:0:
219,200,100145,1,0,0:0:0:0:
219,200,100357,1,8,0:0:0:0:
219,200,100568,1,8,0:0:0:0:
219,200,100779,1,0,0:0:0:0:
219,200,100990,1,8,0:0:0:0:
219,200,101413,1,8,0:0:0:0:
219,200,101835,1,8,0:0:0:0:
219,200,102258,1,8,0:0:0:0:
219,200,102681,1,8,0:0:0:0:
219,200,102892,1,0,0:0:0:0:
219,200,103103,1,8,0:0:0:0:
219,200,103526,1,0,0:0:0:0:
219,200,103737,1,8,0:0:0:0:
263,192,104159,1,8,0:0:0:0:
263,192,104371,1,8,0:0:0:0:
263,192,104582,1,0,0:0:0:0:
161,230,104793,2,0,P|219:95|249:301,1,525
250,168,108174,1,4,0:0:0:0:
312,154,108385,1,8,0:0:0:0:
312,154,108596,1,8,0:0:0:0:
384,150,108807,1,0,0:0:0:0:
312,154,109019,1,8,0:0:0:0:
243,175,109230,1,0,0:0:0:0:
312,154,109441,1,8,0:0:0:0:
312,154,109652,1,8,0:0:0:0:
195,137,109864,1,0,0:0:0:0:
312,154,110286,1,8,0:0:0:0:
312,154,110497,1,8,0:0:0:0:
312,154,110709,1,8,0:0:0:0:
202,136,110920,1,0,0:0:0:0:
302,185,111131,1,8,0:0:0:0:
331,170,111343,1,8,0:0:0:0:
328,165,111554,1,0,0:0:0:0:
317,137,111976,1,8,0:0:0:0:
315,146,112188,1,0,0:0:0:0:
321,135,112399,1,8,0:0:0:0:
321,135,112610,1,8,0:0:0:0:
315,146,112821,1,0,0:0:0:0:
294,157,113033,1,8,0:0:0:0:
322,162,113244,1,0,0:0:0:0:
270,160,113666,1,8,0:0:0:0:
270,160,113878,1,8,0:0:0:0:
283,157,114089,1,0,0:0:0:0:
353,168,114300,1,8,0:0:0:0:
353,168,114406,1,8,0:0:0:0:
353,168,114512,1,8,0:0:0:0:
353,168,114723,1,8,0:0:0:0:
342,143,114934,1,4,0:0:0:0:
256,205,115357,1,0,0:0:0:0:
344,171,115568,1,8,0:0:0:0:
256,205,115779,1,8,0:0:0:0:
186,228,115990,1,0,0:0:0:0:
345,167,116202,1,8,0:0:0:0:
192,209,116413,1,0,0:0:0:0:
186,228,116624,1,0,0:0:0:0:
192,209,117047,1,0,0:0:0:0:
340,170,117258,1,8,0:0:0:0:
340,170,117469,1,8,0:0:0:0:
311,155,117681,1,0,0:0:0:0:
342,172,117892,1,8,0:0:0:0:
341,157,118103,1,8,0:0:0:0:
348,156,118314,1,0,0:0:0:0:
316,152,118737,1,0,0:0:0:0:
299,166,118948,1,0,0:0:0:0:
307,210,119159,1,8,0:0:0:0:
307,113,119371,1,0,0:0:0:0:
337,154,119582,1,8,0:0:0:0:
351,146,119793,1,8,0:0:0:0:
334,147,120005,1,0,0:0:0:0:
296,143,120427,1,0,0:0:0:0:
287,150,120638,1,8,0:0:0:0:
287,150,120850,1,8,0:0:0:0:
287,150,121061,1,8,0:0:0:0:
366,158,121272,1,0,0:0:0:0:
169,136,121695,1,0,0:0:0:0:
367,148,123385,1,4,0:0:0:0:
376,146,123596,1,8,0:0:0:0:
376,146,123702,1,8,0:0:0:0:
375,146,123807,1,8,0:0:0:0:
314,153,124019,1,8,0:0:0:0:
376,152,124230,1,0,0:0:0:0:
375,140,124547,1,8,0:0:0:0:
376,140,124864,1,0,0:0:0:0:
376,140,125075,1,0,0:0:0:0:
204,173,125497,1,0,0:0:0:0:
275,164,125709,1,8,0:0:0:0:
328,165,125920,1,0,0:0:0:0:
330,168,126237,1,0,0:0:0:0:
330,168,126554,1,0,0:0:0:0:
159,140,126765,1,8,0:0:0:0:
233,180,127188,1,0,0:0:0:0:
239,180,127399,1,0,0:0:0:0:
241,179,127610,1,8,0:0:0:0:
361,147,127821,1,0,0:0:0:0:
361,147,128033,1,8,0:0:0:0:
361,147,128244,1,8,0:0:0:0:
364,146,128455,1,4,0:0:0:0:
259,164,128878,1,0,0:0:0:0:
365,172,129089,1,8,0:0:0:0:
300,144,129300,1,8,0:0:0:0:
378,151,129512,1,0,0:0:0:0:
348,160,129617,1,0,0:0:0:0:
348,160,129723,1,0,0:0:0:0:
277,189,129934,1,0,0:0:0:0:
306,164,130145,1,8,0:0:0:0:
309,159,130568,1,8,0:0:0:0:
256,182,130779,1,0,0:0:0:0:
399,200,130990,1,8,0:0:0:0:
399,200,131307,1,8,0:0:0:0:
392,177,131624,1,8,0:0:0:0:
392,177,131835,1,0,0:0:0:0:
314,221,132258,1,0,0:0:0:0:
314,221,132681,1,0,0:0:0:0:
314,221,132892,1,0,0:0:0:0:
320,192,132997,1,0,0:0:0:0:
304,164,133103,1,0,0:0:0:0:
388,161,133314,1,0,0:0:0:0:
384,153,133526,1,8,0:0:0:0:
384,153,133948,1,8,0:0:0:0:
384,153,134371,1,0,0:0:0:0:
397,167,134688,1,8,0:0:0:0:
384,153,135005,1,8,0:0:0:0:
384,153,135216,1,4,0:0:0:0:
