osu file format v14

[General]
AudioFilename: audio.mp3
AudioLeadIn: 0
PreviewTime: 40568
Countdown: 0
SampleSet: Soft
StackLeniency: 0.7
Mode: 0
LetterboxInBreaks: 0
SkinPreference:Default
EpilepsyWarning: 1
WidescreenStoryboard: 1

[Editor]
DistanceSpacing: 1
BeatDivisor: 4
GridSize: 4
TimelineZoom: 1.3

[Metadata]
Title:Alone
TitleUnicode:Alone
Artist:Marshmello
ArtistUnicode:Marshmello
Creator:Pachiru
Version:Gabe's Easy
Source:
Tags:Original Mix Monstercat Trap Gabe Veus Secretpipe Kin Cosmolade Noffy
BeatmapID:1182441
BeatmapSetID:552712

[Difficulty]
HPDrainRate:2
CircleSize:3
OverallDifficulty:2
ApproachRate:3
SliderMultiplier:1
SliderTickRate:1

[Events]
//Background and Video events
0,0,"alone-girl.jpg",0,0
//Break Periods
2,67810,79691
//Storyboard Layer 0 (Background)
//Storyboard Layer 1 (Fail)
//Storyboard Layer 2 (Pass)
//Storyboard Layer 3 (Foreground)
//Storyboard Sound Samples

[TimingPoints]
5,422.535211267606,4,1,1,90,1,0
13526,-100,4,2,30,90,0,0
14371,-100,4,2,32,90,0,0
14793,-100,4,2,33,90,0,0
16483,-100,4,2,34,90,0,0
16906,-100,4,2,30,90,0,0
17328,-100,4,2,34,90,0,0
17751,-100,4,2,30,90,0,0
18174,-100,4,2,33,90,0,0
18596,-100,4,2,31,90,0,0
19864,-100,4,2,33,90,0,0
20286,-100,4,2,30,90,0,0
21131,-100,4,2,32,90,0,0
21554,-100,4,2,33,90,0,0
23244,-100,4,2,34,90,0,0
23666,-100,4,2,30,90,0,0
24089,-100,4,2,34,90,0,0
24512,-100,4,2,30,90,0,0
24934,-100,4,2,33,90,0,0
25357,-100,4,2,31,90,0,0
26624,-100,4,2,33,90,0,0
27047,-100,4,2,30,90,0,0
27892,-100,4,2,32,90,0,0
28314,-100,4,2,33,90,0,0
30005,-100,4,2,34,90,0,0
30427,-100,4,2,30,90,0,0
30850,-100,4,2,34,90,0,0
31272,-100,4,2,30,90,0,0
31695,-100,4,2,33,90,0,0
32117,-100,4,2,31,90,0,0
33385,-100,4,2,33,90,0,0
33807,-100,4,2,30,90,0,0
34652,-100,4,2,32,90,0,0
35075,-100,4,2,33,90,0,0
36765,-100,4,2,34,90,0,0
37188,-100,4,2,30,90,0,0
37610,-100,4,2,34,90,0,0
38033,-100,4,2,30,90,0,0
38455,-100,4,2,33,90,0,0
38878,-100,4,2,31,90,0,0
40568,-100,4,2,50,90,0,0
42258,-100,4,2,51,90,0,0
43948,-100,4,2,52,90,0,0
45638,-100,4,2,53,90,0,0
47328,-100,4,2,50,90,0,0
49019,-100,4,2,51,90,0,0
50709,-100,4,2,52,90,0,0
52399,-100,4,2,53,90,0,0
54089,-100,4,2,50,90,0,0
55779,-100,4,2,51,90,0,0
57469,-100,4,2,52,90,0,0
59159,-100,4,2,53,90,0,0
60850,-100,4,2,50,90,0,0
62540,-100,4,2,51,90,0,0
64230,-100,4,2,52,90,0,0
65920,-100,4,2,53,90,0,0
67610,-100,4,2,53,90,0,0
81131,-100,4,2,60,90,0,0
82399,-100,4,2,61,90,0,0
82821,-100,4,2,63,90,0,0
84512,-100,4,2,61,90,0,0
84934,-100,4,2,62,90,0,0
85357,-100,4,2,61,90,0,0
85779,-100,4,2,60,90,0,0
86202,-100,4,2,61,90,0,0
87469,-100,4,2,60,90,0,0
87892,-100,4,2,61,90,0,0
89159,-100,4,2,64,90,0,0
89582,-100,4,2,63,90,0,0
90850,-100,4,2,62,90,0,0
91272,-100,4,2,61,90,0,0
92540,-100,4,2,60,90,0,0
92962,-100,4,2,61,90,0,0
93596,-100,4,2,62,90,0,0
94230,-100,4,2,60,90,0,0
94652,-100,4,2,60,90,0,0
95920,-100,4,2,61,90,0,0
96343,-100,4,2,63,90,0,0
98033,-100,4,2,61,90,0,0
98455,-100,4,2,62,90,0,0
98878,-100,4,2,61,90,0,0
99300,-100,4,2,60,90,0,0
99723,-100,4,2,61,90,0,0
100568,-100,4,2,64,90,0,0
100990,-100,4,2,60,90,0,0
104371,-100,4,2,62,90,0,0
108174,-100,4,2,1,90,0,1
135216,-100,4,2,30,90,0,0

[Colours]
Combo1 : 139,56,162
Combo2 : 255,173,0
Combo3 : 238,91,187
Combo4 : 253,95,49
SliderBorder : 255,173,255

[HitObjects]
60,372,13526,6,0,B|12:324|60:280|112:236|60:192,1,200,6|2,0:0|0:0,0:0:0:0:
36,96,14793,1,2,0:0:0:0:
116,36,15216,2,0,P|256:82|396:36,1,300,2|2,0:0|0:0,0:0:0:0:
476,96,16906,5,2,0:0:0:0:
453,191,17328,2,0,L|508:278,2,100,2|2|2,0:0|0:0|0:0,0:0:0:0:
380,260,18596,2,0,B|312:252|256:330|256:330|200:252|132:260,1,300,2|2,0:0|0:0,0:0:0:0:
59,191,20286,6,0,P|91:99|181:67,1,200,2|2,0:0|0:0,0:0:0:0:
256,136,21554,1,2,0:0:0:0:
352,164,21976,2,0,P|303:303|167:351,1,300,2|2,0:0|0:0,0:0:0:0:
140,256,23666,5,2,0:0:0:0:
112,160,24089,2,0,P|68:184|44:228,2,100,2|2|2,0:0|0:0|0:0,0:0:0:0:
208,184,25357,2,0,B|274:262|340:184|406:112|478:184,1,300,2|2,0:0|0:0,0:0:0:0:
408,256,27047,6,0,P|308:304|216:300,1,200,6|2,0:0|0:0,0:0:0:0:
136,248,28314,1,2,0:0:0:0:
76,328,28737,2,0,P|22:193|76:56,1,300,2|2,0:0|0:0,0:0:0:0:
136,136,30427,5,2,0:0:0:0:
208,208,30850,2,0,B|256:221|256:221|304:208,2,100,2|2|2,0:0|0:0|0:0,0:0:0:0:
136,136,32117,2,0,B|220:132|256:60|256:60|292:132|376:136,1,300,2|2,0:0|0:0,0:0:0:0:
435,55,33807,6,0,P|490:191|476:244,1,200,2|2,0:0|0:0,0:0:0:0:
408,308,35075,1,2,0:0:0:0:
316,348,35497,2,0,B|152:256|256:207|360:256|196:348,1,300,2|2,0:0|0:0,0:0:0:0:
104,308,37188,6,0,P|84:232|72:212,1,100,2|2,0:0|0:0,0:0:0:0:
20,128,38033,2,0,P|96:108|116:96,1,100,2|2,0:0|0:0,0:0:0:0:
188,32,38878,1,2,0:0:0:0:
435,328,40568,6,0,P|490:192|436:56,1,300,2|2,1:0|1:0,0:0:0:0:
340,88,42258,2,0,P|255:189|172:88,1,300,2|2,1:0|1:0,0:0:0:0:
76,55,43948,6,0,P|21:192|76:328,1,300,2|2,1:0|1:0,0:0:0:0:
164,280,45638,2,0,L|204:188,1,100,2|2,1:0|0:0,0:0:0:0:
304,188,46483,2,0,L|344:280,1,100,2|2,0:0|1:0,0:0:0:0:
435,328,47328,6,0,B|492:192|492:192|492:36,1,300,2|2,1:0|1:0,0:0:0:0:
396,64,49019,2,0,B|320:56|320:56|256:92|256:92|192:56|192:56|116:64,1,300,2|2,1:0|1:0,0:0:0:0:
116,164,50709,6,0,B|192:156|192:156|256:192|256:192|320:156|320:156|396:164,1,300,2|2,1:0|1:0,0:0:0:0:
364,260,52399,2,0,P|324:284|304:344,1,100,2|2,1:0|0:0,0:0:0:0:
208,331,53244,2,0,P|189:286|148:260,1,100,2|2,0:0|1:0,0:0:0:0:
76,332,54089,6,0,P|52:230|214:185,1,300,2|2,1:0|1:0,0:0:0:0:
303,203,55779,2,0,P|439:188|436:52,1,300,2|2,1:0|1:0,0:0:0:0:
364,124,57469,6,0,P|322:97|303:52,1,100,2|10,1:0|0:0,0:0:0:0:
208,52,58314,2,0,P|189:97|147:124,1,100,10|2,0:0|1:0,0:0:0:0:
68,64,59159,2,0,L|4:148,1,100,2|10,1:0|0:0,0:0:0:0:
8,244,60005,2,0,L|68:323,1,100,10|2,0:0|1:0,0:0:0:0:
147,260,60850,6,0,B|188:286|208:332|208:332|320:332,1,200,2|10,1:0|0:0,0:0:0:0:
408,364,62117,1,2,1:0:0:0:
480,292,62540,2,0,L|496:88,1,200,2|10,1:0|0:0,0:0:0:0:
432,16,63807,1,2,1:0:0:0:
336,40,64230,6,0,B|248:40|248:40|216:92,2,150,2|2|2,1:0|1:0|1:0,0:0:0:0:
400,116,65920,2,0,B|441:167|400:185|353:204|400:246,2,150,2|2|2,1:0|1:0|1:0,0:0:0:0:
304,136,67610,1,2,0:0:0:0:
164,132,81131,6,0,L|60:120,2,100,10|10|10,0:0|0:0|0:0,0:0:0:0:
248,184,82399,1,10,0:0:0:0:
308,104,82821,2,0,L|412:92,2,100,10|10|10,0:0|0:0|0:0,0:0:0:0:
224,52,84089,1,10,0:0:0:0:
164,132,84512,6,0,L|60:120,1,100,10|10,0:0|0:0,0:0:0:0:
80,220,85357,2,0,L|179:231,1,100,10|10,0:0|0:0,0:0:0:0:
256,296,86202,2,0,B|452:320|452:320|388:228,1,300,10|10,0:0|0:0,0:0:0:0:
448,152,87892,6,0,L|510:236,2,100,10|10|10,0:0|0:0|0:0,0:0:0:0:
392,68,89159,1,10,0:0:0:0:
292,52,89582,2,0,L|176:40,2,100,10|10|8,0:0|0:0|0:0,0:0:0:0:
392,68,90850,1,10,0:0:0:0:
328,148,91272,6,0,B|228:140|228:140|136:176|136:176|36:164,1,300,10|10,0:0|0:0,0:0:0:0:
4,260,92962,2,0,P|27:320|117:354,2,150,10|2|10,0:0|0:0|0:0,0:0:0:0:
35,163,94652,6,0,P|56:96|76:64,1,100,10|10,0:0|0:0,0:0:0:0:
152,128,95497,2,0,P|199:74|230:54,1,100,10|10,0:0|0:0,0:0:0:0:
284,136,96343,2,0,P|404:83|473:74,2,200,10|10|10,0:0|0:0|0:0,0:0:0:0:
276,236,98455,6,0,L|332:332,2,100,10|10|10,0:0|0:0|0:0,0:0:0:0:
180,204,99723,2,0,P|58:252|2:293,1,200,10|10,0:0|0:0,0:0:0:0:
76,360,100990,1,10,0:0:0:0:
256,192,101413,12,10,104371,0:0:0:0:
256,192,104793,12,0,106483,0:0:0:0:
460,68,108174,6,0,P|388:48|328:140,1,200,0|8,1:0|0:0,0:0:0:0:
356,236,109441,1,2,1:2:0:0:
292,312,109864,2,0,B|232:320|232:320|108:248,1,200,2|8,0:0|0:0,0:0:0:0:
28,192,111131,1,2,0:0:0:0:
28,92,111554,6,0,P|88:48|208:68,1,200,0|8,1:0|0:0,0:0:0:0:
268,148,112821,2,0,P|252:192|224:248,2,100,2|2|0,1:2|0:0|1:0,0:0:0:0:
352,92,114089,2,0,P|412:88|456:112,1,100,8|2,0:0|0:2,0:0:0:0:
488,196,114934,6,0,B|508:244|488:292|488:292|404:348,1,200,0|8,1:0|0:0,0:0:0:0:
312,304,116202,1,2,1:2:0:0:
216,332,116624,2,0,L|116:348,1,100,2|0,0:0|1:0,0:0:0:0:
144,252,117469,2,0,L|40:224,1,100,8|2,0:0|0:0,0:0:0:0:
36,128,118314,6,0,B|128:152|128:152|118:96|140:40,1,200,0|8,1:0|0:0,0:0:0:0:
236,28,119582,2,0,P|296:20|352:28,2,100,2|2|0,1:2|0:0|1:0,0:0:0:0:
208,124,120850,2,0,L|224:232,1,100,8|2,0:0|0:0,0:0:0:0:
236,324,121695,5,6,0:0:0:0:
412,248,123385,2,0,P|424:288|464:332,2,100,4|0|0,1:0|1:0|1:0,0:0:0:0:
436,152,124652,1,2,0:0:0:0:
388,64,125075,6,0,P|346:63|292:87,2,100,0|0|0,1:0|1:0|1:0,0:0:0:0:
436,152,126343,1,2,0:0:0:0:
340,176,126765,2,0,P|248:176|196:92,1,200,0|0,1:0|1:0,0:0:0:0:
124,24,128033,1,2,0:0:0:0:
56,96,128455,6,0,P|24:136|24:188,1,100,4|0,1:0|1:0,0:0:0:0:
88,256,129300,2,0,B|80:308|80:308|100:352,1,100,0|2,1:0|0:0,0:0:0:0:
196,332,130145,2,0,L|304:356,2,100,0|0|0,1:0|1:0|1:0,0:0:0:0:
184,232,131413,1,2,0:0:0:0:
172,132,131835,6,0,P|216:136|264:176,1,100,0|0,1:0|1:0,0:0:0:0:
304,260,132681,2,0,P|342:290|391:296,1,100,0|2,1:0|0:0,0:0:0:0:
472,236,133526,2,0,L|512:136,2,100,0|0|0,1:0|1:0|1:0,0:0:0:0:
384,192,134793,2,0,L|284:144,1,100,2|6,0:0|0:0,0:0:0:0:
