osu file format v14

[General]
AudioFilename: audio.mp3
AudioLeadIn: 0
PreviewTime: -1
Countdown: 0
SampleSet: None
StackLeniency: 0.7
Mode: 0
LetterboxInBreaks: 0
WidescreenStoryboard: 1

[Editor]
DistanceSpacing: 0.8
BeatDivisor: 4
GridSize: 32
TimelineZoom: 1.44

[Metadata]
Title:Keep It Mello
TitleUnicode:Keep It Mello
Artist:Marshmello & Omar Linx
ArtistUnicode:Marshmello & Omar Linx
Creator:Erbin
Version:Easy
Source:
Tags:
BeatmapID:1366022
BeatmapSetID:644229

[Difficulty]
HPDrainRate:3
CircleSize:3
OverallDifficulty:3.5
ApproachRate:3
SliderMultiplier:0.999999904632566
SliderTickRate:1

[Events]
//Background and Video events
0,0,"Keep-It-Mellow-Omar-Linx-Mareshmellow.jpg",0,0
//Break Periods
2,101604,113485
//Storyboard Layer 0 (Background)
//Storyboard Layer 1 (Fail)
//Storyboard Layer 2 (Pass)
//Storyboard Layer 3 (Foreground)
//Storyboard Sound Samples

[TimingPoints]
40559.6577736097,422.535211267606,4,3,0,100,1,0
77742,-50,4,3,0,100,0,0
79503,-100,4,3,0,100,0,0
101464,-100,4,3,0,100,0,0
114873,-100,4,3,0,100,0,0
128446,-50,4,3,0,100,0,0
131827,-100,4,3,0,100,0,0
165682,-50,4,3,0,100,0,0
169010,-100,4,3,0,100,0,0

[Colours]
Combo1 : 255,255,255
Combo2 : 255,96,255
Combo3 : 255,128,64
Combo4 : 255,255,0
Combo5 : 0,255,0
Combo6 : 0,160,238
Combo7 : 0,0,255
Combo8 : 95,0,189

[HitObjects]
64,192,40559,5,0,0:0:0:0:
192,192,41404,1,0,0:0:0:0:
320,192,42249,1,0,0:0:0:0:
480,192,43094,1,0,0:0:0:0:
480,64,43939,2,0,L|352:64,2,99.9999904632566
320,64,45630,1,0,0:0:0:0:
160,64,46475,1,0,0:0:0:0:
64,192,47320,6,0,P|96:288|192:320,1,199.999980926513
320,320,49010,1,0,0:0:0:0:
416,256,49855,1,0,0:0:0:0:
416,160,50700,2,0,P|384:64|288:32,1,199.999980926513
128,32,52390,1,0,0:0:0:0:
64,192,53235,1,0,0:0:0:0:
160,320,54080,6,0,L|384:320,1,199.999980926513
384,288,55770,2,0,L|384:64,1,199.999980926513
352,64,57461,2,0,L|128:64,1,199.999980926513
128,96,59151,2,0,L|128:320,1,199.999980926513
256,352,60841,5,0,0:0:0:0:
256,256,61686,1,0,0:0:0:0:
256,160,62531,1,0,0:0:0:0:
256,64,63376,1,0,0:0:0:0:
384,64,64221,2,0,P|448:64|512:256,1,299.99997138977
480,288,65911,1,0,0:0:0:0:
288,288,66756,1,0,0:0:0:0:
32,256,67601,5,2,0:0:0:0:
32,192,68024,1,2,0:0:0:0:
32,128,68446,1,2,0:0:0:0:
32,64,68869,54,4,B|83:49|83:49|160:64,1,99.9999904632566
128,128,69714,53,2,0:0:0:0:
128,192,70137,1,2,0:0:0:0:
128,256,70559,54,4,B|178:270|178:270|235:256,1,99.9999904632566
224,192,71404,53,2,0:0:0:0:
224,128,71827,1,2,0:0:0:0:
224,64,72249,54,4,B|272:50|272:50|323:64,1,99.9999904632566
318,128,73094,53,2,0:0:0:0:
318,206,73517,1,2,0:0:0:0:
384,256,73939,1,2,0:0:0:0:
448,320,74362,54,4,L|416:320,48,24.9999976158142
256,352,81123,5,0,0:0:0:0:
256,192,81545,1,0,0:0:0:0:
192,352,81968,1,0,0:0:0:0:
192,192,82390,1,0,0:0:0:0:
128,352,82813,2,0,L|0:352,1,99.9999904632566
0,160,84080,5,0,0:0:0:0:
32,64,84503,1,0,0:0:0:0:
128,32,84925,1,0,0:0:0:0:
96,160,85770,5,0,0:0:0:0:
128,64,86193,1,0,0:0:0:0:
224,32,86615,1,0,0:0:0:0:
352,32,87038,2,0,L|480:32,2,99.9999904632566
480,96,88728,5,0,0:0:0:0:
384,96,89151,1,0,0:0:0:0:
288,96,89573,1,0,0:0:0:0:
192,96,89996,1,0,0:0:0:0:
32,192,90841,6,0,L|160:192,2,99.9999904632566
224,192,92531,2,0,L|352:192,2,99.9999904632566
384,192,94221,1,0,0:0:0:0:
480,192,94644,1,0,0:0:0:0:
384,320,95277,6,0,L|448:320,3,49.9999952316283
480,256,96334,1,0,0:0:0:0:
480,192,96756,1,0,0:0:0:0:
384,192,97601,5,0,0:0:0:0:
384,128,98024,1,0,0:0:0:0:
384,64,98446,1,0,0:0:0:0:
288,192,99292,1,0,0:0:0:0:
288,128,99714,2,0,L|288:0,3,99.9999904632566
192,32,101404,1,0,0:0:0:0:
88,225,114925,6,0,L|56:97,1,99.9999904632566
64,128,116193,54,4,L|173:127,1,99.9999904632566
163,127,117883,54,4,L|271:126,1,99.9999904632566
262,126,119573,54,4,L|390:126,1,99.9999904632566
362,126,121263,54,4,L|480:128,1,99.9999904632566
461,127,122954,54,4,L|461:255,1,99.9999904632566
461,227,124644,54,4,L|354:228,1,99.9999904632566
361,227,126334,54,4,L|233:227,1,99.9999904632566
261,227,128024,54,4,L|137:227,1,99.9999904632566
64,224,128869,1,0,0:0:0:0:
64,96,129292,1,0,0:0:0:0:
96,96,129503,1,0,0:0:0:0:
128,96,129714,1,0,0:0:0:0:
224,96,130137,1,0,0:0:0:0:
320,96,130559,1,0,0:0:0:0:
352,96,130770,1,0,0:0:0:0:
384,96,130982,1,0,0:0:0:0:
448,192,131404,5,0,0:0:0:0:
452,321,131827,2,0,L|296:320,2,149.999985694885
480,288,133517,1,0,0:0:0:0:
480,192,134151,6,0,L|480:128,3,49.9999952316283
352,128,135207,2,0,L|160:128,2,149.999985694885
384,96,136897,1,0,0:0:0:0:
224,64,138587,5,0,0:0:0:0:
96,64,139221,1,0,0:0:0:0:
96,192,139855,2,0,L|96:320,1,99.9999904632566
160,352,140911,2,0,L|224:352,3,49.9999952316283
320,352,141968,5,0,0:0:0:0:
416,352,142390,1,0,0:0:0:0:
480,288,142813,1,0,0:0:0:0:
480,192,143235,1,0,0:0:0:0:
416,128,143658,2,0,L|352:128,4,49.9999952316283
480,64,144925,1,0,0:0:0:0:
352,64,145348,6,0,L|192:64,2,149.999985694885
416,0,147038,1,0,0:0:0:0:
480,64,147672,2,0,L|480:128,3,49.9999952316283
480,224,148728,6,0,P|480:288|384:320,2,149.999985694885
384,224,150418,1,0,0:0:0:0:
201,193,152108,6,0,B|128:192|128:192|91:114,2,149.999985694885
294,197,153799,1,0,0:0:0:0:
294,106,154432,2,0,L|294:54,3,49.9999952316283
224,32,155489,5,2,0:0:0:0:
160,32,155911,1,2,0:0:0:0:
96,32,156334,1,2,0:0:0:0:
32,32,156756,54,4,L|32:160,1,99.9999904632566
96,128,157601,53,2,0:0:0:0:
160,128,158024,1,2,0:0:0:0:
224,128,158446,54,4,L|224:256|224:256,1,99.9999904632566
160,224,159292,53,2,0:0:0:0:
96,224,159714,1,2,0:0:0:0:
32,224,160137,54,4,L|32:352,1,99.9999904632566
96,320,160982,53,2,0:0:0:0:
160,320,161404,1,2,0:0:0:0:
224,320,161827,1,2,0:0:0:0:
288,320,162249,54,4,L|320:320,48,24.9999976158142
256,192,169010,5,0,0:0:0:0:
416,192,169644,2,0,L|416:128,3,49.9999952316283
416,288,170700,2,0,L|416:352,2,49.9999952316283
256,192,171968,5,0,0:0:0:0:
192,192,172390,2,0,L|192:128,2,49.9999952316283
256,192,173658,5,0,0:0:0:0:
320,192,174080,2,0,L|320:128,2,49.9999952316283
320,288,174925,1,0,0:0:0:0:
320,352,175348,1,0,0:0:0:0:
256,352,175770,5,0,0:0:0:0:
160,352,176404,2,0,L|96:352,3,49.9999952316283
64,288,177461,1,0,0:0:0:0:
24,217,177883,1,0,0:0:0:0:
32,64,178728,5,0,0:0:0:0:
128,64,179151,2,0,L|128:129,2,49.9999952316283
192,192,180418,5,0,0:0:0:0:
288,192,180841,2,0,L|288:128,2,49.9999952316283
512,192,182108,6,0,L|511:314,1,99.9999904632566
439,350,183165,2,0,L|379:350,3,49.9999952316283
288,350,184221,1,0,0:0:0:0:
286,220,184644,1,0,0:0:0:0:
92,347,185489,5,0,0:0:0:0:
10,345,185911,2,0,L|10:293,2,49.9999952316283
14,231,187179,53,0,0:0:0:0:
12,153,187601,53,0,0:0:0:0:
90,153,188024,53,0,0:0:0:0:
90,74,188446,53,0,0:0:0:0:
167,78,188869,53,0,0:0:0:0:
167,0,189292,53,0,0:0:0:0:
