osu file format v14

[General]
AudioFilename: audio.mp3
AudioLeadIn: 0
PreviewTime: 107739
Countdown: 0
SampleSet: Soft
StackLeniency: 0.7
Mode: 0
LetterboxInBreaks: 0
WidescreenStoryboard: 0

[Editor]
Bookmarks: 146010
DistanceSpacing: 0.2
BeatDivisor: 4
GridSize: 16
TimelineZoom: 1

[Metadata]
Title:Using You
TitleUnicode:Using You
Artist:Mars Argo
ArtistUnicode:Mars Argo
Creator:Komore
Version:Deception
Source:
Tags:Corey Mixter Brittany Sheets Linden Place EP alternative rock dream pop grocerybag indie titanic sinclair trynna wajinshu ascendance
BeatmapID:1364075
BeatmapSetID:643518

[Difficulty]
HPDrainRate:5.7
CircleSize:4.3
OverallDifficulty:7.3
ApproachRate:7.8
SliderMultiplier:1.4
SliderTickRate:1

[Events]
//Background and Video events
0,0,"sakura.jpg",0,0
Video,0,"Mars Argo best girl i agree.avi"
//Break Periods
//Storyboard Layer 0 (Background)
//Storyboard Layer 1 (Fail)
//Storyboard Layer 2 (Pass)
//Storyboard Layer 3 (Foreground)
//Storyboard Sound Samples

[TimingPoints]
13674,560.747663551402,4,2,1,80,1,0
31337,-111.111111111111,4,2,1,80,0,0
49561,-111.111111111111,4,2,1,80,0,0
65262,-111.111111111111,4,2,1,60,0,0
67505,-100,4,2,1,90,0,0
85730,-111.111111111111,4,2,1,80,0,0
103393,-111.111111111111,4,2,1,60,0,0
103954,-111.111111111111,4,2,1,30,0,0
104094,-111.111111111111,4,2,1,60,0,0
105636,-111.111111111111,4,2,1,90,0,0
107879,-100,4,2,1,90,0,0
125823,-100,4,2,1,80,0,0
146010,-133.333333333333,4,2,1,45,0,0
161711,-133.333333333333,4,2,1,80,0,0
163954,-100,4,2,1,90,0,0
209094,-100,4,2,1,80,0,0
209935,-100,4,2,1,50,0,0

[Colours]
Combo1 : 252,182,184
Combo2 : 170,213,255
Combo3 : 252,207,239
Combo4 : 223,189,176

[HitObjects]
51,325,31617,6,0,P|114:309|182:301,1,125.999996154785,4|2,0:2|0:0,0:0:0:0:
254,334,32459,1,8,0:3:0:0:
318,265,32739,2,0,P|314:225|302:183,1,62.9999980773926,8|0,0:1|0:0,0:0:0:0:
357,124,33300,2,0,P|342:83|317:49,1,62.9999980773926,2|8,0:0|0:3,0:0:0:0:
234,156,33860,6,0,P|202:152|155:137,1,62.9999980773926,4|2,0:3|0:1,0:0:0:0:
106,85,34421,1,2,0:0:0:0:
45,242,34702,2,0,P|102:230|173:229,1,125.999996154785,8|2,0:3|0:0,0:0:0:0:
240,280,35543,1,2,0:0:0:0:
298,197,35823,2,0,P|293:165|286:135,1,62.9999980773926,2|4,0:0|0:3,0:0:0:0:
210,185,36384,5,2,0:1:0:0:
328,225,36664,2,0,P|361:217|393:213,1,62.9999980773926,2|8,0:0|0:3,0:0:0:0:
377,64,37225,2,0,P|370:91|365:125,1,62.9999980773926,8|2,0:1|0:0,0:0:0:0:
486,205,37786,1,2,0:0:0:0:
464,101,38066,1,8,0:3:0:0:
352,209,38346,6,0,P|320:206|280:195,1,62.9999980773926,4|2,0:3|0:1,0:0:0:0:
177,323,38907,1,2,0:0:0:0:
304,288,39188,1,8,0:3:0:0:
193,236,39468,1,8,0:1:0:0:
322,302,39748,1,2,0:1:0:0:
157,348,40029,1,2,0:0:0:0:
290,198,40309,1,2,0:0:0:0:
290,198,40589,6,0,B|279:157|299:125|299:125|271:73,1,125.999996154785,4|2,0:3|0:0,0:0:0:0:
413,132,41431,1,8,0:3:0:0:
373,6,41711,2,0,P|362:36|356:67,1,62.9999980773926,8|0,0:1|0:0,0:0:0:0:
436,162,42272,2,0,P|468:157|499:153,1,62.9999980773926,2|8,0:0|0:3,0:0:0:0:
302,239,42832,6,0,B|254:229|254:229|226:240|226:240|180:231,1,125.999996154785,4|2,0:3|0:0,0:0:0:0:
66,279,43674,1,8,0:3:0:0:
149,90,43954,2,0,P|158:119|162:164,1,62.9999980773926,8|0,0:1|0:0,0:0:0:0:
66,279,44515,1,2,0:0:0:0:
77,143,44795,1,0,0:0:0:0:
149,334,45075,6,0,P|115:367|17:366,1,125.999996154785,4|2,0:3|0:0,0:0:0:0:
66,279,45916,1,8,0:3:0:0:
181,356,46197,2,0,P|213:348|252:344,1,62.9999980773926,8|2,0:1|0:1,0:0:0:0:
369,384,46758,2,0,P|374:353|380:321,1,62.9999980773926,0|8,0:0|0:3,0:0:0:0:
425,193,47318,6,0,B|366:177|359:224|302:206,1,125.999996154785,4|2,0:3|0:0,0:0:0:0:
168,130,48159,1,8,0:3:0:0:
251,55,48440,2,0,P|258:86|261:118,1,62.9999980773926,8|8,0:1|0:3,0:0:0:0:
164,101,49001,1,0,0:0:0:0:
349,65,49281,1,0,0:0:0:0:
147,269,49561,5,4,0:2:0:0:
203,185,49842,2,0,L|194:118,1,62.9999980773926,2|8,0:1|0:1,0:0:0:0:
115,184,50402,1,8,0:1:0:0:
286,152,50683,2,0,P|321:145|361:140,1,62.9999980773926,2|8,0:0|0:3,0:0:0:0:
134,81,51244,2,0,P|102:75|71:73,1,62.9999980773926,8|8,0:1|0:3,0:0:0:0:
251,17,51804,6,0,P|246:48|241:80,1,62.9999980773926,8|2,0:3|0:1,0:0:0:0:
219,199,52365,1,8,0:1:0:0:
392,168,52645,2,0,P|357:139|280:146,1,125.999996154785,8|8,0:1|0:3,0:0:0:0:
200,213,53487,1,8,0:1:0:0:
119,129,53767,1,2,0:1:0:0:
119,129,53907,1,2,0:1:0:0:
119,129,54047,6,0,P|127:64|133:37,1,62.9999980773926,4|0,0:3|0:0,0:0:0:0:
214,16,54608,1,8,0:1:0:0:
31,87,54888,1,8,0:1:0:0:
199,163,55169,2,0,P|231:157|272:151,1,62.9999980773926,2|8,0:2|0:3,0:0:0:0:
141,94,55730,1,8,0:1:0:0:
63,217,56010,1,8,0:3:0:0:
63,217,56290,6,0,P|31:208|-8:203,1,62.9999980773926,8|0,0:3|0:0,0:0:0:0:
188,334,56851,1,8,0:1:0:0:
51,298,57131,1,8,0:1:0:0:
169,184,57412,2,0,L|161:246,1,62.9999980773926,2|8,0:2|0:3,0:0:0:0:
86,140,57973,1,8,0:1:0:0:
275,191,58253,1,8,0:3:0:0:
275,191,58393,1,8,0:3:0:0:
275,191,58533,6,0,P|267:126|264:103,1,62.9999980773926,4|0,0:3|0:0,0:0:0:0:
367,14,59094,1,8,0:1:0:0:
341,137,59374,1,8,0:1:0:0:
472,104,59655,2,0,P|444:88|411:87,1,62.9999980773926,2|8,0:2|0:3,0:0:0:0:
320,217,60216,2,0,P|361:218|396:199,1,62.9999980773926,8|8,0:1|0:3,0:0:0:0:
471,357,60776,6,0,P|424:316|352:331,1,125.999996154785,8|8,0:3|0:1,0:0:0:0:
269,173,61617,1,8,0:1:0:0:
221,281,61898,2,0,P|253:274|292:266,1,62.9999980773926,2|8,0:0|0:3,0:0:0:0:
364,322,62459,1,8,0:1:0:0:
240,368,62739,1,0,0:0:0:0:
240,368,62879,1,0,0:0:0:0:
240,368,63019,6,0,P|204:361|159:364,1,62.9999980773926,4|0,0:3|0:0,0:0:0:0:
81,384,63580,1,8,0:1:0:0:
211,281,63860,1,8,0:1:0:0:
110,227,64141,2,0,P|115:258|120:291,1,62.9999980773926,2|8,0:0|0:3,0:0:0:0:
0,209,64702,1,8,0:1:0:0:
105,79,64982,1,8,0:3:0:0:
105,79,65262,6,0,P|165:92|214:48,1,125.999996154785,10|2,0:3|0:1,0:0:0:0:
282,180,66384,1,2,0:0:0:0:
282,180,66664,2,0,P|276:211|267:255,1,62.9999980773926,8|8,0:3|0:3,0:0:0:0:
348,369,67505,6,0,P|363:287|379:209,1,140,4|8,0:1|0:1,0:0:0:0:
242,122,68346,1,8,0:3:0:0:
223,228,68627,2,0,P|259:216|307:206,1,70,8|2,0:3|0:1,0:0:0:0:
396,248,69188,1,8,0:1:0:0:
244,345,69468,1,8,0:3:0:0:
244,345,69748,6,0,P|186:307|97:327,1,140,8|8,0:3|0:1,0:0:0:0:
100,327,70589,2,0,P|96:287|89:240,1,70,2|8,0:0|0:3,0:0:0:0:
10,369,71150,1,8,0:1:0:0:
209,291,71431,1,8,0:1:0:0:
21,179,71711,1,8,0:1:0:0:
152,359,71991,6,0,B|194:336|194:336|232:364|280:361,1,140,4|8,0:1|0:1,0:0:0:0:
363,275,72832,1,8,0:3:0:0:
252,179,73113,2,0,L|264:256,1,70,8|2,0:3|0:1,0:0:0:0:
280,360,73674,1,8,0:1:0:0:
440,305,73954,6,0,P|475:294|529:291,1,70,8|8,0:3|0:3,0:0:0:0:
346,383,74515,2,0,P|310:380|274:378,1,70,0|8,0:0|0:1,0:0:0:0:
172,235,75075,1,8,0:3:0:0:
172,235,75216,1,8,0:1:0:0:
172,235,75356,1,8,0:1:0:0:
292,295,75636,1,4,0:2:0:0:
152,383,75916,2,8,L|144:335,2,35,8|8|8,0:3|0:3|0:3,0:0:0:0:
340,239,76477,5,4,0:1:0:0:
340,239,77038,1,8,0:1:0:0:
414,141,77318,1,8,0:3:0:0:
259,226,77599,2,0,P|224:220|189:216,1,70,8|0,0:3|0:3,0:0:0:0:
406,171,78159,1,8,0:1:0:0:
339,346,78440,1,8,0:3:0:0:
339,346,78720,6,0,B|273:327|267:376|201:357,1,140,8|8,0:3|0:1,0:0:0:0:
63,253,79561,1,0,0:0:0:0:
153,303,79842,1,8,0:3:0:0:
56,352,80122,1,8,0:1:0:0:
136,229,80402,2,0,P|129:193|119:149,1,70,8|8,0:1|0:3,0:0:0:0:
0,74,80963,6,0,B|85:83|85:83|109:71|117:34,1,140,4|8,0:1|0:1,0:0:0:0:
238,133,81804,1,8,0:1:0:0:
153,209,82085,2,0,L|140:122,1,70,8|2,0:3|0:1,0:0:0:0:
244,172,82645,1,8,0:1:0:0:
55,204,82926,1,8,0:3:0:0:
244,172,83206,6,0,P|348:158|403:154,1,140,8|8,0:3|0:1,0:0:0:0:
511,58,84047,1,8,0:3:0:0:
508,64,84188,1,8,0:1:0:0:
505,70,84328,2,0,P|468:65|428:58,1,70,8|2,0:1|0:1,0:0:0:0:
306,0,84888,1,8,0:3:0:0:
326,87,85169,1,8,0:3:0:0:
241,179,85449,1,4,0:1:0:0:
331,271,85730,6,0,P|338:238|345:204,2,62.9999980773926,0|2|8,0:0|0:0|0:3,0:0:0:0:
398,337,86571,2,0,P|452:327|475:326,1,62.9999980773926,2|8,0:0|0:3,0:0:0:0:
301,375,87131,2,0,P|247:365|224:364,1,62.9999980773926,8|0,0:1|0:0,0:0:0:0:
161,261,87692,6,0,P|164:228|172:190,1,62.9999980773926,8|0,0:3|0:0,0:0:0:0:
252,125,88253,1,8,0:1:0:0:
135,59,88533,2,0,P|142:93|150:132,1,62.9999980773926,8|2,0:1|0:1,0:0:0:0:
32,191,89094,2,0,P|35:160|54:120,1,62.9999980773926,8|8,0:3|0:1,0:0:0:0:
124,230,89655,6,0,P|156:226|187:222,1,62.9999980773926,0|4,0:0|0:3,0:0:0:0:
149,144,90216,1,2,0:1:0:0:
50,235,90496,2,0,P|41:268|38:299,1,62.9999980773926,8|8,0:1|0:1,0:0:0:0:
131,189,91057,2,0,P|127:157|119:127,1,62.9999980773926,2|8,0:1|0:3,0:0:0:0:
41,185,91617,1,8,0:1:0:0:
100,260,91898,1,2,0:1:0:0:
119,127,92178,5,8,0:3:0:0:
41,185,92458,1,2,0:1:0:0:
181,216,92739,2,0,P|215:207|266:199,2,62.9999980773926,8|8|2,0:1|0:1|0:1,0:0:0:0:
100,283,93580,2,0,P|94:249|85:202,1,62.9999980773926,8|8,0:3|0:3,0:0:0:0:
46,345,94141,1,0,0:0:0:0:
46,345,94421,6,0,P|108:316|180:330,1,125.999996154785,4|8,0:3|0:1,0:0:0:0:
245,355,95262,1,8,0:1:0:0:
304,278,95543,2,0,P|299:244|292:215,1,62.9999980773926,2|0,0:1|0:0,0:0:0:0:
390,310,96103,2,0,P|385:344|378:373,1,62.9999980773926,8|8,0:1|0:3,0:0:0:0:
378,218,96664,6,0,B|434:235|441:188|500:204,1,125.999996154785,8|8,0:3|0:1,0:0:0:0:
376,124,97505,1,8,0:1:0:0:
302,178,97786,2,0,P|270:172|225:166,1,62.9999980773926
450,139,98346,2,0,P|477:143|518:151,1,62.9999980773926,8|0,0:1|0:0,0:0:0:0:
492,68,98767,1,0,0:0:0:0:
492,68,98907,6,0,P|444:106|362:78,1,125.999996154785,4|8,0:3|0:1,0:0:0:0:
253,113,99748,1,8,0:1:0:0:
302,2,100029,2,0,P|310:35|314:69,1,62.9999980773926,2|0,0:1|0:0,0:0:0:0:
213,167,100589,1,8,0:1:0:0:
231,50,100870,1,8,0:3:0:0:
263,238,101150,6,0,P|204:254|149:227,1,125.999996154785,8|0,0:3|0:0,0:0:0:0:
18,332,101991,1,8,0:1:0:0:
127,304,102272,1,2,0:1:0:0:
47,230,102552,1,8,0:3:0:0:
104,379,102832,2,0,P|137:374|166:369,1,62.9999980773926,8|2,0:3|0:1,0:0:0:0:
323,258,103393,6,0,B|169:223|169:223|206:244|213:280,1,230.99999295044,4|0,0:0|0:0,0:0:0:0:
429,126,105636,6,0,P|425:96|418:55,1,62.9999980773926,8|2,0:1|0:1,0:0:0:0:
331,165,106197,1,8,0:1:0:0:
493,209,106477,1,8,0:3:0:0:
404,243,106758,1,8,0:3:0:0:
419,63,107038,5,8,0:1:0:0:
321,306,107318,1,8,0:1:0:0:
493,209,107599,1,8,0:1:0:0:
270,149,107879,6,0,P|205:157|114:178,1,140,4|8,0:1|0:1,0:0:0:0:
30,49,108720,1,0,0:0:0:0:
129,88,109001,2,0,P|165:82|206:73,1,70,8|2,0:3|0:1,0:0:0:0:
270,149,109561,1,8,0:1:0:0:
40,247,109842,1,8,0:3:0:0:
40,247,110122,6,0,B|22:160|22:160|56:105,1,140,8|8,0:3|0:1,0:0:0:0:
162,232,110963,2,0,L|152:314,1,70,0|8,0:0|0:3,0:0:0:0:
112,151,111524,1,8,0:1:0:0:
260,268,111804,1,8,0:1:0:0:
63,334,112085,1,8,0:1:0:0:
206,185,112365,6,0,P|287:171|341:211,1,140,4|8,0:1|0:1,0:0:0:0:
436,131,113206,1,0,0:0:0:0:
376,21,113487,2,0,P|366:56|359:89,1,70,8|2,0:3|0:1,0:0:0:0:
444,160,114047,1,8,0:1:0:0:
348,243,114328,6,0,P|345:208|340:163,1,70,8|8,0:3|0:3,0:0:0:0:
207,299,114888,2,0,P|196:341|193:370,1,70,0|8,0:0|0:1,0:0:0:0:
267,227,115449,1,8,0:3:0:0:
267,227,115589,1,8,0:1:0:0:
267,227,115730,1,8,0:1:0:0:
86,281,116010,1,4,0:0:0:0:
194,367,116290,2,8,L|246:360,2,35,8|8|8,0:3|0:3|0:3,0:0:0:0:
163,145,116851,5,4,0:1:0:0:
163,145,117412,1,8,1:0:0:0:
88,12,117692,1,8,0:3:0:0:
0,143,117973,2,0,P|37:134|85:126,1,70,8|0,0:3|0:0,0:0:0:0:
223,200,118533,1,8,0:1:0:0:
66,337,118814,1,8,0:3:0:0:
66,337,119094,6,0,B|69:308|92:287|92:287|68:190,1,140,4|8,0:3|0:1,0:0:0:0:
171,141,119935,1,8,0:3:0:0:
94,0,120216,2,0,P|82:32|77:73,1,70,8|8,0:3|0:1,0:0:0:0:
232,195,120776,1,8,0:1:0:0:
197,57,121057,1,8,0:1:0:0:
166,263,121337,6,0,P|213:288|300:259,1,140,4|8,0:1|0:1,0:0:0:0:
357,191,122178,1,2,0:1:0:0:
436,290,122459,2,0,P|445:317|447:376,1,70,8|8,0:3|0:1,0:0:0:0:
357,191,123019,1,8,0:1:0:0:
512,247,123300,1,8,0:1:0:0:
342,353,123580,6,0,B|256:364|256:364|229:348|227:319,1,140,4|8,0:1|0:1,0:0:0:0:
133,211,124421,1,2,0:1:0:0:
262,251,124702,1,8,0:3:0:0:
149,333,124982,1,0,0:0:0:0:
211,171,125262,2,0,P|204:137|197:103,1,70,8|8,0:1|0:3,0:0:0:0:
358,273,125823,6,0,B|414:259|414:259|443:271|443:271|507:259,1,140,4|8,0:1|0:1,0:0:0:0:
315,177,126664,2,0,P|273:171|218:167,1,70,8|8,0:1|0:3,0:0:0:0:
421,94,127225,2,0,P|412:130|405:184,1,70,8|8,0:3|0:1,0:0:0:0:
413,347,127786,1,0,0:0:0:0:
490,173,128066,5,4,0:1:0:0:
307,280,128346,1,8,0:3:0:0:
501,352,128627,1,8,0:1:0:0:
290,273,128907,1,8,0:3:0:0:
512,232,129188,1,8,0:1:0:0:
413,347,129468,1,8,0:3:0:0:
334,133,129748,1,8,0:1:0:0:
432,245,130028,1,8,0:3:0:0:
246,357,130309,1,4,0:1:0:0:
432,112,130589,5,8,3:0:0:0:
341,294,130870,1,8,0:1:0:0:
501,204,131150,1,8,3:0:0:0:
279,124,131431,1,8,0:1:0:0:
512,211,131711,1,8,3:0:0:0:
265,114,131991,1,8,0:1:0:0:
399,275,132272,1,8,3:0:0:0:
501,107,132552,2,0,P|496:71|485:37,1,70,4|8,0:1|0:3,0:0:0:0:
348,126,133113,5,8,0:1:0:0:
415,315,133393,1,8,0:3:0:0:
335,117,133674,1,8,0:1:0:0:
484,240,133954,1,8,0:3:0:0:
248,216,134234,1,8,0:1:0:0:
458,124,134515,1,8,0:3:0:0:
458,124,134795,2,0,P|470:92|475:38,1,70,4|8,0:1|0:3,0:0:0:0:
342,204,135356,5,8,0:1:0:0:
512,267,135636,1,8,3:0:0:0:
326,194,135916,1,8,0:1:0:0:
466,85,136197,1,8,3:0:0:0:
255,156,136477,1,8,0:1:0:0:
430,298,136758,1,8,3:0:0:0:
152,378,137038,5,4,0:1:0:0:
330,230,137318,1,8,0:3:0:0:
84,305,137599,1,8,0:1:0:0:
301,361,137879,1,8,0:3:0:0:
150,159,138159,1,8,0:1:0:0:
330,230,138440,1,8,0:3:0:0:
152,378,138720,1,8,0:1:0:0:
239,179,139001,1,8,0:3:0:0:
239,179,139141,1,2,0:1:0:0:
239,179,139281,6,0,P|233:107|221:15,1,140,4|8,0:1|0:1,0:0:0:0:
352,177,140122,1,8,0:3:0:0:
349,208,140262,1,8,0:1:0:0:
346,239,140402,1,8,0:1:0:0:
442,117,140683,1,8,0:3:0:0:
239,179,140963,1,8,0:1:0:0:
372,259,141244,1,8,0:3:0:0:
345,90,141524,5,4,0:1:0:0:
282,267,141804,1,8,0:3:0:0:
455,179,142085,1,8,0:1:0:0:
245,102,142365,1,8,0:3:0:0:
245,102,142505,1,8,0:1:0:0:
245,102,142645,1,8,0:1:0:0:
386,229,142926,1,8,0:3:0:0:
215,347,143206,2,0,P|210:307|202:267,1,70,8|8,0:1|0:3,0:0:0:0:
118,117,143767,5,8,0:1:0:0:
128,163,143907,1,8,0:1:0:0:
252,42,144188,1,8,0:3:0:0:
252,42,144328,5,8,0:1:0:0:
242,88,144468,1,8,0:1:0:0:
134,29,144748,5,8,0:1:0:0:
335,107,145029,1,8,0:1:0:0:
176,219,145309,1,8,0:1:0:0:
176,219,145449,1,8,0:1:0:0:
356,311,145730,5,8,0:3:0:0:
356,311,145870,1,8,0:3:0:0:
356,311,146010,2,0,P|359:270|361:247,1,52.5000020027161,4|0,0:0|0:0,0:0:0:0:
412,193,146571,2,0,P|408:164|401:136,1,52.5000020027161,2|0,0:0|0:0,0:0:0:0:
323,99,147131,1,2,0:0:0:0:
409,124,147412,1,2,0:0:0:0:
328,180,147692,1,2,0:0:0:0:
245,155,147973,1,2,0:0:0:0:
171,230,148253,6,0,P|165:254|158:285,1,52.5000020027161,2|0,0:0|0:0,0:0:0:0:
89,226,148814,1,2,0:0:0:0:
242,272,149094,2,0,P|293:261|345:255,1,105.000004005432,2|0,0:0|0:0,0:0:0:0:
422,288,149935,1,2,0:0:0:0:
482,208,150216,1,2,0:1:0:0:
482,208,150356,1,2,0:1:0:0:
482,208,150496,6,0,P|478:173|474:146,1,52.5000020027161,2|0,0:1|0:0,0:0:0:0:
424,88,151057,1,2,0:0:0:0:
460,9,151337,1,2,0:0:0:0:
348,70,151617,2,0,P|323:64|296:60,1,52.5000020027161,2|0,0:0|0:0,0:0:0:0:
227,110,152178,2,0,P|215:143|215:170,1,52.5000020027161,2|0,0:0|0:0,0:0:0:0:
265,241,152739,5,2,0:0:0:0:
178,267,153019,1,2,0:0:0:0:
289,363,153300,1,2,0:0:0:0:
199,350,153580,1,2,0:0:0:0:
325,288,153860,1,2,0:0:0:0:
415,301,154140,1,2,0:0:0:0:
301,209,154421,1,2,0:0:0:0:
185,252,154702,1,2,0:1:0:0:
185,252,154842,1,2,0:1:0:0:
185,252,154982,6,0,P|159:247|131:243,1,52.5000020027161,2|0,0:1|0:0,0:0:0:0:
43,178,155543,2,0,P|71:171|106:168,1,52.5000020027161,2|0,0:0|0:0,0:0:0:0:
39,273,156103,2,0,P|32:306|45:341,1,52.5000020027161,2|0,0:0|0:0,0:0:0:0:
101,383,156664,1,2,0:0:0:0:
352,235,157225,6,0,P|347:205|339:178,1,52.5000020027161,2|0,0:0|0:0,0:0:0:0:
318,307,157786,2,0,P|362:280|425:301,2,105.000004005432,2|0|0,0:0|0:0|0:0,0:0:0:0:
270,379,159188,1,2,0:1:0:0:
270,379,159328,1,2,0:1:0:0:
270,379,159468,5,2,0:1:0:0:
202,169,160029,2,0,P|196:203|179:234,1,52.5000020027161,2|0,0:0|0:0,0:0:0:0:
76,286,160589,2,0,P|106:272|142:266,1,52.5000020027161,2|0,0:0|0:0,0:0:0:0:
243,327,161150,2,0,P|215:314|196:297,1,52.5000020027161,2|0,0:0|0:0,0:0:0:0:
395,344,161711,5,8,0:1:0:0:
455,136,161991,1,8,0:3:0:0:
350,223,162272,1,8,0:1:0:0:
435,261,162552,1,8,0:3:0:0:
356,89,162832,1,8,0:3:0:0:
268,260,163113,5,8,0:1:0:0:
510,162,163393,1,8,0:1:0:0:
298,8,163674,1,8,0:1:0:0:
239,185,163954,6,0,P|250:248|265:326,1,140,4|8,0:1|0:1,0:0:0:0:
334,242,164795,1,0,0:0:0:0:
176,296,165075,2,0,P|139:284|81:280,1,70,8|2,0:3|0:1,0:0:0:0:
21,314,165636,1,8,0:1:0:0:
268,372,165916,1,8,0:3:0:0:
268,372,166197,6,0,B|334:353|340:402|406:383,1,140,8|8,0:3|0:1,0:0:0:0:
382,211,167038,2,0,P|374:246|368:283,1,70,0|8,0:0|0:3,0:0:0:0:
463,259,167599,1,8,0:1:0:0:
281,186,167879,1,8,0:1:0:0:
322,373,168159,1,8,0:3:0:0:
128,297,168440,6,0,B|198:285|267:276,1,140,4|8,0:1|0:1,0:0:0:0:
362,303,169281,1,0,0:0:0:0:
481,212,169561,2,0,P|446:207|408:198,1,70,8|2,0:3|0:1,0:0:0:0:
324,128,170122,1,8,0:1:0:0:
205,283,170402,6,0,P|210:316|217:361,1,70,8|8,0:3|0:3,0:0:0:0:
20,258,170963,2,0,P|57:258|98:242,1,70,0|8,0:0|0:1,0:0:0:0:
181,183,171524,1,0,0:0:0:0:
102,334,171804,1,8,0:3:0:0:
263,258,172085,1,8,0:1:0:0:
37,155,172365,1,8,0:1:0:0:
30,157,172505,1,8,0:3:0:0:
23,159,172645,1,8,0:3:0:0:
158,257,172926,5,4,0:1:0:0:
158,257,173487,1,8,0:1:0:0:
219,150,173767,1,0,0:0:0:0:
69,235,174047,1,8,0:3:0:0:
267,274,174328,1,2,0:1:0:0:
122,150,174608,1,8,0:1:0:0:
206,362,174888,1,8,0:3:0:0:
210,367,175169,6,0,B|301:343|301:343|326:359|331:388,1,140,8|8,0:3|0:1,0:0:0:0:
437,195,176010,1,0,0:0:0:0:
346,265,176290,1,8,0:3:0:0:
488,311,176571,1,0,0:0:0:0:
329,246,176851,1,8,0:1:0:0:
460,174,177131,1,8,0:3:0:0:
330,364,177412,6,0,B|274:350|274:350|245:362|245:362|181:350,1,140,4|8,0:1|0:1,0:0:0:0:
328,216,178253,1,0,0:0:0:0:
235,251,178533,2,0,P|199:247|147:230,1,70,8|0,0:3|0:0,0:0:0:0:
362,335,179094,2,0,P|399:323|441:321,1,70,8|0,0:3|0:0,0:0:0:0:
212,368,179655,6,0,P|231:235|234:218,1,140,8|8,0:3|0:1,0:0:0:0:
112,83,180496,1,8,0:3:0:0:
112,83,180636,1,8,0:1:0:0:
112,83,180776,1,8,0:1:0:0:
254,148,181057,1,8,0:1:0:0:
85,204,181337,1,8,0:1:0:0:
165,137,181617,1,8,0:1:0:0:
348,268,181898,6,0,P|407:282|480:234,1,140,4|8,0:1|0:1,0:0:0:0:
399,187,182739,1,0,0:0:0:0:
321,285,183019,2,0,P|281:278|241:280,1,70,8|2,0:3|0:1,0:0:0:0:
161,335,183580,1,8,0:1:0:0:
39,179,183860,1,0,0:0:0:0:
39,179,184141,6,0,B|134:153|134:153|184:182,1,140,8|8,0:3|0:1,0:0:0:0:
123,309,184982,2,0,P|117:273|105:222,1,70,0|8,0:0|0:3,0:0:0:0:
225,273,185543,1,8,0:1:0:0:
40,341,185823,1,8,0:1:0:0:
275,384,186103,1,8,0:1:0:0:
275,384,186384,6,0,B|341:403|347:354|413:373,1,140,4|8,0:1|0:1,0:0:0:0:
489,298,187225,1,0,0:0:0:0:
379,186,187505,2,0,P|368:221|366:254,1,70,8|2,0:3|0:1,0:0:0:0:
466,189,188066,1,8,0:1:0:0:
318,98,188346,6,0,P|283:93|239:86,1,70,8|8,0:3|0:3,0:0:0:0:
397,201,188907,2,0,P|431:191|475:189,1,70,0|8,0:0|0:1,0:0:0:0:
314,278,189468,1,8,0:3:0:0:
314,278,189608,1,8,0:1:0:0:
314,278,189748,1,8,0:1:0:0:
403,115,190029,1,4,0:0:0:0:
256,188,190309,2,8,L|215:183,2,35,8|8|8,0:3|0:3|0:3,0:0:0:0:
297,49,190870,5,4,0:1:0:0:
297,49,191431,2,0,P|262:44|227:39,1,70,8|0,0:1|0:0,0:0:0:0:
91,162,191991,1,8,0:3:0:0:
229,124,192272,1,0,0:0:0:0:
104,20,192552,1,8,0:1:0:0:
203,241,192832,1,8,0:3:0:0:
203,241,193113,6,0,B|239:220|273:236|273:236|299:206|353:209,1,140,8|8,0:1|0:1,0:0:0:0:
457,110,193954,1,8,0:3:0:0:
450,113,194094,1,2,0:1:0:0:
443,115,194234,2,0,P|449:154|458:212,1,70,8|2,0:1|0:1,0:0:0:0:
324,62,194795,2,0,L|332:9,2,35,8|0|0,0:1|0:0|0:0,0:0:0:0:
173,164,195356,6,0,B|89:141|89:141|69:160|33:162,1,140,4|8,0:1|0:1,0:0:0:0:
171,41,196197,1,0,0:0:0:0:
250,92,196477,2,0,P|288:90|330:75,1,70,8|0,0:3|0:0,0:0:0:0:
160,200,197038,2,0,P|154:166|148:130,1,70,8|8,0:1|0:3,0:0:0:0:
190,333,197599,6,0,P|140:302|54:316,1,140,8|8,0:3|0:1,0:0:0:0:
214,232,198440,1,0,0:0:0:0:
214,232,198580,1,8,0:1:0:0:
214,232,198720,1,8,0:1:0:0:
79,169,199001,1,4,0:0:0:0:
180,78,199281,2,8,L|167:160,1,70,8|8,0:3|0:3,0:0:0:0:
323,255,199842,6,0,P|316:184|308:106,1,140,4|8,0:1|0:1,0:0:0:0:
396,186,200683,1,0,0:0:0:0:
240,248,200963,2,0,P|202:240|141:228,1,70,8|2,0:3|0:1,0:0:0:0:
367,311,201524,2,0,P|402:304|466:291,1,70,8|8,0:1|0:3,0:0:0:0:
259,363,202085,6,0,B|193:344|187:393|121:374,1,140,8|8,0:3|0:1,0:0:0:0:
17,266,202926,1,0,0:0:0:0:
17,266,203066,1,0,0:0:0:0:
17,266,203206,1,8,0:1:0:0:
158,209,203487,1,4,0:0:0:0:
52,118,203767,2,8,L|61:177,2,35,8|8|8,0:3|0:3|0:3,0:0:0:0:
6,59,204188,1,2,0:1:0:0:
6,59,204328,6,0,P|77:67|130:2,1,140,4|8,0:1|0:1,0:0:0:0:
270,98,205169,1,0,0:0:0:0:
191,146,205449,2,0,P|187:113|182:66,1,70,8|0,0:3|0:0,0:0:0:0:
270,98,206010,1,8,0:1:0:0:
104,117,206290,1,8,0:3:0:0:
270,98,206571,6,0,P|309:101|355:120,1,70,8|0,0:3|0:0,0:0:0:0:
478,12,207131,1,8,0:1:0:0:
357,40,207412,1,8,0:1:0:0:
451,165,207692,2,0,P|456:127|466:85,1,70,8|8,0:3|0:3,0:0:0:0:
358,167,208253,1,8,0:3:0:0:
395,274,208533,1,8,0:3:0:0:
204,352,208814,5,4,0:1:0:0:
256,192,208954,12,0,211057,0:0:0:0:
