osu file format v14

[General]
AudioFilename: audio.mp3
AudioLeadIn: 0
PreviewTime: 107739
Countdown: 0
SampleSet: Soft
StackLeniency: 0.7
Mode: 0
LetterboxInBreaks: 0
WidescreenStoryboard: 0

[Editor]
Bookmarks: 85449,208814
DistanceSpacing: 1.4
BeatDivisor: 4
GridSize: 16
TimelineZoom: 1

[Metadata]
Title:Using You
TitleUnicode:Using You
Artist:Mars Argo
ArtistUnicode:Mars Argo
Creator:Komore
Version:Collab Average
Source:
Tags:Corey Mixter Brittany Sheets Linden Place EP alternative rock dream pop grocerybag indie titanic sinclair trynna wajinshu ascendance
BeatmapID:1373695
BeatmapSetID:643518

[Difficulty]
HPDrainRate:3.3
CircleSize:3.5
OverallDifficulty:3.4
ApproachRate:4.3
SliderMultiplier:1.25
SliderTickRate:1

[Events]
//Background and Video events
0,0,"sakura.jpg",0,0
Video,0,"Mars Argo best girl i agree.avi"
//Break Periods
2,146210,160428
//Storyboard Layer 0 (Background)
//Storyboard Layer 1 (Fail)
//Storyboard Layer 2 (Pass)
//Storyboard Layer 3 (Foreground)
//Storyboard Sound Samples

[TimingPoints]
13674,560.747663551402,4,2,1,80,1,0
31337,-111.111111111111,4,2,1,80,0,0
67505,-100,4,2,1,90,0,0
85449,-111.111111111111,4,2,1,90,0,0
85730,-111.111111111111,4,2,1,80,0,0
105636,-100,4,2,1,90,0,0
125823,-100,4,2,1,80,0,0
146010,-133.333333333333,4,2,1,55,0,0
161711,-100,4,2,1,80,0,0
163954,-100,4,2,1,90,0,0
209094,-100,4,2,1,80,0,0

[Colours]
Combo1 : 252,182,184
Combo2 : 170,213,255
Combo3 : 252,207,239
Combo4 : 223,189,176

[HitObjects]
25,137,31617,6,0,P|100:115|147:109,1,112.499996566773,4|2,0:2|0:0,0:0:0:0:
212,121,32459,1,8,0:3:0:0:
287,143,32739,2,0,P|330:156|401:162,1,112.499996566773,8|2,0:1|0:0,0:0:0:0:
471,135,33580,1,8,0:3:0:0:
456,212,33860,2,0,P|449:244|437:327,1,112.499996566773,4|2,0:3|0:0,0:0:0:0:
363,350,34702,2,0,P|355:294|344:239,1,112.499996566773,8|2,0:3|0:0,0:0:0:0:
307,169,35543,1,2,0:0:0:0:
187,67,36103,5,4,0:3:0:0:
53,153,36664,2,0,P|64:188|70:211,1,56.2499982833863,2|8,0:0|0:3,0:0:0:0:
64,285,37225,1,8,0:1:0:0:
209,344,37786,2,0,P|220:309|226:286,1,56.2499982833863,2|8,0:0|0:3,0:0:0:0:
223,211,38346,2,0,P|323:201|354:196,1,112.499996566773,4|2,0:3|0:0,0:0:0:0:
435,77,39468,1,8,0:1:0:0:
285,26,40029,2,0,P|294:68|299:101,1,56.2499982833863,2|2,0:0|0:0,0:0:0:0:
237,133,40589,5,4,0:3:0:0:
106,220,41150,2,0,P|96:164|81:110,2,112.499996566773,2|8|2,0:0|0:1|0:0,0:0:0:0:
207,340,42832,1,4,0:3:0:0:
328,239,43393,2,0,P|389:234|463:212,2,112.499996566773,2|8|2,0:0|0:1|0:0,0:0:0:0:
226,118,45075,6,0,P|137:93|111:85,1,112.499996566773,4|2,0:3|0:0,0:0:0:0:
47,51,45916,1,8,0:3:0:0:
8,119,46197,2,0,P|1:162|-2:193,1,56.2499982833863,8|2,0:1|0:1,0:0:0:0:
44,239,46758,1,0,0:0:0:0:
190,297,47318,1,4,0:3:0:0:
231,145,47879,1,2,0:0:0:0:
389,153,48440,2,0,P|380:101|380:87,1,56.2499982833863,8|8,0:1|0:3,0:0:0:0:
431,37,49001,1,0,0:0:0:0:
479,186,49561,6,0,P|405:247|374:247,1,112.499996566773,4|8,0:2|0:1,0:0:0:0:
315,260,50402,1,8,0:1:0:0:
249,216,50683,2,0,L|260:145,1,56.2499982833863,2|8,0:0|0:3,0:0:0:0:
311,102,51244,2,0,P|306:71|298:46,1,56.2499982833863,8|8,0:1|0:3,0:0:0:0:
220,36,51804,2,0,P|161:50|95:63,1,112.499996566773,8|8,0:3|0:1,0:0:0:0:
46,106,52645,2,0,P|27:159|42:221,1,112.499996566773,8|8,0:1|0:3,0:0:0:0:
66,286,53487,1,8,0:1:0:0:
218,247,54047,6,0,P|236:307|241:364,2,112.499996566773,4|8|2,0:3|0:1|0:2,0:0:0:0:
156,197,55449,1,8,0:3:0:0:
210,139,55730,2,0,P|248:147|275:155,1,56.2499982833863,8|8,0:1|0:3,0:0:0:0:
328,197,56290,2,0,P|389:187|448:173,1,112.499996566773,8|8,0:3|0:1,0:0:0:0:
465,101,57131,1,8,0:1:0:0:
403,51,57412,2,0,P|423:23|439:6,2,56.2499982833863,2|8|8,0:2|0:3|0:1,0:0:0:0:
254,104,58533,6,0,P|217:110|194:113,1,56.2499982833863,4|0,0:3|0:0,0:0:0:0:
119,113,59094,2,0,P|138:169|154:227,1,112.499996566773,8|2,0:1|0:2,0:0:0:0:
289,298,60216,2,0,P|308:242|324:184,2,112.499996566773,8|8|8,0:1|0:3|0:1,0:0:0:0:
243,147,61898,2,0,P|276:114|348:100,1,112.499996566773,2|8,0:0|0:1,0:0:0:0:
417,238,63019,6,0,P|359:228|321:189,1,112.499996566773,4|8,0:3|0:1,0:0:0:0:
288,117,63860,1,8,0:1:0:0:
228,65,64141,2,0,P|170:75|132:114,1,112.499996566773,2|8,0:0|0:1,0:0:0:0:
13,214,65262,1,10,0:3:0:0:
13,214,67505,6,0,P|132:208|154:205,1,125,4|8,0:1|0:1,0:0:0:0:
225,199,68346,2,0,P|213:162|205:136,2,62.5,8|8|2,0:3|0:3|0:1,0:0:0:0:
295,251,69188,1,8,0:1:0:0:
432,142,69748,2,0,P|446:181|466:278,1,125,8|8,0:3|0:1,0:0:0:0:
414,334,70589,1,2,0:0:0:0:
326,333,70870,2,0,P|296:341|265:356,2,62.5,8|8|8,0:3|0:1|0:1,0:0:0:0:
359,251,71711,1,8,0:1:0:0:
290,196,71991,5,4,0:1:0:0:
390,52,72552,2,0,B|436:36|436:36|535:44,2,125,8|8|8,0:1|0:3|0:1,0:0:0:0:
333,119,73954,1,8,0:3:0:0:
262,170,74234,2,0,P|182:194|129:193,1,125,8|8,0:3|0:1,0:0:0:0:
45,47,75356,2,0,P|52:90|54:120,1,62.5,8|4,0:1|0:2,0:0:0:0:
49,197,75916,1,8,0:3:0:0:
207,272,76477,6,0,P|185:313|103:348,2,125,4|8|8,0:1|0:1|0:3,0:0:0:0:
334,152,78159,2,0,L|399:140,1,62.5,8|8,0:1|0:3,0:0:0:0:
480,120,78720,2,0,B|497:164|497:164|487:248,1,125,8|8,0:3|0:1,0:0:0:0:
405,272,79561,2,0,P|425:303|441:331,2,62.5,0|8|8,0:0|0:3|0:1,0:0:0:0:
339,214,80402,1,8,0:1:0:0:
269,267,80683,1,8,0:3:0:0:
198,215,80963,6,0,P|171:130|161:86,1,125,4|8,0:1|0:1,0:0:0:0:
322,23,82085,2,0,P|295:108|285:152,1,125,8|8,0:3|0:1,0:0:0:0:
283,230,82926,1,8,0:3:0:0:
221,291,83206,2,0,B|183:280|183:280|94:300,1,125,8|8,0:3|0:1,0:0:0:0:
25,345,84047,1,8,0:3:0:0:
16,257,84328,2,0,L|6:188,1,62.5,8|2,0:1|0:1,0:0:0:0:
75,140,84888,2,0,L|65:71,1,62.5,8|8,0:3|0:3,0:0:0:0:
139,32,85449,6,0,P|200:29|250:46,1,112.499996566773,4|2,0:1|0:0,0:0:0:0:
310,92,86290,1,8,0:3:0:0:
375,47,86571,2,0,P|407:42|445:37,2,56.2499982833863,2|8|8,0:0|0:3|0:1,0:0:0:0:
251,145,87692,2,0,P|246:200|252:256,1,112.499996566773,8|8,0:3|0:1,0:0:0:0:
295,324,88533,1,8,0:1:0:0:
236,377,88814,2,0,P|173:352|117:363,1,112.499996566773,2|8,0:1|0:1,0:0:0:0:
10,254,89935,5,4,0:3:0:0:
160,207,90496,2,0,P|192:207|226:212,1,56.2499982833863,8|8,0:1|0:1,0:0:0:0:
280,256,91057,1,2,0:1:0:0:
426,198,91617,2,0,P|421:170|415:137,1,56.2499982833863,8|2,0:1|0:1,0:0:0:0:
437,66,92178,6,0,P|395:78|335:42,1,112.499996566773,8|8,0:3|0:1,0:0:0:0:
266,11,93019,1,8,0:1:0:0:
223,77,93300,2,0,P|226:102|234:138,1,56.2499982833863,2|8,0:1|0:3,0:0:0:0:
295,180,93860,1,8,0:3:0:0:
215,316,94421,5,4,0:3:0:0:
363,367,94982,2,0,P|400:340|485:354,2,112.499996566773,8|2|8,0:1|0:1|0:1,0:0:0:0:
253,253,96664,2,0,P|257:192|265:121,1,112.499996566773,8|8,0:3|0:1,0:0:0:0:
305,73,97505,1,8,0:1:0:0:
240,28,97786,2,0,P|211:20|175:19,1,56.2499982833863,0|0,0:0|0:0,0:0:0:0:
122,66,98346,2,0,P|127:97|131:126,1,56.2499982833863,8|0,0:1|0:0,0:0:0:0:
79,182,98907,5,4,0:3:0:0:
225,238,99468,2,0,P|281:226|340:224,2,112.499996566773,8|2|8,0:1|0:1|0:1,0:0:0:0:
80,174,101150,2,0,P|79:112|93:59,1,112.499996566773,8|0,0:3|0:0,0:0:0:0:
157,21,101991,1,8,0:1:0:0:
218,70,102272,2,0,L|296:52,2,56.2499982833863,2|8|8,0:1|0:3|0:3,0:0:0:0:
97,172,103393,5,4,0:0:0:0:
97,172,105636,6,0,P|102:200|110:245,2,62.5,8|2|8,0:1|0:1|0:1,0:0:0:0:
32,113,106477,1,8,0:3:0:0:
186,31,107038,1,8,0:1:0:0:
263,70,107318,1,8,0:1:0:0:
286,154,107599,1,8,0:1:0:0:
225,216,107879,6,0,P|155:200|93:213,1,125,4|8,0:1|0:1,0:0:0:0:
26,167,108720,2,0,P|30:136|35:99,2,62.5,0|8|2,0:0|0:3|0:1,0:0:0:0:
15,254,109561,1,8,0:1:0:0:
159,353,110122,2,0,P|240:332|298:342,1,125,8|8,0:3|0:1,0:0:0:0:
359,372,110963,1,0,0:0:0:0:
414,304,111244,2,0,P|411:273|405:225,2,62.5,8|8|8,0:3|0:1|0:1,0:0:0:0:
359,372,112085,1,8,0:1:0:0:
287,322,112365,5,4,0:1:0:0:
430,221,112926,2,0,P|444:148|401:90,2,125,8|8|8,0:1|0:3|0:1,0:0:0:0:
347,250,114328,1,8,0:3:0:0:
269,209,114608,2,0,P|209:217|138:230,1,125,8|8,0:3|0:1,0:0:0:0:
39,88,115730,2,0,P|72:98|106:99,1,62.5,8|4,0:1|0:0,0:0:0:0:
175,55,116290,1,8,0:3:0:0:
292,185,116851,5,4,0:1:0:0:
152,291,117412,2,0,L|7:278,2,125,8|8|8,1:0|0:3|0:1,0:0:0:0:
220,346,118814,1,8,0:3:0:0:
277,280,119094,2,0,P|296:224|256:162,1,125,4|8,0:3|0:1,0:0:0:0:
197,115,119935,2,0,L|212:41,2,62.5,8|8|8,0:3|0:3|0:1,0:0:0:0:
121,159,120776,2,0,P|113:189|120:225,1,62.5,8|8,0:1|0:1,0:0:0:0:
194,262,121337,6,0,P|249:253|326:246,1,125,4|8,0:1|0:1,0:0:0:0:
396,284,122178,1,2,0:1:0:0:
451,215,122459,2,0,P|455:177|448:137,1,62.5,8|8,0:3|0:1,0:0:0:0:
397,85,123019,1,8,0:1:0:0:
313,112,123300,1,8,0:1:0:0:
231,80,123580,2,0,P|173:86|90:99,1,125,4|8,0:1|0:1,0:0:0:0:
24,250,124702,2,0,P|85:238|165:269,1,125,8|8,0:3|0:1,0:0:0:0:
208,314,125543,1,8,0:3:0:0:
278,263,125823,6,0,P|267:172|256:126,1,125,4|8,0:1|0:1,0:0:0:0:
214,64,126664,2,0,P|267:28|340:47,1,125,8|8,0:1|0:3,0:0:0:0:
393,90,127505,2,0,P|389:121|383:175,1,62.5,8|0,0:1|0:0,0:0:0:0:
353,233,128066,2,0,B|402:212|402:212|493:245,2,125,4|8|8,0:1|0:1|0:1,0:0:0:0:
213,338,129748,2,0,L|137:328,1,62.5,8|8,0:1|0:3,0:0:0:0:
69,362,130309,6,0,P|59:327|58:294,1,62.5,4|8,0:1|3:0,0:0:0:0:
98,223,130870,2,0,P|106:182|104:156,1,62.5,8|8,0:1|3:0,0:0:0:0:
47,95,131431,2,0,L|59:25,2,62.5,8|8|8,0:1|3:0|0:1,0:0:0:0:
208,162,132552,2,0,P|269:152|331:144,1,125,4|8,0:1|0:1,0:0:0:0:
413,114,133393,1,8,0:3:0:0:
470,180,133674,2,0,P|480:213|476:260,1,62.5,8|8,0:1|0:3,0:0:0:0:
414,298,134234,2,0,P|384:292|351:286,1,62.5,8|8,0:1|0:3,0:0:0:0:
277,331,134795,5,4,0:1:0:0:
145,215,135356,2,0,P|148:187|153:142,2,62.5,8|8|8,0:1|3:0|0:1,0:0:0:0:
72,263,136197,1,8,3:0:0:0:
126,331,136477,2,0,P|161:323|199:324,1,62.5,8|8,0:1|3:0,0:0:0:0:
268,355,137038,2,0,L|251:222,1,125,4|8,0:1|0:1,0:0:0:0:
209,154,137879,1,8,0:3:0:0:
268,90,138159,2,0,P|305:73|403:106,1,125,8|8,0:1|0:1,0:0:0:0:
451,146,139001,1,8,0:3:0:0:
418,227,139281,5,4,0:1:0:0:
264,143,139842,1,8,0:1:0:0:
187,185,140122,2,0,L|116:177,1,62.5,8|8,0:3|0:1,0:0:0:0:
50,224,140683,1,8,0:3:0:0:
108,289,140963,2,0,P|106:321|105:357,1,62.5,8|8,0:1|0:3,0:0:0:0:
190,371,141524,6,0,P|270:337|330:353,1,125,4|8,0:1|0:1,0:0:0:0:
385,377,142365,1,8,0:3:0:0:
448,317,142645,2,0,B|462:275|462:275|444:188,1,125,8|8,0:1|0:1,0:0:0:0:
256,192,143767,12,4,146010,0:0:0:0:
79,211,161711,6,0,P|109:206|140:202,1,62.5,8|8,0:1|0:3,0:0:0:0:
185,126,162272,2,0,P|215:121|246:117,1,62.5,8|8,0:1|0:3,0:0:0:0:
333,127,162832,2,0,P|339:167|345:206,2,62.5,8|8|8,0:3|0:1|0:1,0:0:0:0:
322,39,163674,1,8,0:1:0:0:
407,54,163954,6,0,L|432:194,1,125,4|8,0:1|0:1,0:0:0:0:
390,255,164795,2,0,P|421:266|466:270,2,62.5,0|8|2,0:0|0:3|0:1,0:0:0:0:
318,204,165637,1,8,0:1:0:0:
156,136,166197,2,0,P|134:89|119:10,1,125,8|8,0:3|0:1,0:0:0:0:
32,7,167038,1,0,0:0:0:0:
40,93,167318,2,0,P|57:143|63:180,1,62.5,8|8,0:3|0:1,0:0:0:0:
89,234,167879,2,0,P|77:263|69:293,1,62.5,8|8,0:1|0:3,0:0:0:0:
123,362,168440,5,4,0:1:0:0:
272,270,169001,2,0,P|285:175|285:123,2,125,8|8|8,0:1|0:3|0:1,0:0:0:0:
192,307,170403,1,8,0:3:0:0:
135,240,170683,2,0,P|86:193|28:153,1,125,8|8,0:3|0:1,0:0:0:0:
173,47,171804,2,0,P|224:40|258:37,1,62.5,8|8,0:3|0:1,0:0:0:0:
316,70,172365,1,8,0:1:0:0:
266,237,172926,6,0,P|225:215|190:133,2,125,4|8|8,0:1|0:1|0:3,0:0:0:0:
420,318,174608,2,0,P|410:275|407:239,1,62.5,8|8,0:1|0:3,0:0:0:0:
423,170,175169,2,0,P|432:129|432:36,1,125,8|8,0:3|0:1,0:0:0:0:
349,20,176010,2,0,L|277:11,2,62.5,0|8|0,0:0|0:3|0:0,0:0:0:0:
331,105,176851,1,8,0:1:0:0:
297,185,177132,1,8,0:3:0:0:
240,251,177412,6,0,P|179:242|90:244,1,125,4|8,0:1|0:1,0:0:0:0:
0,110,178533,2,0,P|62:109|124:100,1,125,8|8,0:3|0:3,0:0:0:0:
210,81,179375,1,0,0:0:0:0:
277,136,179655,2,0,B|315:125|315:125|404:145,1,125,8|8,0:3|0:1,0:0:0:0:
474,187,180496,1,8,0:3:0:0:
410,247,180777,2,0,L|418:308,1,62.5,8|8,0:1|0:1,0:0:0:0:
336,338,181337,2,0,L|327:276,1,62.5,8|8,0:1|0:1,0:0:0:0:
316,189,181898,6,0,P|197:195|175:198,1,125,4|8,0:1|0:1,0:0:0:0:
107,222,182739,2,0,P|119:259|127:285,2,62.5,0|8|2,0:0|0:3|0:1,0:0:0:0:
70,141,183581,1,8,0:1:0:0:
230,71,184141,2,0,P|287:56|361:47,1,125,8|8,0:3|0:1,0:0:0:0:
433,79,184982,1,0,0:0:0:0:
490,144,185262,2,0,P|501:172|511:202,2,62.5,8|8|8,0:3|0:1|0:1,0:0:0:0:
403,157,186104,1,8,0:1:0:0:
331,207,186384,5,4,0:1:0:0:
185,304,186945,2,0,B|139:320|139:320|40:312,2,125,8|8|8,0:1|0:3|0:1,0:0:0:0:
256,253,188347,1,8,0:3:0:0:
331,207,188627,2,0,P|411:183|464:184,1,125,8|8,0:3|0:1,0:0:0:0:
292,110,189749,2,0,P|286:79|283:48,1,62.5,8|4,0:1|0:0,0:0:0:0:
367,25,190309,1,8,0:3:0:0:
451,182,190870,6,0,P|461:250|470:320,2,125,4|8|8,0:1|0:1|0:3,0:0:0:0:
282,229,192552,2,0,L|217:241,1,62.5,8|8,0:1|0:3,0:0:0:0:
133,253,193113,2,0,B|116:209|116:209|126:125,1,125,8|8,0:1|0:1,0:0:0:0:
191,74,193954,2,0,P|171:43|155:15,2,62.5,8|8|2,0:3|0:1|0:1,0:0:0:0:
261,125,194795,1,8,0:1:0:0:
334,77,195076,1,0,0:0:0:0:
399,135,195356,6,0,P|426:220|436:264,1,125,4|8,0:1|0:1,0:0:0:0:
289,354,196477,2,0,P|316:269|326:225,1,125,8|8,0:3|0:1,0:0:0:0:
280,157,197319,1,8,0:3:0:0:
198,187,197599,2,0,P|171:102|161:58,1,125,8|8,0:3|0:1,0:0:0:0:
335,35,198720,2,0,P|372:42|398:44,1,62.5,8|4,0:1|0:0,0:0:0:0:
470,91,199281,2,0,P|481:123|492:164,1,62.5,8|8,0:3|0:3,0:0:0:0:
446,227,199842,5,4,0:1:0:0:
282,285,200402,2,0,P|195:279|141:278,2,125,8|8|8,0:1|0:3|0:1,0:0:0:0:
245,113,202085,2,0,P|158:107|104:106,1,125,8|8,0:3|0:1,0:0:0:0:
38,138,202926,1,0,0:0:0:0:
100,199,203206,2,0,P|121:246|126:268,1,62.5,8|4,0:1|0:0,0:0:0:0:
106,342,203767,1,8,0:3:0:0:
238,227,204328,5,4,0:1:0:0:
394,304,204888,2,0,P|409:271|416:234,1,62.5,8|0,0:1|0:0,0:0:0:0:
391,160,205449,2,0,P|377:98|376:26,1,125,8|8,0:3|0:1,0:0:0:0:
238,146,206571,2,0,P|235:208|222:269,2,125,8|8|8,0:3|0:1|0:3,0:0:0:0:
232,58,207973,1,8,0:3:0:0:
146,74,208253,2,0,P|112:71|77:66,2,62.5,8|8|4,0:3|0:3|0:1,0:0:0:0:
256,192,209094,12,0,211057,0:0:0:0:
