osu file format v14

[General]
AudioFilename: audio.mp3
AudioLeadIn: 0
PreviewTime: 107739
Countdown: 0
SampleSet: Soft
StackLeniency: 0.7
Mode: 0
LetterboxInBreaks: 0
WidescreenStoryboard: 0

[Editor]
Bookmarks: 13674,31617,49561,65262,65823,66664,66945,67505,76477,85449,103393,105636,106758,107879,125823,134795,143767,146010,161711,162832,163954,181617,181898,199842,204328,208814,211057
DistanceSpacing: 1.5
BeatDivisor: 4
GridSize: 32
TimelineZoom: 1

[Metadata]
Title:Using You
TitleUnicode:Using You
Artist:Mars Argo
ArtistUnicode:Mars Argo
Creator:Komore
Version:Trynna's Challenging
Source:
Tags:Corey Mixter Brittany Sheets Linden Place EP alternative rock dream pop grocerybag indie titanic sinclair trynna wajinshu ascendance
BeatmapID:1370940
BeatmapSetID:643518

[Difficulty]
HPDrainRate:4.3
CircleSize:4.1
OverallDifficulty:5.5
ApproachRate:6.5
SliderMultiplier:1.3
SliderTickRate:1

[Events]
//Background and Video events
0,0,"sakura.jpg",0,0
Video,0,"Mars Argo best girl i agree.avi"
//Break Periods
2,146210,160736
//Storyboard Layer 0 (Background)
//Storyboard Layer 1 (Fail)
//Storyboard Layer 2 (Pass)
//Storyboard Layer 3 (Foreground)
//Storyboard Sound Samples

[TimingPoints]
13674,560.747663551402,4,2,1,80,1,0
31617,-111.111111111111,4,2,1,80,0,0
65262,-133.333333333333,4,2,1,80,0,0
67505,-100,4,2,1,90,0,1
85449,-111.111111111111,4,2,1,90,0,0
85730,-111.111111111111,4,2,1,80,0,0
105636,-111.111111111111,4,2,1,90,0,0
107879,-100,4,2,1,90,0,1
125823,-100,4,2,1,80,0,0
146010,-100,4,2,1,55,0,0
161711,-111.111111111111,4,2,1,80,0,0
163954,-100,4,2,1,90,0,1
181617,-100,4,2,1,90,0,0
181898,-100,4,2,1,90,0,1
208814,-100,4,2,1,90,0,0
209094,-100,4,2,1,80,0,0

[Colours]
Combo1 : 252,182,184
Combo2 : 170,213,255
Combo3 : 252,207,239
Combo4 : 223,189,176

[HitObjects]
104,168,31617,6,0,P|152:192|216:176,1,116.999996429443,4|2,0:2|0:0,0:0:0:0:
164,112,32459,1,8,0:3:0:0:
232,64,32739,2,0,P|260:60|300:60,2,58.4999982147217,8|0|2,0:1|0:0|0:0,0:0:0:0:
164,16,33580,1,8,0:3:0:0:
92,84,33860,6,0,L|92:152,1,58.4999982147217,4|2,0:3|0:1,0:0:0:0:
130,216,34421,1,2,0:0:0:0:
70,273,34702,2,0,P|121:253|181:275,1,116.999996429443,8|2,0:3|0:0,0:0:0:0:
242,325,35543,1,2,0:0:0:0:
182,383,35823,1,2,0:0:0:0:
338,337,36103,6,0,L|338:221,1,116.999996429443,4|2,0:3|0:0,0:0:0:0:
290,153,36945,1,8,0:3:0:0:
318,77,37225,2,0,P|287:73|259:77,1,58.4999982147217,8|2,0:1|0:0,0:0:0:0:
392,117,37786,2,0,P|422:120|450:117,1,58.4999982147217,2|8,0:0|0:3,0:0:0:0:
290,153,38346,6,0,B|242:165|242:165|170:153,1,116.999996429443,4|2,0:3|0:0,0:0:0:0:
98,185,39188,1,8,0:3:0:0:
22,149,39468,2,0,P|15:180|18:209,2,58.4999982147217,8|2|2,0:1|0:1|0:0,0:0:0:0:
90,101,40309,1,2,0:0:0:0:
97,258,40589,6,0,L|217:254,1,116.999996429443,4|2,0:3|0:0,0:0:0:0:
297,250,41431,1,8,0:3:0:0:
349,314,41711,2,0,P|353:343|349:374,1,58.4999982147217,8|0,0:1|0:0,0:0:0:0:
434,339,42272,2,0,P|430:310|434:281,1,58.4999982147217,2|8,0:0|0:3,0:0:0:0:
495,204,42832,6,0,B|435:216|435:216|379:204,1,116.999996429443,4|2,0:3|0:0,0:0:0:0:
343,132,43674,1,8,0:3:0:0:
395,68,43954,2,0,L|391:9,1,58.4999982147217,8|0,0:1|0:0,0:0:0:0:
306,39,44515,2,0,L|309:101,1,58.4999982147217,2|0,0:0|0:0,0:0:0:0:
224,164,45075,6,0,P|168:184|108:172,1,116.999996429443,4|2,0:3|0:0,0:0:0:0:
44,128,45916,1,8,0:3:0:0:
44,212,46197,2,0,L|44:272,1,58.4999982147217,8|2,0:1|0:1,0:0:0:0:
104,328,46758,2,0,P|131:325|164:328,1,58.4999982147217,0|8,0:0|0:3,0:0:0:0:
256,364,47318,6,0,P|308:340|360:364,2,116.999996429443,4|2|8,0:3|0:0|0:1,0:0:0:0:
184,328,48720,2,0,L|188:296,1,29.2499991073609,8|0,0:3|0:0,0:0:0:0:
208,284,49001,2,0,L|204:216,1,58.4999982147217,0|0,0:0|0:0,0:0:0:0:
136,128,49561,6,0,P|88:156|28:148,1,116.999996429443,4|8,0:2|0:1,0:0:0:0:
68,68,50402,1,8,0:1:0:0:
144,112,50683,2,0,L|208:112,1,58.4999982147217,2|8,0:0|0:3,0:0:0:0:
288,140,51244,2,0,P|293:109|288:80,1,58.4999982147217,8|8,0:1|0:3,0:0:0:0:
352,20,51804,6,0,P|408:12|468:20,1,116.999996429443,8|8,0:3|0:1,0:0:0:0:
500,102,52645,1,8,0:1:0:0:
476,188,52926,2,0,P|448:184|416:188,1,58.4999982147217,0|8,0:0|0:3,0:0:0:0:
360,252,53487,2,0,P|331:255|302:251,1,58.4999982147217,8|2,0:1|0:1,0:0:0:0:
208,208,54047,6,0,B|224:248|224:248|224:324,1,116.999996429443,4|8,0:3|0:1,0:0:0:0:
144,360,54888,1,8,0:1:0:0:
76,304,55169,2,0,L|12:304,2,58.4999982147217,2|8|8,0:2|0:3|0:1,0:0:0:0:
132,236,56010,1,8,0:3:0:0:
60,164,56290,6,0,P|54:135|60:104,1,58.4999982147217,8|0,0:3|0:0,0:0:0:0:
140,136,56851,2,0,P|168:140|204:136,1,58.4999982147217,8|8,0:1|0:1,0:0:0:0:
228,52,57412,2,0,L|168:56,2,58.4999982147217,2|8|8,0:2|0:3|0:1,0:0:0:0:
308,88,58253,2,0,L|344:92,1,29.2499991073609,8|8,0:3|0:3,0:0:0:0:
392,68,58533,6,0,P|368:96|356:184,1,116.999996429443,4|8,0:3|0:1,0:0:0:0:
380,256,59374,1,8,0:1:0:0:
316,316,59655,2,0,P|284:318|256:312,1,58.4999982147217,2|8,0:2|0:3,0:0:0:0:
188,260,60216,2,0,P|156:257|128:264,1,58.4999982147217,8|8,0:1|0:3,0:0:0:0:
48,320,60776,6,0,L|52:204,1,116.999996429443,8|8,0:3|0:1,0:0:0:0:
56,120,61617,1,8,0:1:0:0:
128,160,61898,2,0,L|188:156,1,58.4999982147217,2|8,0:0|0:3,0:0:0:0:
220,76,62459,2,0,L|160:72,1,58.4999982147217,8|0,0:1|0:0,0:0:0:0:
284,148,63019,6,0,P|340:164|396:148,1,116.999996429443,4|8,0:3|0:1,0:0:0:0:
456,84,63860,1,8,0:1:0:0:
492,164,64141,2,0,P|484:196|484:228,1,58.4999982147217,2|8,0:0|0:3,0:0:0:0:
428,288,64702,2,0,L|368:284,1,58.4999982147217,8|8,0:1|0:3,0:0:0:0:
300,336,65262,6,0,P|252:328|204:340,2,97.50000371933,10|2|2,0:3|0:1|0:0,0:0:0:0:
369,284,66664,1,8,0:3:0:0:
369,284,66945,1,8,0:3:0:0:
401,183,67505,6,0,B|371:172|333:175|334:192|297:198|263:183,1,130,4|8,0:1|0:1,0:0:0:0:
297,95,68346,1,8,0:3:0:0:
218,45,68627,2,0,P|164:51|115:45,2,97.5,8|0|8,0:3|0:0|0:3,0:0:0:0:
159,145,69748,6,0,B|146:200|146:200|159:288,1,130,8|8,0:3|0:1,0:0:0:0:
132,368,70589,1,2,0:0:0:0:
226,347,70870,1,8,0:3:0:0:
243,364,71150,5,8,0:1:0:0:
251,267,71431,1,8,0:1:0:0:
260,171,71711,1,8,0:1:0:0:
360,225,71991,6,0,P|428:221|457:162,1,130,4|8,0:1|0:1,0:0:0:0:
398,91,72832,1,8,0:3:0:0:
310,124,73113,2,0,L|201:124,2,97.5,8|0|8,0:3|0:0|0:3,0:0:0:0:
247,32,74234,6,0,P|176:28|121:74,1,130,8|8,0:3|0:1,0:0:0:0:
37,82,75075,1,8,0:3:0:0:
42,95,75216,1,8,0:1:0:0:
46,108,75356,1,8,0:1:0:0:
130,150,75636,1,4,0:2:0:0:
72,228,75916,2,0,L|72:270,2,32.5,8|8|8,0:3|0:3|0:3,0:0:0:0:
167,292,76477,6,0,B|199:280|233:284|235:301|268:305|306:292,1,130,4|8,0:1|0:1,0:0:0:0:
381,343,77318,1,8,0:3:0:0:
449,275,77599,2,0,L|449:171,2,97.5,8|0|8,0:3|0:0|0:3,0:0:0:0:
348,221,78720,6,0,B|331:166|331:166|348:78,1,130,8|8,0:3|0:1,0:0:0:0:
272,28,79561,1,0,0:0:0:0:
193,78,79842,1,8,0:3:0:0:
201,99,80122,5,8,0:1:0:0:
104,95,80402,1,8,0:1:0:0:
8,91,80683,1,8,0:3:0:0:
71,187,80963,6,0,P|88:250|71:326,1,130,4|8,0:1|0:1,0:0:0:0:
151,372,81804,1,8,0:1:0:0:
167,355,82085,2,0,L|306:355,1,130,8|8,0:3|0:1,0:0:0:0:
381,301,82926,5,8,0:3:0:0:
402,313,83206,2,0,B|419:246|419:246|402:179,1,130,8|8,0:3|0:1,0:0:0:0:
389,88,84047,2,0,L|392:55,2,32.5,8|8|8,0:3|0:1|0:1,0:0:0:0:
291,67,84608,5,2,0:1:0:0:
232,143,84888,1,8,0:3:0:0:
174,67,85169,1,8,0:3:0:0:
80,40,85449,6,0,B|71:71|75:97|86:98|92:124|80:156,1,116.999996429443,4|2,0:1|0:0,0:0:0:0:
28,224,86290,1,8,0:3:0:0:
88,288,86571,2,0,L|148:284,1,58.4999982147217,2|8,0:0|0:3,0:0:0:0:
208,348,87131,2,0,L|268:352,1,58.4999982147217,8|0,0:1|0:0,0:0:0:0:
360,372,87692,6,0,P|348:316|356:256,1,116.999996429443,8|8,0:3|0:1,0:0:0:0:
404,184,88533,1,8,0:1:0:0:
340,124,88814,2,0,L|281:120,2,58.4999982147217,2|8|8,0:1|0:3|0:1,0:0:0:0:
400,60,89655,1,0,0:0:0:0:
270,28,89935,6,0,L|150:36,1,116.999996429443,4|8,0:3|0:1,0:0:0:0:
98,104,90776,1,8,0:1:0:0:
146,176,91057,2,0,P|149:204|147:234,1,58.4999982147217,2|8,0:1|0:3,0:0:0:0:
54,236,91617,2,0,P|50:206|54:178,1,58.4999982147217,8|2,0:1|0:1,0:0:0:0:
124,312,92178,6,0,L|244:308,1,116.999996429443,8|8,0:3|0:1,0:0:0:0:
316,352,93019,1,8,0:1:0:0:
372,284,93300,2,0,P|370:256|372:224,1,58.4999982147217,2|8,0:1|0:3,0:0:0:0:
404,144,93860,2,0,P|372:140|340:144,1,58.4999982147217,8|0,0:3|0:0,0:0:0:0:
252,94,94421,6,0,P|244:150|252:210,1,116.999996429443,4|8,0:3|0:1,0:0:0:0:
264,298,95262,1,8,0:1:0:0:
184,262,95543,2,0,L|124:266,1,58.4999982147217,2|0,0:1|0:0,0:0:0:0:
47,307,96103,2,0,L|51:247,1,58.4999982147217,8|8,0:1|0:3,0:0:0:0:
44,140,96664,6,0,P|100:152|160:140,1,116.999996429443,8|8,0:3|0:1,0:0:0:0:
128,60,97505,1,8,0:1:0:0:
204,20,97786,2,0,P|233:20|262:23,1,58.4999982147217,0|0,0:0|0:0,0:0:0:0:
292,104,98346,2,0,P|263:103|234:108,1,58.4999982147217,8|0,0:1|0:0,0:0:0:0:
384,156,98907,6,0,L|380:40,1,116.999996429443,4|8,0:3|0:1,0:0:0:0:
456,0,99748,1,8,0:1:0:0:
492,80,100029,2,0,P|488:108|488:140,1,58.4999982147217,2|0,0:1|0:0,0:0:0:0:
448,216,100589,2,0,P|448:246|453:275,1,58.4999982147217,8|8,0:1|0:3,0:0:0:0:
380,324,101150,6,0,B|348:336|320:332|320:320|292:316|264:324,2,116.999996429443,8|0|2,0:3|0:0|0:1,0:0:0:0:
348,252,102552,1,8,0:3:0:0:
264,224,102832,1,8,0:3:0:0:
332,168,103113,1,2,0:1:0:0:
248,236,103393,5,4,0:0:0:0:
60,312,105636,5,8,0:1:0:0:
96,240,105916,2,0,L|92:176,2,58.4999982147217,2|8|8,0:1|0:1|0:3,0:0:0:0:
172,264,106758,1,8,0:3:0:0:
240,220,107038,2,0,P|269:215|300:220,2,58.4999982147217,8|8|8,0:1|0:1|0:1,0:0:0:0:
340,284,107879,6,0,L|335:141,1,130,4|8,0:1|0:1,0:0:0:0:
388,72,108720,1,0,0:0:0:0:
296,36,109001,2,0,B|245:23|245:23|191:31,2,97.5,8|0|8,0:3|0:0|0:3,0:0:0:0:
239,137,110122,6,0,L|79:133,1,130,8|8,0:3|0:1,0:0:0:0:
12,129,110963,1,0,0:0:0:0:
56,216,111244,1,8,0:3:0:0:
43,236,111524,5,8,0:1:0:0:
139,220,111804,1,8,0:1:0:0:
236,241,112085,1,8,0:1:0:0:
331,305,112365,6,0,L|327:166,1,130,4|8,0:1|0:1,0:0:0:0:
420,204,113206,1,0,0:0:0:0:
390,112,113487,2,0,P|348:87|293:91,2,97.5,8|0|8,0:3|0:0|0:3,0:0:0:0:
306,192,114608,6,0,L|163:192,1,130,8|8,0:3|0:1,0:0:0:0:
104,259,115449,1,8,0:3:0:0:
92,259,115589,1,8,0:1:0:0:
79,259,115730,1,8,0:1:0:0:
20,184,116010,1,4,0:0:0:0:
80,108,116290,2,0,L|80:66,2,32.5,8|8|8,0:3|0:3|0:3,0:0:0:0:
188,80,116851,6,0,P|253:96|322:80,1,130,4|8,0:1|1:0,0:0:0:0:
394,26,117692,1,8,0:3:0:0:
432,114,117973,2,0,B|440:162|440:162|432:218,2,97.5,8|0|8,0:3|0:0|0:3,0:0:0:0:
339,192,119094,6,0,B|309:178|271:181|272:196|240:201|201:187,1,130,4|8,0:3|0:1,0:0:0:0:
148,264,119935,1,8,0:3:0:0:
88,187,120216,1,8,0:3:0:0:
71,204,120496,5,8,0:1:0:0:
88,108,120776,1,8,0:1:0:0:
71,11,121057,1,8,0:1:0:0:
172,66,121337,6,0,P|239:53|306:66,1,130,4|8,0:1|0:1,0:0:0:0:
388,100,122178,1,2,0:1:0:0:
364,192,122459,1,8,0:3:0:0:
345,176,122739,5,8,0:1:0:0:
349,272,123019,1,8,0:1:0:0:
353,369,123300,1,8,0:1:0:0:
239,305,123580,6,0,B|200:304|176:292|176:292|152:304|112:304,1,130,4|8,0:1|0:1,0:0:0:0:
56,228,124421,1,2,0:1:0:0:
96,141,124702,2,0,P|103:104|96:70,2,65,8|0|8,0:3|0:0|0:1,0:0:0:0:
8,104,125543,1,8,0:3:0:0:
116,56,125823,6,0,L|188:52,1,65,4|0,0:1|0:0,0:0:0:0:
248,108,126384,2,0,L|320:112,1,65,8|8,0:1|0:1,0:0:0:0:
388,72,126945,1,8,0:3:0:0:
380,164,127225,1,8,0:3:0:0:
472,172,127505,1,8,0:1:0:0:
480,80,127785,1,0,0:0:0:0:
392,184,128066,6,0,L|392:248,1,65,4|8,0:1|0:3,0:0:0:0:
308,220,128627,2,0,L|308:285,1,65,8|8,0:1|0:3,0:0:0:0:
224,184,129188,2,0,L|224:248,1,65,8|8,0:1|0:3,0:0:0:0:
140,220,129749,2,0,L|140:284,1,65,8|0,0:1|0:0,0:0:0:0:
42,158,130309,5,4,0:1:0:0:
130,132,130589,1,8,3:0:0:0:
105,44,130869,1,8,0:1:0:0:
16,69,131149,1,8,3:0:0:0:
155,142,131431,2,0,L|231:142,1,65,8|8,0:1|3:0,0:0:0:0:
286,64,131991,2,0,L|210:64,1,65,8|8,0:1|3:0,0:0:0:0:
316,160,132552,5,4,0:1:0:0:
384,216,132832,1,8,0:3:0:0:
468,184,133113,1,8,0:1:0:0:
400,128,133393,1,8,0:3:0:0:
384,216,133674,2,0,P|381:240|384:280,2,65,8|8|8,0:1|0:3|0:1,0:0:0:0:
304,248,134515,1,8,0:3:0:0:
240,336,134795,5,4,0:1:0:0:
176,284,135075,1,8,0:3:0:0:
112,336,135356,2,0,L|47:336,1,65,8|8,0:1|3:0,0:0:0:0:
16,260,135916,2,0,L|81:260,1,65,8|8,0:1|3:0,0:0:0:0:
112,184,136477,2,0,L|47:184,1,65,8|8,0:1|3:0,0:0:0:0:
28,84,137038,5,4,0:1:0:0:
112,96,137318,1,8,0:3:0:0:
176,40,137599,1,8,0:1:0:0:
260,52,137879,1,8,0:3:0:0:
316,116,138159,2,0,P|320:144|316:184,2,65,8|8|8,0:1|0:3|0:1,0:0:0:0:
219,148,139001,1,8,0:3:0:0:
268,252,139281,6,0,B|316:268|316:268|404:248,1,130,4|8,0:1|0:1,0:0:0:0:
480,268,140122,2,0,L|480:236,1,32.5,8|8,0:3|0:1,0:0:0:0:
480,188,140402,1,8,0:1:0:0:
400,164,140683,1,8,0:3:0:0:
400,80,140963,1,8,0:1:0:0:
480,56,141244,1,8,0:3:0:0:
374,149,141524,5,4,0:1:0:0:
312,100,141804,2,0,L|248:96,1,65,8|8,0:3|0:1,0:0:0:0:
192,40,142365,2,0,L|197:6,2,32.5,8|8|8,0:3|0:1|0:1,0:0:0:0:
138,99,142926,1,8,0:3:0:0:
195,157,143206,2,0,P|200:184|195:221,1,65,8|8,0:1|0:3,0:0:0:0:
142,303,143767,6,0,L|175:300,1,32.5,8|8,0:1|0:1,0:0:0:0:
255,360,144188,2,0,L|287:363,2,32.5,8|8|8,0:3|0:1|0:1,0:0:0:0:
279,264,144748,2,0,P|275:232|279:196,1,65,8|8,0:1|0:1,0:0:0:0:
355,136,145309,2,0,L|391:136,1,32.5,8|8,0:1|0:1,0:0:0:0:
455,204,145730,1,8,0:3:0:0:
491,108,146010,5,4,0:0:0:0:
256,192,161711,5,8,0:1:0:0:
316,140,161991,2,0,L|312:80,2,58.4999982147217,8|8|8,0:3|0:1|0:3,0:0:0:0:
388,176,162832,1,8,0:3:0:0:
364,252,163113,2,0,P|394:255|422:248,2,58.4999982147217,8|8|8,0:1|0:1|0:1,0:0:0:0:
281,322,163954,6,0,L|138:313,1,130,4|8,0:1|0:1,0:0:0:0:
62,355,164795,1,0,0:0:0:0:
21,270,165075,2,0,L|21:165,2,97.5,8|0|8,0:3|0:0|0:3,0:0:0:0:
114,205,166197,6,0,B|154:205|178:217|178:217|202:205|241:204,1,130,8|8,0:3|0:1,0:0:0:0:
327,247,167038,1,0,0:0:0:0:
415,207,167318,1,8,0:3:0:0:
427,227,167599,5,8,0:1:0:0:
427,131,167879,1,8,0:1:0:0:
427,34,168159,1,8,0:3:0:0:
310,105,168440,6,0,B|255:122|255:122|175:105,1,130,4|8,0:1|0:1,0:0:0:0:
98,156,169281,1,0,0:0:0:0:
100,59,169561,2,0,P|143:19|192:17,2,97.5,8|0|8,0:3|0:0|0:3,0:0:0:0:
98,156,170683,6,0,L|93:294,1,130,8|8,0:3|0:1,0:0:0:0:
181,327,171524,1,0,0:0:0:0:
261,272,171804,1,8,0:3:0:0:
277,288,172085,5,8,0:1:0:0:
316,198,172365,2,0,L|359:190,2,32.5,8|8|8,0:1|0:3|0:3,0:0:0:0:
228,88,172926,6,0,P|161:96|119:147,1,130,4|8,0:1|0:1,0:0:0:0:
209,184,173767,1,0,0:0:0:0:
157,264,174047,2,0,L|52:272,2,97.5,8|0|8,0:3|0:0|0:3,0:0:0:0:
128,360,175169,6,0,L|271:364,1,130,8|8,0:3|0:1,0:0:0:0:
328,296,176010,1,0,0:0:0:0:
420,332,176290,1,8,0:3:0:0:
400,346,176571,5,8,0:3:0:0:
404,249,176851,1,8,0:1:0:0:
408,152,177131,1,8,0:3:0:0:
348,57,177412,6,0,B|289:74|289:74|214:57,1,130,4|8,0:1|0:1,0:0:0:0:
125,28,178253,1,0,0:0:0:0:
104,15,178533,2,0,L|104:154,1,130,8|8,0:3|0:3,0:0:0:0:
62,242,179374,5,0,0:0:0:0:
50,263,179655,2,0,P|80:258|117:259,1,65,8|0,0:3|0:0,0:0:0:0:
188,313,180216,1,8,0:1:0:0:
260,252,180496,2,0,L|256:216,2,32.5,8|8|8,0:3|0:1|0:1,0:0:0:0:
360,236,181057,5,8,0:1:0:0:
365,137,181337,1,8,0:1:0:0:
411,53,181617,1,8,0:1:0:0:
310,7,181898,6,0,B|278:-2|241:3|243:15|208:18|167:11,1,130,4|8,0:1|0:1,0:0:0:0:
100,66,182739,1,0,0:0:0:0:
64,156,183019,2,0,P|55:206|64:260,2,97.5,8|0|0,0:3|0:0|0:0,0:0:0:0:
164,204,184141,6,0,L|310:199,1,130,8|8,0:3|0:1,0:0:0:0:
380,156,184982,1,0,0:0:0:0:
377,250,185262,1,8,0:3:0:0:
390,271,185543,5,8,0:1:0:0:
302,313,185823,1,8,0:1:0:0:
214,271,186103,1,8,0:1:0:0:
104,326,186384,6,0,P|121:259|104:192,1,130,4|8,0:1|0:1,0:0:0:0:
52,124,187225,1,0,0:0:0:0:
117,53,187505,2,0,L|222:45,2,97.5,8|0|8,0:3|0:0|0:3,0:0:0:0:
205,133,188627,6,0,B|243:137|268:120|268:120|302:116|339:137,1,130,8|8,0:3|0:1,0:0:0:0:
428,120,189468,1,8,0:3:0:0:
428,133,189608,1,8,0:1:0:0:
428,145,189748,1,8,0:1:0:0:
484,224,190029,1,4,0:0:0:0:
396,264,190309,2,0,L|354:264,2,32.5,8|8|8,0:3|0:3|0:3,0:0:0:0:
296,336,190870,6,0,P|224:328|174:374,1,130,4|8,0:1|0:1,0:0:0:0:
103,302,191711,1,0,0:0:0:0:
165,227,191991,2,0,L|165:122,2,97.5,8|0|8,0:3|0:0|0:3,0:0:0:0:
279,173,193113,6,0,P|291:106|279:38,1,130,8|8,0:1|0:1,0:0:0:0:
376,76,193954,1,8,0:3:0:0:
468,48,194234,1,8,0:1:0:0:
452,32,194515,5,2,0:1:0:0:
468,128,194795,2,0,L|508:120,2,32.5,8|0|0,0:1|0:0|0:0,0:0:0:0:
428,242,195356,6,0,L|276:233,1,130,4|8,0:1|0:1,0:0:0:0:
218,292,196197,1,0,0:0:0:0:
201,309,196477,2,0,L|62:313,1,130,8|8,0:3|0:1,0:0:0:0:
25,233,197318,5,8,0:3:0:0:
33,212,197599,2,0,B|46:166|46:166|33:74,1,130,8|8,0:3|0:1,0:0:0:0:
96,15,198440,1,0,0:0:0:0:
109,15,198580,1,8,0:1:0:0:
121,15,198720,1,8,0:1:0:0:
197,82,199001,5,4,0:0:0:0:
293,82,199281,1,8,0:3:0:0:
188,103,199561,1,8,0:3:0:0:
362,132,199842,6,0,P|377:67|339:11,1,130,4|8,0:1|0:1,0:0:0:0:
293,82,200683,1,0,0:0:0:0:
281,103,200963,2,0,L|281:246,1,130,8|8,0:3|0:1,0:0:0:0:
327,317,201804,5,8,0:3:0:0:
314,334,202085,2,0,L|247:334,1,65,8|0,0:3|0:0,0:0:0:0:
176,280,202645,1,8,0:1:0:0:
104,344,202926,1,0,0:0:0:0:
90,345,203066,1,0,0:0:0:0:
76,348,203206,1,8,0:1:0:0:
32,264,203487,5,4,0:0:0:0:
92,188,203767,2,0,L|124:192,2,32.5,8|8|8,0:3|0:3|0:3,0:0:0:0:
176,100,204328,6,0,L|38:104,1,130,4|8,0:1|0:1,0:0:0:0:
63,16,205169,1,0,0:0:0:0:
84,16,205449,2,0,L|223:20,1,130,8|8,0:3|0:1,0:0:0:0:
294,71,206290,5,8,0:3:0:0:
306,92,206571,2,0,P|302:125|306:159,2,65,8|0|8,0:3|0:0|0:1,0:0:0:0:
390,125,207412,1,8,0:1:0:0:
411,213,207692,1,8,0:3:0:0:
487,297,207973,5,8,0:3:0:0:
411,243,208253,1,8,0:3:0:0:
324,259,208533,1,8,0:3:0:0:
277,328,208814,5,4,0:1:0:0:
256,192,208954,12,0,211057,0:0:0:0:
