osu file format v14

[General]
AudioFilename: audio.mp3
AudioLeadIn: 0
PreviewTime: 107739
Countdown: 0
SampleSet: Soft
StackLeniency: 0.7
Mode: 0
LetterboxInBreaks: 0
WidescreenStoryboard: 1

[Editor]
Bookmarks: 85449,208814
DistanceSpacing: 1.1
BeatDivisor: 4
GridSize: 32
TimelineZoom: 1

[Metadata]
Title:Using You
TitleUnicode:Using You
Artist:Mars Argo
ArtistUnicode:Mars Argo
Creator:Komore
Version:Ascendance's Simple
Source:
Tags:Corey Mixter Brittany Sheets Linden Place EP alternative rock dream pop grocerybag indie titanic sinclair trynna wajinshu ascendance
BeatmapID:1412997
BeatmapSetID:643518

[Difficulty]
HPDrainRate:2.1
CircleSize:2.5
OverallDifficulty:2.4
ApproachRate:2.7
SliderMultiplier:1.15
SliderTickRate:1

[Events]
//Background and Video events
0,0,"sakura.jpg",0,0
Video,0,"Mars Argo best girl i agree.avi"
//Break Periods
2,146210,149021
2,150696,153507
2,155182,157993
//Storyboard Layer 0 (Background)
//Storyboard Layer 1 (Fail)
//Storyboard Layer 2 (Pass)
//Storyboard Layer 3 (Foreground)
//Storyboard Sound Samples

[TimingPoints]
13674,560.747663551402,4,2,1,80,1,0
31337,-111.111111111111,4,2,1,80,0,0
67505,-100,4,2,1,90,0,0
85449,-111.111111111111,4,2,1,90,0,0
85730,-111.111111111111,4,2,1,80,0,0
105636,-100,4,2,1,90,0,0
125823,-100,4,2,1,80,0,0
146010,-133.333333333333,4,2,1,55,0,0
161711,-117.647058823529,4,2,1,80,0,0
163954,-100,4,2,1,90,0,0
209094,-100,4,2,1,80,0,0

[Colours]
Combo1 : 252,182,184
Combo2 : 170,213,255
Combo3 : 252,207,239
Combo4 : 223,189,176

[HitObjects]
319,54,31617,6,0,P|368:43|428:57,2,103.499996841431,4|2|8,0:2|0:0|0:1,0:0:0:0:
234,131,33300,1,2,0:0:0:0:
323,200,33860,2,0,B|421:183|421:183|474:220,2,155.249995262146,4|8|2,0:3|0:3|0:0,0:0:0:0:
256,292,36103,6,0,P|217:244|216:193,1,103.499996841431,4|2,0:3|0:0,0:0:0:0:
278,110,37225,2,0,L|168:102,1,103.499996841431,8|2,0:1|0:0,0:0:0:0:
76,160,38346,2,0,B|68:229|68:229|82:266,2,103.499996841431,4|2|8,0:3|0:0|0:1,0:0:0:0:
45,49,40029,1,2,0:0:0:0:
152,12,40589,5,4,0:3:0:0:
251,67,41150,2,0,P|301:78|355:65,2,103.499996841431,2|8|2,0:0|0:1|0:0,0:0:0:0:
158,132,42832,2,0,P|108:121|54:134,2,103.499996841431,4|2|8,0:3|0:0|0:1,0:0:0:0:
238,213,44515,1,2,0:0:0:0:
223,325,45075,5,4,0:3:0:0:
116,304,45636,2,0,L|6:312,1,103.499996841431,2|8,0:0|0:1,0:0:0:0:
56,206,46758,2,0,L|166:214,1,103.499996841431,0|4,0:0|0:3,0:0:0:0:
260,161,47879,2,0,P|265:102|257:57,2,103.499996841431,2|8|0,0:0|0:1|0:0,0:0:0:0:
159,213,49561,5,4,0:2:0:0:
255,273,50122,2,0,L|314:268,2,51.7499984207154,8|8|2,0:1|0:1|0:0,0:0:0:0:
164,342,51244,1,8,0:1:0:0:
73,272,51804,2,0,P|67:185|116:124,2,155.249995262146,8|8|8,0:3|0:1|0:1,0:0:0:0:
175,222,54047,5,4,0:3:0:0:
255,140,54608,2,0,L|250:84,2,51.7499984207154,8|8|2,0:1|0:1|0:2,0:0:0:0:
267,253,55730,1,8,0:1:0:0:
357,321,56290,2,0,P|404:320|471:345,2,103.499996841431,8|8|2,0:3|0:1|0:2,0:0:0:0:
242,368,57973,1,8,0:1:0:0:
208,259,58533,5,4,0:3:0:0:
295,185,59094,2,0,P|356:197|411:198,2,103.499996841431,8|2|8,0:1|0:2|0:1,0:0:0:0:
207,112,60776,2,0,P|146:100|91:99,2,103.499996841431,8|8|2,0:3|0:1|0:0,0:0:0:0:
292,36,62459,1,8,0:1:0:0:
361,126,63019,5,4,0:3:0:0:
447,200,63580,2,0,B|448:270|448:270|417:312,2,103.499996841431,8|2|8,0:1|0:0|0:1,0:0:0:0:
361,126,65262,2,0,P|313:135|246:124,1,103.499996841431,10|2,0:3|0:1,0:0:0:0:
166,61,66384,2,0,P|162:140|167:185,1,103.499996841431,2|8,0:0|0:3,0:0:0:0:
230,272,67505,6,0,P|289:283|353:269,1,115,4|8,0:1|0:1,0:0:0:0:
436,188,68627,2,0,P|444:148|443:127,2,57.5,8|2|8,0:3|0:1|0:1,0:0:0:0:
484,305,69748,2,0,P|419:308|352:341,1,115,8|8,0:3|0:1,0:0:0:0:
254,282,70870,1,8,0:3:0:0:
143,344,71431,2,0,L|75:338,1,57.5,8|8,0:1|0:1,0:0:0:0:
36,299,71991,6,0,P|31:225|37:172,1,115,4|8,0:1|0:1,0:0:0:0:
161,176,73113,2,0,P|217:188|286:171,2,115,8|8|8,0:3|0:1|0:3,0:0:0:0:
94,68,74795,1,8,0:1:0:0:
211,21,75356,2,0,L|286:33,2,57.5,8|4|8,0:1|0:2|0:3,0:0:0:0:
94,68,76477,5,4,0:1:0:0:
199,137,77038,2,0,L|325:130,1,115,8|8,0:1|0:3,0:0:0:0:
418,201,78159,2,0,P|441:254|437:331,2,115,8|8|8,0:1|0:3|0:1,0:0:0:0:
313,130,79842,1,8,0:3:0:0:
218,213,80402,2,0,L|224:290,1,57.5,8|8,0:1|0:3,0:0:0:0:
202,330,80963,6,0,P|255:319|337:338,1,115,4|8,0:1|0:1,0:0:0:0:
431,278,82085,2,0,B|446:210|446:210|430:144,2,115,8|8|8,0:3|0:1|0:3,0:0:0:0:
346,183,83767,2,0,P|356:116|397:81,2,115,8|8|8,0:1|0:1|0:3,0:0:0:0:
431,278,85449,5,4,0:1:0:0:
342,349,86010,2,0,B|273:362|273:362|230:345,2,103.499996841431,2|2|8,0:0|0:0|0:1,0:0:0:0:
282,251,87692,2,0,L|266:140,1,103.499996841431,8|8,0:3|0:1,0:0:0:0:
347,67,88814,2,0,L|406:78,2,51.7499984207154,2|8|8,0:1|0:3|0:1,0:0:0:0:
242,21,89935,5,4,0:3:0:0:
147,84,90496,2,0,P|149:152|153:188,2,103.499996841431,8|2|8,0:1|0:1|0:1,0:0:0:0:
242,145,92178,2,0,P|288:156|360:137,1,103.499996841431,8|8,0:3|0:1,0:0:0:0:
435,79,93300,2,0,L|448:26,2,51.7499984207154,2|8|8,0:1|0:3|0:3,0:0:0:0:
463,189,94421,5,4,0:3:0:0:
385,272,94982,2,0,L|264:265,1,103.499996841431,8|2,0:1|0:1,0:0:0:0:
174,226,96103,2,0,P|143:176|131:113,2,103.499996841431,8|8|8,0:1|0:3|0:1,0:0:0:0:
238,319,97786,2,0,P|173:319|123:337,1,103.499996841431,0|8,0:0|0:1,0:0:0:0:
35,383,98907,5,4,0:3:0:0:
16,270,99468,2,0,P|7:202|3:149,1,103.499996841431,8|2,0:1|0:1,0:0:0:0:
85,87,100589,2,0,P|141:68|198:71,2,103.499996841431,8|8|0,0:1|0:3|0:0,0:0:0:0:
162,170,102272,2,0,L|158:281,1,103.499996841431,2|8,0:1|0:3,0:0:0:0:
247,344,103393,5,4,0:0:0:0:
275,364,105636,5,8,0:1:0:0:
183,276,106197,2,0,L|198:210,1,57.5,8|8,0:1|0:3,0:0:0:0:
309,164,107038,2,0,L|375:181,2,57.5,8|8|8,0:1|0:1|0:1,0:0:0:0:
293,102,107879,6,0,P|234:113|168:98,1,115,4|8,0:1|0:1,0:0:0:0:
81,24,109001,2,0,P|42:23|15:28,2,57.5,8|2|8,0:3|0:1|0:1,0:0:0:0:
197,73,110122,2,0,P|201:132|196:199,1,115,8|8,0:3|0:1,0:0:0:0:
75,155,111244,1,8,0:3:0:0:
9,262,111804,2,0,L|10:323,1,57.5,8|8,0:1|0:1,0:0:0:0:
3,382,112365,6,0,P|55:368|129:383,1,115,4|8,0:1|0:1,0:0:0:0:
205,287,113487,2,0,P|261:295|316:281,2,115,8|8|8,0:3|0:1|0:3,0:0:0:0:
114,198,115169,1,8,0:1:0:0:
23,110,115730,2,0,P|16:68|18:46,2,57.5,8|4|8,0:1|0:0|0:3,0:0:0:0:
116,197,116851,5,4,0:1:0:0:
218,122,117412,2,0,B|302:115|302:115|349:139,2,115,8|8|8,1:0|0:3|0:1,0:0:0:0:
100,75,119094,2,0,P|84:140|111:192,1,115,4|8,0:3|0:1,0:0:0:0:
219,229,120216,1,8,0:3:0:0:
315,147,120776,2,0,P|310:102|304:87,1,57.5,8|8,0:1|0:1,0:0:0:0:
249,60,121337,6,0,P|178:77|127:65,1,115,4|8,0:1|0:1,0:0:0:0:
20,118,122459,2,0,P|11:157|11:178,2,57.5,8|8|8,0:3|0:1|0:1,0:0:0:0:
137,165,123580,2,0,P|196:171|267:208,1,115,4|8,0:1|0:1,0:0:0:0:
364,241,124702,2,0,P|403:238|427:231,2,57.5,8|0|8,0:3|0:0|0:1,0:0:0:0:
246,193,125823,6,0,P|241:129|244:70,1,115,4|8,0:1|0:1,0:0:0:0:
354,17,126945,2,0,P|407:11|429:17,2,57.5,8|8|8,0:3|0:3|0:1,0:0:0:0:
243,78,128066,2,0,L|119:67,2,115,4|8|8,0:1|0:1|0:1,0:0:0:0:
363,116,129748,2,0,L|352:188,1,57.5,8|8,0:1|0:3,0:0:0:0:
301,207,130309,6,0,L|307:332,1,115,4|8,0:1|0:1,0:0:0:0:
410,249,131431,2,0,P|452:242|478:243,2,57.5,8|8|8,0:1|3:0|0:1,0:0:0:0:
306,321,132552,2,0,L|172:314,2,115,4|8|8,0:1|0:1|0:1,0:0:0:0:
246,209,134234,2,0,L|238:141,1,57.5,8|8,0:1|0:3,0:0:0:0:
188,113,134795,6,0,P|145:110|72:127,2,115,4|8|8,0:1|0:1|0:1,0:0:0:0:
296,47,136477,2,0,P|339:50|412:33,2,115,8|4|8,0:1|0:1|0:1,0:0:0:0:
176,4,138159,2,0,P|109:9|58:17,1,115,8|8,0:1|0:1,0:0:0:0:
25,137,139281,6,0,P|18:196|32:264,1,115,4|8,0:1|0:1,0:0:0:0:
113,342,140402,2,0,P|150:348|178:347,2,57.5,8|8|8,0:1|0:3|0:1,0:0:0:0:
204,253,141524,2,0,P|256:288|271:353,2,115,4|8|8,0:1|0:1|0:1,0:0:0:0:
96,186,143206,2,0,L|102:109,1,57.5,8|8,0:1|0:3,0:0:0:0:
256,192,143767,12,4,146010,0:0:0:0:
232,171,150496,5,2,0:1:0:0:
232,213,154982,5,2,0:1:0:0:
280,213,159468,5,2,0:1:0:0:
197,260,160029,2,0,L|102:258,2,86.2500032901765,2|2|2,0:0|0:0|0:0,0:0:0:0:
281,326,161711,2,0,P|338:333|398:325,2,97.7500018644333,8|8|8,0:1|0:1|0:3,0:0:0:0:
180,364,163393,1,8,0:1:0:0:
75,292,163954,6,0,P|66:232|79:168,1,115,4|8,0:1|0:1,0:0:0:0:
164,86,165076,2,0,P|165:47|160:20,2,57.5,8|2|8,0:3|0:1|0:1,0:0:0:0:
162,212,166197,2,0,L|283:198,1,115,8|8,0:3|0:1,0:0:0:0:
295,73,167319,1,8,0:3:0:0:
172,105,167879,2,0,L|94:98,1,57.5,8|8,0:1|0:3,0:0:0:0:
51,100,168440,6,0,P|37:152|52:226,1,115,4|8,0:1|0:1,0:0:0:0:
129,306,169562,2,0,P|185:314|240:300,2,115,8|8|8,0:3|0:1|0:3,0:0:0:0:
45,211,171244,1,8,0:1:0:0:
165,173,171805,2,0,P|208:176|231:173,2,57.5,8|8|8,0:3|0:1|0:1,0:0:0:0:
82,77,172926,5,4,0:1:0:0:
195,20,173487,2,0,B|279:13|279:13|326:37,2,115,8|8|8,0:1|0:3|0:1,0:0:0:0:
231,141,175169,2,0,P|228:227|230:275,1,115,8|8,0:3|0:1,0:0:0:0:
316,360,176291,1,8,0:3:0:0:
325,234,176851,2,0,L|385:243,1,57.5,8|8,0:1|0:3,0:0:0:0:
444,252,177412,6,0,P|461:181|449:130,1,115,4|8,0:1|0:1,0:0:0:0:
339,85,178534,2,0,P|300:76|279:76,2,57.5,8|0|8,0:3|0:0|0:3,0:0:0:0:
459,44,179655,2,0,P|463:114|431:173,1,115,8|8,0:3|0:1,0:0:0:0:
357,246,180777,2,0,P|360:285|367:309,2,57.5,8|8|8,0:1|0:1|0:1,0:0:0:0:
268,156,181898,6,0,P|209:145|145:159,1,115,4|8,0:1|0:1,0:0:0:0:
79,256,183020,2,0,P|71:296|72:317,2,57.5,8|2|8,0:3|0:1|0:1,0:0:0:0:
40,135,184141,2,0,P|105:132|172:99,1,115,8|8,0:3|0:1,0:0:0:0:
245,29,185263,1,8,0:3:0:0:
325,126,185824,2,0,L|393:132,1,57.5,8|0,0:1|0:0,0:0:0:0:
438,101,186384,6,0,P|443:175|437:228,1,115,4|8,0:1|0:1,0:0:0:0:
315,243,187506,2,0,P|259:231|190:248,2,115,8|8|8,0:3|0:1|0:3,0:0:0:0:
415,320,189188,1,8,0:1:0:0:
295,363,189749,2,0,L|220:351,2,57.5,8|4|8,0:1|0:0|0:3,0:0:0:0:
415,320,190870,5,4,0:1:0:0:
311,246,191431,2,0,L|185:253,1,115,8|8,0:1|0:3,0:0:0:0:
94,183,192552,2,0,P|71:130|75:53,2,115,8|8|8,0:1|0:1|0:1,0:0:0:0:
199,254,194235,1,8,0:1:0:0:
294,171,194795,2,0,L|288:94,1,57.5,8|0,0:1|0:0,0:0:0:0:
310,54,195356,6,0,P|257:65|175:46,1,115,4|8,0:1|0:1,0:0:0:0:
81,106,196478,2,0,B|66:174|66:174|82:240,2,115,8|8|8,0:3|0:1|0:3,0:0:0:0:
166,201,198160,2,0,P|156:268|115:303,2,115,8|8|8,0:1|0:1|0:3,0:0:0:0:
81,106,199842,5,4,0:1:0:0:
180,27,200402,2,0,P|255:19|305:30,1,115,8|8,0:1|0:3,0:0:0:0:
387,111,201524,2,0,B|391:186|391:186|366:233,2,115,8|8|8,0:1|0:3|0:1,0:0:0:0:
286,187,203206,2,0,P|281:250|313:298,1,115,8|8,0:1|0:3,0:0:0:0:
423,342,204328,5,4,0:1:0:0:
504,265,204888,2,0,L|501:143,1,115,8|8,0:1|0:3,0:0:0:0:
374,146,206010,2,0,P|316:158|238:141,2,115,8|8|8,0:1|0:3|0:1,0:0:0:0:
283,57,207692,2,0,P|202:75|172:119,1,115,8|8,0:3|0:3,0:0:0:0:
168,222,208814,5,4,0:1:0:0:
256,192,209094,12,0,213300,0:0:0:0:
