osu file format v14

[General]
AudioFilename: audio.mp3
AudioLeadIn: 0
PreviewTime: 67225
Countdown: 0
SampleSet: Normal
StackLeniency: 0.7
Mode: 0
LetterboxInBreaks: 0
WidescreenStoryboard: 0

[Editor]
Bookmarks: 31623,49567,67651,107885,125829,181904
DistanceSpacing: 0.1
BeatDivisor: 4
GridSize: 4
TimelineZoom: 1

[Metadata]
Title:Using You
TitleUnicode:Using You
Artist:Mars Argo
ArtistUnicode:Mars Argo
Creator:Bakari
Version:Liuth's Simple
Source:
Tags:Corey Mixter Brittany Sheets Liuth Linden Place EP alternative rock dream pop grocerybag indie titanic sinclair
BeatmapID:1174092
BeatmapSetID:531433

[Difficulty]
HPDrainRate:2
CircleSize:3
OverallDifficulty:2
ApproachRate:3
SliderMultiplier:1.2
SliderTickRate:1

[Events]
//Background and Video events
0,0,"6857538-macro-flower.jpg",0,0
Video,0,"Mars Argo best girl.avi"
//Break Periods
2,85649,88495
2,146210,160551
//Storyboard Layer 0 (Background)
//Storyboard Layer 1 (Fail)
//Storyboard Layer 2 (Pass)
//Storyboard Layer 3 (Foreground)
//Storyboard Sound Samples

[TimingPoints]
13674,560.747663551402,4,2,0,55,1,0
49561,-100,4,3,0,46,0,0
65262,-100,4,2,0,42,0,0
67505,-100,4,1,0,45,0,1
85449,-100,4,2,0,50,0,0
103393,-100,4,2,0,50,0,0
103403,-100,4,2,0,15,0,0
105636,-100,4,3,0,45,0,0
107879,-100,4,1,0,45,0,1
125543,-100,4,2,0,50,0,0
125823,-100,4,1,0,37,0,1
126103,-100,4,1,0,37,0,0
143767,-100,4,3,0,46,0,0
163954,-100,4,1,0,45,0,1
181617,-100,4,1,0,45,0,0
181898,-100,4,1,0,45,0,1
208814,-100,4,1,0,45,0,0
209094,-100,4,2,0,10,0,0

[Colours]
Combo1 : 92,147,148
Combo2 : 155,199,227
Combo3 : 153,181,179

[HitObjects]
40,216,31617,6,0,B|152:216|152:292|272:292,1,240,4|0,0:0|3:0,0:0:0:0:
376,336,33300,1,2,0:0:0:0:
436,232,33860,2,0,L|464:104,2,120,2|2|0,0:0|0:0|0:0,0:0:0:0:
376,336,35543,1,2,0:0:0:0:
260,312,36103,5,4,0:0:0:0:
144,345,36664,2,0,P|140:293|178:220,1,120,2|0,0:0|3:0,0:0:0:0:
276,176,37786,1,2,0:0:0:0:
396,208,38346,2,0,L|424:328,2,120,2|2|0,0:0|0:0|3:0,0:0:0:0:
412,88,40029,1,2,0:0:0:0:
296,112,40589,5,4,0:0:0:0:
176,96,41150,2,0,B|110:95|58:73|58:73|75:194,1,240,2|2,0:0|0:0,0:0:0:0:
116,304,42832,2,0,L|240:332,2,120,2|2|0,0:0|0:0|3:0,0:0:0:0:
76,192,44515,1,2,0:0:0:0:
188,148,45075,5,4,0:0:0:0:
304,176,45636,2,0,P|368:168|408:128,2,120,2|0|2,0:0|3:0|0:0,0:0:0:0:
188,152,47318,2,0,P|224:264|332:292,1,240,2|0,0:0|3:0,0:0:0:0:
444,248,49001,1,2,3:2:0:0:
444,128,49561,5,4,2:0:0:0:
396,16,50122,2,0,P|336:24|288:64,1,120,8|2,0:0|0:2,0:0:0:0:
256,176,51244,1,8,0:0:0:0:
284,292,51804,2,0,L|404:324,2,120,4|8|2,0:0|0:0|0:2,0:0:0:0:
164,296,53487,1,8,0:0:0:0:
52,260,54047,6,0,P|40:200|60:140,1,120,4|8,0:0|0:0,0:0:0:0:
140,64,55169,2,0,B|192:96|192:96|248:112,1,120,2|8,0:2|0:0,0:0:0:0:
340,192,56290,2,0,P|312:248|260:276,2,120,4|8|2,0:0|0:0|0:2,0:0:0:0:
332,72,57973,1,8,0:0:0:0:
440,128,58533,5,4,0:0:0:0:
432,248,59094,2,0,L|464:364,2,120,8|2|8,0:0|0:2|0:0,0:0:0:0:
452,128,60776,2,0,B|340:128|340:200|224:200,1,240,4|2,0:0|0:2,0:0:0:0:
116,240,62459,1,8,0:0:0:0:
52,140,63019,5,4,0:0:0:0:
168,108,63580,2,0,B|280:108|280:180|396:180,1,240,8|8,0:0|0:0,0:0:0:0:
492,248,65262,2,0,L|472:368,2,120,2|0|0,0:0|3:0|0:0,0:0:0:0:
492,128,66945,1,2,3:2:0:0:
416,36,67505,6,2,P|360:40|304:76,1,120,4|8,0:0|0:0,0:0:0:0:
224,160,68627,2,2,B|164:156|164:156|96:128,1,120,4|8,0:3|0:0,0:0:0:0:
44,32,69748,1,4,0:0:0:0:
164,32,70309,1,8,0:0:0:0:
284,52,70870,2,0,L|368:72,2,60,6|2|8,0:3|3:1|0:0,0:0:0:0:
196,132,71991,6,2,P|184:192|216:244,1,120,4|8,0:0|0:0,0:0:0:0:
320,296,73113,2,2,P|332:238|303:187,1,120,4|8,0:3|0:0,0:0:0:0:
196,132,74234,1,4,0:0:0:0:
92,192,74795,1,8,0:0:0:0:
40,84,75356,2,2,L|20:24,2,60,4|2|8,3:0|0:0|0:0,0:0:0:0:
92,192,76477,6,2,P|104:256|88:312,2,120,4|8|4,0:0|0:0|3:0,0:0:0:0:
40,84,78159,1,8,0:0:0:0:
156,112,78720,2,2,P|216:128|272:116,1,120,4|8,0:0|0:0,0:0:0:0:
388,88,79842,2,0,L|412:28,2,60,4|2|8,0:3|0:0|0:0,0:0:0:0:
364,204,80963,6,2,P|384:260|436:296,2,120,4|8|4,0:0|0:0|0:3,0:0:0:0:
388,88,82645,1,8,0:0:0:0:
272,116,83206,2,0,P|216:128|152:112,1,120,4|8,0:0|0:0,0:0:0:0:
44,64,84328,2,0,L|32:0,2,60,4|2|8,3:0|0:0|0:0,0:0:0:0:
32,188,85449,5,6,0:0:0:0:
140,192,89935,6,0,P|256:220|372:192,1,240,6|2,0:0|0:0,0:0:0:0:
452,104,91617,1,0,0:3:0:0:
364,24,92178,2,0,P|300:28|248:64,1,120,2|2,0:0|3:0,0:0:0:0:
156,124,93300,1,2,0:0:0:0:
56,60,93860,1,0,3:0:0:0:
36,180,94421,6,0,P|40:240|76:288,1,120,6|2,0:0|3:0,0:0:0:0:
184,336,95543,1,2,0:0:0:0:
264,248,96103,1,2,0:2:0:0:
384,236,96664,2,0,P|428:284|444:336,2,120,2|2|2,0:0|0:3|0:0,0:0:0:0:
300,152,98346,1,0,0:3:0:0:
180,168,98907,5,6,0:0:0:0:
104,76,99468,2,0,B|176:32|240:68|240:68|332:28,2,240,2|2|2,0:3|0:3|3:0,0:0:0:0:
36,176,102272,2,0,B|28:236|28:236|52:292,1,120,2|10,0:0|0:3,0:0:0:0:
152,352,103393,5,6,0:0:0:0:
148,304,105916,6,0,L|156:220,2,60,4|6|2,0:0|0:0|0:0,0:0:0:0:
272,292,107038,2,0,L|276:352,1,60,2|6,0:0|0:0,0:0:0:0:
392,316,107879,6,2,L|400:192,1,120,6|8,0:0|0:0,0:0:0:0:
388,72,109001,2,2,P|332:96|272:92,1,120,4|8,3:0|0:0,0:0:0:0:
160,52,110122,1,4,0:0:0:0:
68,132,110683,1,8,0:0:0:0:
84,252,111244,2,0,L|72:320,2,60,4|2|8,3:0|3:1|0:0,0:0:0:0:
184,184,112365,6,2,B|240:208|240:208|280:256,1,120,4|8,0:0|0:0,0:0:0:0:
380,316,113487,2,0,P|396:256|376:196,1,120,4|8,3:0|0:0,0:0:0:0:
328,92,114608,1,4,0:0:0:0:
216,140,115169,1,8,0:0:0:0:
104,92,115730,2,0,L|56:48,2,60,4|2|8,3:3|3:1|3:1,0:0:0:0:
128,208,116851,6,2,P|132:272|104:320,1,120,4|8,0:0|0:0,0:0:0:0:
8,248,117973,2,0,P|4:184|32:136,1,120,4|8,0:3|0:0,0:0:0:0:
132,68,119094,1,4,0:0:0:0:
244,112,119655,1,8,0:0:0:0:
364,100,120216,2,0,L|360:40,2,60,4|2|8,0:3|3:1|0:0,0:0:0:0:
396,216,121337,6,2,L|496:284,2,120,4|8|4,0:0|0:0|3:0,0:0:0:0:
276,224,123019,1,8,0:0:0:0:
160,256,123580,2,2,P|100:240|64:192,1,120,4|8,0:0|0:0,0:0:0:0:
84,76,124702,2,0,P|144:92|180:140,1,120,4|8,3:0|0:0,0:0:0:0:
268,216,125823,5,4,0:0:0:0:
388,216,126384,2,0,P|416:176|424:104,1,120,8|4,0:0|3:0,0:0:0:0:
348,16,127505,1,8,0:0:0:0:
232,44,128066,2,2,B|172:48|172:48|108:32,2,120,4|8|4,0:0|0:0|3:0,0:0:0:0:
348,16,129748,1,8,0:0:0:0:
460,64,130309,5,4,0:0:0:0:
364,140,130870,2,0,B|252:140|252:216|128:216,3,240,8|8|8|8,0:0|0:0|0:0|0:0,0:0:0:0:
64,120,134795,5,4,0:0:0:0:
180,92,135356,2,2,P|248:188|256:316,3,240,8|8|8|8,0:0|0:0|0:0|0:0,0:0:0:0:
376,308,139281,6,2,P|380:248|414:200,1,120,4|8,0:0|0:0,0:0:0:0:
492,108,140402,2,2,P|432:108|376:76,1,120,4|8,3:0|0:0,0:0:0:0:
276,24,141524,1,4,0:0:0:0:
160,56,142085,1,8,0:0:0:0:
40,44,142645,2,0,P|48:105|91:155,1,120,4|8,3:0|0:0,0:0:0:0:
192,188,143767,5,4,0:0:0:0:
256,192,144047,12,6,146010,0:0:0:0:
232,352,161991,6,0,L|208:296,2,60,0|4|0,0:0|0:0|0:0,0:0:0:0:
356,360,163113,2,0,L|331:298,1,60,12|4,0:0|0:0,0:0:0:0:
316,192,163954,6,0,L|364:80,1,120,6|0,0:0|0:0,0:0:0:0:
468,24,165075,2,2,P|492:84|476:136,1,120,4|8,3:0|0:0,0:0:0:0:
400,228,166197,1,4,0:0:0:0:
284,200,166758,1,8,0:0:0:0:
164,212,167318,2,0,L|140:272,2,60,4|2|8,3:0|3:1|0:0,0:0:0:0:
192,96,168440,5,4,0:0:0:0:
304,56,169001,2,2,P|364:76|400:120,2,120,8|4|8,0:0|0:3|3:0,0:0:0:0:
192,96,170683,2,2,P|156:148|160:208,1,120,4|8,0:0|0:0,0:0:0:0:
244,288,171804,2,0,P|276:292|304:288,2,60,4|2|8,3:0|0:0|3:1,0:0:0:0:
156,204,172926,5,4,0:0:0:0:
74,113,173487,2,0,P|134:81|190:85,1,120,8|4,0:0|3:0,0:0:0:0:
300,112,174608,1,8,0:0:0:0:
420,92,175169,2,2,P|416:156|384:204,1,120,4|8,0:0|0:0,0:0:0:0:
312,296,176290,2,2,L|340:356,2,60,4|0|8,3:0|0:0|0:0,0:0:0:0:
224,212,177412,6,0,B|176:184|176:184|112:172,1,120,4|8,0:0|0:0,0:0:0:0:
12,104,178533,2,2,P|72:56|120:48,1,120,4|8,3:0|0:0,0:0:0:0:
228,80,179655,1,4,0:0:0:0:
344,108,180216,2,2,P|400:88|436:40,2,120,8|4|8,0:0|3:0|0:0,0:0:0:0:
240,168,181898,5,4,0:0:0:0:
160,260,182459,2,0,P|272:224|388:256,1,240,8|8,0:0|0:0,0:0:0:0:
488,324,184141,1,4,0:0:0:0:
488,204,184702,1,8,0:0:0:0:
452,92,185262,2,0,L|460:32,2,60,4|2|8,3:0|0:0|0:0,0:0:0:0:
404,204,186384,5,4,0:0:0:0:
340,308,186945,2,2,P|284:208|348:96,1,240,8|8,0:0|3:0,0:0:0:0:
424,24,188627,2,2,P|372:44|312:24,1,120,4|8,0:0|0:0,0:0:0:0:
192,20,189748,2,0,P|132:28|96:76,1,120,4|8,3:0|3:1,0:0:0:0:
48,184,190870,5,4,0:0:0:0:
96,292,191431,2,0,B|172:304|216:292|216:292|268:304|336:292,1,240,8|8,0:0|0:0,0:0:0:0:
452,276,193113,2,2,P|392:260|368:208,1,120,4|8,0:0|0:0,0:0:0:0:
396,96,194234,1,4,3:0:0:0:
280,132,194795,1,8,0:0:0:0:
196,44,195356,5,4,0:0:0:0:
144,152,195916,2,2,P|140:216|168:264,2,120,8|4|8,0:0|3:0|0:0,0:0:0:0:
196,44,197599,1,4,0:0:0:0:
280,132,198159,2,0,B|336:156|336:156|400:160,1,120,8|4,0:0|3:0,0:0:0:0:
496,228,199281,1,8,0:0:0:0:
388,280,199842,5,4,2:0:0:0:
396,160,200402,2,2,P|388:96|356:48,2,120,8|4|8,2:0|3:0|0:0,0:0:0:0:
388,280,202085,2,2,B|344:324|344:324|284:340,1,120,4|8,0:0|0:0,0:0:0:0:
176,296,203206,1,4,3:0:0:0:
72,356,203767,1,10,0:0:0:0:
76,236,204328,5,6,0:0:0:0:
176,296,204888,2,0,B|288:296|288:216|404:216,1,240,8|8,0:0|0:0,0:0:0:0:
492,144,206571,1,4,0:0:0:0:
376,112,207131,2,0,P|312:108|264:72,2,120,8|4|8,0:0|3:0|0:0,0:0:0:0:
468,36,208814,5,4,0:0:0:0:
256,192,209094,12,0,211057,0:0:0:0:
